osu file format v128

[General]
AudioFilename: audio.mp3
AudioLeadIn: 0
PreviewTime: 22568
Countdown: 0
SampleSet: Drum
StackLeniency: 0
Mode: 0
LetterboxInBreaks: 0
WidescreenStoryboard: 1

[Editor]
Bookmarks: 2804,22569,45157,67745,81157,82922,90334,95981,101628,107275,110451,112922,132687,135510,146804,158098,159863,160922,172216,183510,196216,201863
DistanceSpacing: 1
BeatDivisor: 4
GridSize: 8
TimelineZoom: 4.795998

[Metadata]
Title: Defragmentation
TitleUnicode: Defragmentation
Artist: Kushper
ArtistUnicode: Kushper
Creator: Wispy
Version: Optimize
Source: National Dutch Championship 2025
Tags: lazysloth900 ndc2025 ndc 2025 ndc25 electronic instrumental finals nm6
BeatmapID: 5329611
BeatmapSetID: 2442592

[Difficulty]
HPDrainRate: 5
CircleSize: 4
OverallDifficulty: 9.5
ApproachRate: 9.6
SliderMultiplier: 1.99999995529652
SliderTickRate: 1

[Events]
0,0,"Kushper-Defragmentation-Final.jpg",0,0
2,113122,118059

[TimingPoints]
2804,352.941176470588,4,3,0,75,1,0
28745,-66.6666666666667,4,3,0,75,0,0
29098,-50,4,3,0,75,0,0
29451,-40,4,3,0,75,0,0
29804,-100,4,3,0,75,0,0
30156,-66.6666666666667,4,3,0,75,0,0
30509,-50,4,3,0,75,0,0
30862,-40,4,3,0,75,0,0
33862,-40,4,3,0,80,0,0
35980,-100,4,3,0,80,0,0
41980,-55.5555555555556,4,3,0,80,0,0
44627,-100,4,3,0,80,0,0
45156,-40,4,3,0,80,0,0
45332,-40,4,3,0,65,0,0
46392,-100,4,3,0,65,0,0
47451,-66.6666666666667,4,3,0,65,0,0
48421,-100,4,3,0,65,0,0
53186,-66.6666666666667,4,3,0,65,0,0
53980,-100,4,3,0,65,0,0
56804,-100,4,3,0,70,0,0
67745,-50,4,3,0,75,0,0
68009,-45.4545454545455,4,3,0,75,0,0
68274,-35.7142857142857,4,3,0,75,0,0
68804,-66.6666666666667,4,3,0,75,0,0
70215,-50,4,3,0,75,0,0
72509,-62.5,4,3,0,75,0,0
73392,-50,4,3,0,80,0,0
74980,-50,4,3,0,75,0,0
75068,-33.3333333333333,4,3,0,75,0,0
75333,-40,4,3,0,75,0,0
75598,-45.4545454545455,4,3,0,75,0,0
75862,-66.6666666666667,4,3,0,75,0,0
76127,-45.4545454545455,4,3,0,75,0,0
76833,-40,4,3,0,75,0,0
77098,-35.7142857142857,4,3,0,75,0,0
77362,-50,4,3,0,75,0,0
78686,-500,4,3,0,75,0,0
79039,-50,4,3,0,75,0,0
79568,-66.6666666666667,4,3,0,75,0,0
80627,-500,4,3,0,75,0,0
80980,-66.6666666666667,4,3,0,75,0,0
81509,-500,4,3,0,75,0,0
81862,-66.6666666666667,4,3,0,75,0,0
82039,-50,4,3,0,75,0,0
82392,-66.6666666666667,4,3,0,75,0,0
83274,-50,4,3,0,80,0,0
84686,-33.3333333333333,4,3,0,80,0,0
85568,-43.4782608695652,4,3,0,80,0,0
86451,-33.3333333333333,4,3,0,80,0,0
86804,-40,4,3,0,80,0,0
87333,-35.7142857142857,4,3,0,80,0,0
88215,-33.3333333333333,4,3,0,85,0,0
88568,-100,4,3,0,85,0,0
88745,-33.3333333333333,4,3,0,85,0,0
89098,-100,4,3,0,85,0,0
89274,-33.3333333333333,4,3,0,85,0,0
89980,-100,4,3,0,85,0,0
90156,-33.3333333333333,4,3,0,85,0,0
90421,-33.3333333333333,4,3,0,75,0,0
90598,-50,4,3,0,75,0,0
95980,-50,4,3,0,80,0,0
101627,-33.3333333333333,4,3,0,80,0,0
102421,-50,4,3,0,80,0,0
110451,-50,4,3,0,85,0,0
118568,-100,4,3,0,60,0,0
132686,-100,4,3,0,65,0,0
134098,-100,4,3,0,70,0,0
134804,-100,4,3,0,75,0,0
135509,-50,4,3,0,80,0,0
146804,-50,4,3,0,85,0,0
152451,-50,4,3,0,90,0,0
158098,-50,4,3,0,85,0,0
158451,-40,4,3,0,85,0,0
158804,-40,4,3,0,80,0,0
159509,-40,4,3,0,75,0,0
159862,-50,4,3,0,75,0,0
160215,-66.6666666666667,4,3,0,70,0,0
160568,-100,4,3,0,70,0,0
160921,-100,4,3,0,65,0,0
172215,-40,4,3,0,70,0,0
174862,-100,4,3,0,70,0,0
182980,-100,4,3,0,69,0,0
183068,-100,4,3,0,68,0,0
183156,-100,4,3,0,67,0,0
183245,-100,4,3,0,66,0,0
183333,-100,4,3,0,65,0,0
183421,-100,4,3,0,64,0,0
183509,-100,4,3,0,63,0,0
183686,-200,4,3,0,63,0,0
183862,-200,4,3,0,64,0,0
184215,-200,4,3,0,65,0,0
184568,-200,4,3,0,66,0,0
184921,-200,4,3,0,67,0,0
185274,-200,4,3,0,68,0,0
185627,-200,4,3,0,69,0,0
185980,-200,4,3,0,70,0,0
186333,-200,4,3,0,71,0,0
186686,-200,4,3,0,72,0,0
187039,-200,4,3,0,73,0,0
187392,-200,4,3,0,74,0,0
187745,-200,4,3,0,75,0,0
188098,-200,4,3,0,76,0,0
188451,-200,4,3,0,77,0,0
188804,-200,4,3,0,78,0,0
189156,-200,4,3,0,79,0,0
189509,-200,4,3,0,80,0,0
189862,-200,4,3,0,81,0,0
190215,-200,4,3,0,82,0,0
190568,-200,4,3,0,83,0,0
190921,-200,4,3,0,84,0,0
191274,-200,4,3,0,85,0,0
191627,-200,4,3,0,86,0,0
191980,-200,4,3,0,87,0,0
192333,-200,4,3,0,88,0,0
192686,-200,4,3,0,89,0,0
193039,-200,4,3,0,90,0,0
193392,-200,4,3,0,92,0,0
193745,-200,4,3,0,93,0,0
194098,-200,4,3,0,94,0,0
194451,-200,4,3,0,95,0,0
194804,-200,4,3,0,96,0,0
195156,-200,4,3,0,97,0,0
195509,-200,4,3,0,98,0,0
195862,-200,4,3,0,99,0,0
196215,-237.570607346504,4,3,0,100,0,0
201332,-237.570607346504,4,3,0,30,0,0

[Colours]
Combo1: 106,173,255,255
Combo2: 128,255,128,255

[HitObjects]
53,223,22568,5,4,3:0:0:0:
43,169,22656,1,0,3:0:0:0:
97,159,22745,1,0,3:0:0:0:
107,213,22833,1,0,3:0:0:0:
91,214,22921,5,4,3:0:0:0:
98,175,23009,1,0,3:0:0:0:
59,168,23098,1,0,3:0:0:0:
52,207,23186,1,0,3:0:0:0:
56,196,23274,5,4,3:0:0:0:
70,172,23362,1,0,3:0:0:0:
94,186,23451,1,0,3:0:0:0:
80,210,23539,1,0,3:0:0:0:
74,201,23627,5,4,3:0:0:0:
85,192,23715,1,0,3:0:0:0:
76,181,23804,1,0,3:0:0:0:
65,190,23892,1,0,3:0:0:0:
76,191,23980,6,0,L|90:118,3,50,4|0|0|0,3:0|3:0|3:0|3:0,2:0:0:0:
66,71,24333,5,4,3:0:0:0:
99,34,24421,1,0,3:0:0:0:
146,17,24509,1,0,3:0:0:0:
195,24,24598,1,0,3:0:0:0:
182,39,24686,5,4,3:0:0:0:
145,34,24774,1,0,3:0:0:0:
109,47,24862,1,0,3:0:0:0:
84,75,24951,1,0,3:0:0:0:
103,77,25039,5,4,3:0:0:0:
122,56,25127,1,0,3:0:0:0:
148,46,25215,1,0,3:0:0:0:
176,50,25304,1,0,3:0:0:0:
167,67,25392,5,4,3:0:0:0:
148,64,25480,1,0,3:0:0:0:
131,71,25568,1,0,3:0:0:0:
119,85,25656,1,0,3:0:0:0:
151,91,25745,6,0,L|135:158,3,50,4|0|0|0,3:0|3:0|3:0|3:0,2:0:0:0:
240,82,26098,5,4,3:0:0:0:
276,90,26186,1,0,3:0:0:0:
313,99,26274,1,0,3:0:0:0:
304,86,26362,1,0,3:0:0:0:
295,74,26451,5,4,3:0:0:0:
332,95,26539,1,0,3:0:0:0:
369,115,26627,1,0,3:0:0:0:
363,99,26715,1,0,3:0:0:0:
357,83,26804,5,4,3:0:0:0:
394,119,26892,1,0,3:0:0:0:
431,155,26980,1,0,3:0:0:0:
429,133,27068,1,0,3:0:0:0:
427,112,27156,5,4,3:0:0:0:
457,165,27245,1,0,3:0:0:0:
488,218,27333,1,0,3:0:0:0:
493,193,27421,1,0,3:0:0:0:
497,169,27509,6,0,P|492:141|468:99,3,50,4|0|0|0,3:0|3:0|3:0|3:0,2:0:0:0:
435,67,27862,2,0,P|439:39|463:-2,3,50,4|0|0|0,3:0|3:0|3:0|3:0,2:0:0:0:
347,130,28215,5,4,3:0:0:0:
352,151,28304,1,2,3:0:0:0:
358,171,28392,2,0,L|426:183,1,50,0|0,3:0|3:0,2:0:0:0:
298,239,28568,5,4,3:0:0:0:
319,211,28656,1,2,3:0:0:0:
339,183,28745,2,0,L|415:197,1,75,0|0,3:0|3:0,2:0:0:0:
317,73,28921,5,4,3:0:0:0:
329,119,29009,1,2,3:0:0:0:
341,165,29098,2,0,L|458:189,1,100,0|0,3:0|3:0,2:0:0:0:
245,271,29274,5,4,3:0:0:0:
280,227,29362,1,2,3:0:0:0:
315,183,29451,2,0,L|445:211,1,125,0|0,3:0|3:0,2:0:0:0:
219,149,29627,5,4,3:0:0:0:
214,129,29715,1,2,3:0:0:0:
208,109,29804,2,0,L|139:96,1,50,0|0,3:0|3:0,2:0:0:0:
268,41,29980,5,4,3:0:0:0:
247,69,30068,1,2,3:0:0:0:
227,97,30156,2,0,L|150:82,1,75,0|0,3:0|3:0,2:0:0:0:
249,207,30333,5,4,3:0:0:0:
237,161,30421,1,2,3:0:0:0:
225,115,30509,2,0,L|107:90,1,100,0|0,3:0|3:0,2:0:0:0:
321,9,30686,5,4,3:0:0:0:
286,53,30774,1,2,3:0:0:0:
251,96,30862,2,0,L|101:63,1,125,0|0,3:0|3:0,2:0:0:0:
51,150,31039,5,4,3:0:0:0:
74,146,31127,1,2,3:0:0:0:
78,169,31215,1,2,3:0:0:0:
55,173,31304,1,0,3:0:0:0:
108,196,31392,5,4,3:0:0:0:
134,191,31480,1,2,3:0:0:0:
139,218,31568,1,2,3:0:0:0:
112,222,31656,1,0,3:0:0:0:
70,260,31745,5,4,3:0:0:0:
103,254,31833,1,2,3:0:0:0:
109,287,31921,1,2,3:0:0:0:
76,293,32009,1,0,3:0:0:0:
125,314,32098,5,4,3:0:0:0:
167,307,32186,1,2,3:0:0:0:
175,349,32274,1,2,3:0:0:0:
132,357,32362,1,0,3:0:0:0:
180,296,32451,6,0,L|243:312|130:256,1,125,4|2,3:0|3:0,2:0:0:0:
452,373,32627,5,2,3:0:0:0:
423,351,32715,1,2,3:0:0:0:
393,347,32804,2,0,B|372:342|353:346|337:356|337:356|357:327|394:318|426:331|444:355,1,125,4|2,3:0|3:0,2:0:0:0:
243,221,32980,5,2,3:0:0:0:
292,204,33068,1,2,3:0:0:0:
334,212,33156,2,0,B|354:214|371:224|384:238|384:238|373:204|341:184|306:186|282:204,1,125,4|2,3:0|3:0,2:0:0:0:
497,54,33333,5,2,3:0:0:0:
433,43,33421,1,2,3:0:0:0:
383,62,33509,2,0,B|363:67|347:80|338:96|338:96|342:61|370:36|405:32|432:45,1,125,4|2,3:0|3:0,2:0:0:0:
241,89,33686,1,2,3:0:0:0:
243,78,33774,1,2,3:0:0:0:
189,26,33862,5,4,3:0:0:0:
201,70,33951,1,2,3:0:0:0:
212,113,34039,1,2,3:0:0:0:
223,157,34127,1,2,3:0:0:0:
294,215,34215,5,4,1:3:0:0:
270,196,34304,1,2,3:0:0:0:
247,176,34392,1,2,3:0:0:0:
223,157,34480,1,2,3:0:0:0:
154,153,34568,5,4,3:0:0:0:
177,154,34656,1,2,3:0:0:0:
200,156,34745,1,2,3:0:0:0:
223,157,34833,1,2,3:0:0:0:
273,125,34921,5,4,1:3:0:0:
257,136,35009,1,2,3:0:0:0:
240,147,35098,1,2,3:0:0:0:
223,157,35186,1,2,3:0:0:0:
207,200,35274,5,4,3:0:0:0:
212,186,35362,1,2,3:0:0:0:
218,171,35451,1,2,3:0:0:0:
223,157,35539,1,2,3:0:0:0:
215,124,35627,5,4,1:3:0:0:
218,135,35715,1,2,3:0:0:0:
221,146,35804,1,2,3:0:0:0:
223,157,35892,1,2,3:0:0:0:
164,221,35980,6,0,L|105:206,1,50,4|2,3:0|3:0,2:0:0:0:
300,332,36156,1,2,3:0:0:0:
313,326,36245,1,2,3:0:0:0:
327,321,36333,2,0,L|268:306,1,50,4|2,1:3|3:0,2:0:0:0:
140,383,36509,1,2,3:0:0:0:
165,371,36598,1,2,3:0:0:0:
190,362,36686,2,0,L|131:347,1,50,4|2,3:0|3:0,2:0:0:0:
124,270,36862,1,2,3:0:0:0:
167,249,36951,1,2,3:0:0:0:
213,233,37039,2,0,L|154:218,1,50,4|2,1:3|3:0,2:0:0:0:
5,313,37215,2,0,L|53:325,1,50,2|2,3:0|3:0,2:0:0:0:
58,168,37392,5,4,3:0:0:0:
87,133,37480,1,2,3:0:0:0:
108,93,37568,1,2,3:0:0:0:
118,48,37656,1,2,3:0:0:0:
193,26,37745,5,4,1:3:0:0:
216,54,37833,1,2,3:0:0:0:
233,87,37921,1,2,3:0:0:0:
241,123,38009,1,2,3:0:0:0:
319,104,38098,5,4,3:0:0:0:
335,84,38186,1,2,3:0:0:0:
347,61,38274,1,2,3:0:0:0:
352,36,38362,1,2,3:0:0:0:
429,9,38451,5,4,1:3:0:0:
440,23,38539,1,2,3:0:0:0:
448,39,38627,1,2,3:0:0:0:
452,56,38715,1,2,3:0:0:0:
422,145,38804,6,0,L|493:129,1,50,4|2,3:0|3:0,2:0:0:0:
285,18,38980,1,2,3:0:0:0:
324,12,39068,1,2,3:0:0:0:
352,36,39156,2,0,L|280:51,1,50,4|2,1:3|3:0,2:0:0:0:
285,220,39333,2,0,L|333:209,1,50,2|2,3:0|3:0,2:0:0:0:
390,300,39509,5,4,3:0:0:0:
424,307,39598,1,2,3:0:0:0:
459,315,39686,1,2,3:0:0:0:
493,322,39774,1,2,3:0:0:0:
492,295,39862,5,4,1:3:0:0:
458,305,39951,1,2,3:0:0:0:
425,316,40039,1,2,3:0:0:0:
391,327,40127,1,2,3:0:0:0:
406,350,40215,5,4,3:0:0:0:
430,324,40304,1,2,3:0:0:0:
453,298,40392,1,2,3:0:0:0:
477,272,40480,1,2,3:0:0:0:
453,259,40568,5,4,1:3:0:0:
445,294,40656,1,2,3:0:0:0:
438,328,40745,1,2,3:0:0:0:
430,363,40833,1,2,3:0:0:0:
391,327,40921,6,0,L|311:351,1,50,4|2,3:0|3:0,2:0:0:0:
141,272,41098,1,2,3:0:0:0:
132,251,41186,1,2,3:0:0:0:
145,232,41274,2,0,L|224:256,1,50,4|2,1:3|3:0,2:0:0:0:
356,131,41451,2,0,L|276:155,1,50,2|2,3:0|3:0,2:0:0:0:
254,49,41627,5,4,3:0:0:0:
256,43,41715,1,2,3:0:0:0:
257,36,41804,1,2,3:0:0:0:
259,29,41892,1,2,3:0:0:0:
226,19,41980,6,0,L|180:14|126:41,1,90,4|2,1:3|3:0,2:0:0:0:
282,128,42156,2,0,L|327:132|381:105,1,90,2|2,3:0|3:0,2:0:0:0:
274,230,42333,5,4,3:0:0:0:
263,274,42421,1,2,3:0:0:0:
253,318,42509,1,2,3:0:0:0:
242,362,42598,1,2,3:0:0:0:
188,312,42686,5,4,1:3:0:0:
232,301,42774,1,2,3:0:0:0:
276,290,42862,1,2,3:0:0:0:
320,280,42951,1,2,3:0:0:0:
405,230,43039,5,4,3:0:0:0:
419,250,43127,1,2,3:0:0:0:
402,247,43215,1,2,3:0:0:0:
421,233,43304,1,2,3:0:0:0:
322,182,43392,5,4,1:3:0:0:
295,219,43480,1,2,3:0:0:0:
327,214,43568,1,2,3:0:0:0:
290,187,43656,1,2,3:0:0:0:
338,102,43745,5,4,3:0:0:0:
301,76,43833,1,2,3:0:0:0:
333,70,43921,1,2,3:0:0:0:
306,108,44009,1,2,3:0:0:0:
206,57,44098,5,4,1:3:0:0:
226,43,44186,1,2,3:0:0:0:
209,40,44274,1,2,3:0:0:0:
223,59,44362,1,2,3:0:0:0:
159,131,44451,5,4,3:0:0:0:
131,122,44539,1,2,3:0:0:0:
102,113,44627,2,0,L|84:31,1,50,2|2,3:0|3:0,2:0:0:0:
35,175,44804,5,4,1:3:0:0:
22,179,44892,1,2,3:0:0:0:
10,183,44980,2,0,L|-7:264,1,50,2|2,3:0|3:0,2:0:0:0:
0,8,45156,6,0,L|51:14|47:31|119:74|144:66|225:77,1,250,4|2,3:3|2:0,2:0:0:0:
256,151,45421,1,2,2:0:0:0:
280,141,45509,5,4,3:3:0:0:
285,130,45598,1,2,3:2:0:0:
233,162,45686,5,2,2:0:0:0:
228,172,45774,1,2,2:0:0:0:
271,131,45862,5,4,3:3:0:0:
271,119,45951,1,2,3:2:0:0:
242,172,46039,5,2,2:0:0:0:
242,184,46127,1,2,2:0:0:0:
259,126,46215,5,4,3:3:0:0:
253,116,46304,1,2,3:2:0:0:
256,151,46392,2,0,P|265:174|270:198,1,50,2|0,2:0|2:0,2:0:0:0:
200,353,46568,5,4,3:3:0:0:
194,363,46656,1,0,3:0:0:0:
198,328,46745,2,0,P|207:304|212:280,1,50,2|2,2:0|2:0,2:0:0:0:
134,208,46921,6,0,P|110:217|86:222,2,50,4|2|0,3:3|3:2|2:0,2:0:0:0:
142,220,47186,1,0,2:0:0:0:
151,211,47274,1,4,3:3:0:0:
299,354,47451,6,0,P|322:363|379:365,1,75,2|2,2:0|2:0,2:0:0:0:
454,284,47627,1,4,3:3:0:0:
443,297,47715,2,0,L|469:410,1,75,2|0,3:2|2:0,2:0:0:0:
372,231,47892,1,2,2:0:0:0:
393,223,47980,1,4,3:3:0:0:
398,213,48068,1,0,3:0:0:0:
362,224,48156,2,0,L|388:110,1,75,2|0,2:0|3:0,2:0:0:0:
322,68,48333,5,4,3:3:0:0:
312,44,48421,2,0,L|237:25,2,50,0|2|0,3:0|2:0|2:0,2:0:0:0:
454,36,48686,5,4,3:3:0:0:
463,12,48774,2,0,L|537:-6,2,50,0|2|0,3:0|2:0|2:0,2:0:0:0:
322,68,49039,6,0,L|334:19,1,50,4|2,3:3|3:2,2:0:0:0:
454,36,49215,2,0,L|466:84,1,50,0|2,2:0|2:0,2:0:0:0:
390,140,49392,5,4,3:3:0:0:
393,149,49480,1,2,3:2:0:0:
385,170,49568,1,2,2:0:0:0:
387,179,49656,1,2,2:0:0:0:
326,177,49745,5,4,3:3:0:0:
368,165,49833,1,2,3:2:0:0:
410,153,49921,1,2,2:0:0:0:
453,140,50009,1,2,2:0:0:0:
390,140,50098,5,4,3:3:0:0:
393,149,50186,1,0,3:0:0:0:
385,170,50274,1,2,2:0:0:0:
387,179,50362,1,0,2:0:0:0:
457,221,50451,1,4,3:3:0:0:
317,283,50627,5,2,2:0:0:0:
349,273,50715,1,2,2:0:0:0:
381,263,50804,2,0,L|362:330,1,50,4|0,3:3|3:0,2:0:0:0:
265,384,50980,2,0,L|246:316,1,50,2|2,2:0|2:0,2:0:0:0:
232,141,51156,5,4,3:3:0:0:
227,130,51245,1,2,3:2:0:0:
279,162,51333,5,2,2:0:0:0:
284,172,51421,1,2,2:0:0:0:
241,131,51509,5,4,3:3:0:0:
241,119,51598,1,2,3:2:0:0:
270,172,51686,5,2,2:0:0:0:
270,184,51774,1,2,2:0:0:0:
253,126,51862,5,4,3:3:0:0:
259,116,51951,1,2,3:2:0:0:
256,151,52039,2,0,P|246:174|241:198,1,50,2|0,2:0|2:0,2:0:0:0:
371,251,52215,5,4,3:3:0:0:
361,257,52304,1,0,3:0:0:0:
397,253,52392,2,0,P|420:243|444:238,1,50,2|2,2:0|2:0,2:0:0:0:
291,361,52568,2,0,L|305:284,2,50,4|2|0,3:3|3:2|2:0,2:0:0:0:
281,373,52833,1,0,2:0:0:0:
294,374,52921,1,4,3:3:0:0:
40,327,53098,5,2,2:0:0:0:
66,348,53186,2,0,P|89:357|162:366,1,75,2|4,2:0|3:3,2:0:0:0:
193,250,53362,2,0,L|218:355,1,75,2|0,3:2|2:0,2:0:0:0:
64,250,53539,1,2,2:0:0:0:
88,228,53627,5,4,3:3:0:0:
91,217,53715,1,0,3:0:0:0:
77,196,53804,1,2,2:0:0:0:
80,185,53892,1,0,3:0:0:0:
94,156,53980,6,0,L|75:93,1,50,4|0,3:3|3:0,2:0:0:0:
211,16,54156,1,2,2:0:0:0:
213,27,54245,1,0,2:0:0:0:
182,0,54333,2,0,L|163:62,1,50,4|0,3:3|3:0,2:0:0:0:
80,109,54509,2,0,L|17:127,1,50,2|0,2:0|2:0,2:0:0:0:
191,7,54686,6,0,L|172:69,1,50,4|2,3:3|3:2,2:0:0:0:
115,156,54862,1,0,2:0:0:0:
131,161,54951,1,2,2:0:0:0:
122,140,55039,5,4,3:3:0:0:
119,149,55127,1,2,3:2:0:0:
127,170,55215,1,2,2:0:0:0:
125,179,55303,1,2,2:0:0:0:
186,177,55392,5,4,3:3:0:0:
144,165,55480,1,2,3:2:0:0:
102,153,55568,1,2,2:0:0:0:
59,140,55656,1,2,2:0:0:0:
122,140,55745,5,4,3:3:0:0:
119,149,55833,1,0,3:0:0:0:
127,170,55921,1,2,2:0:0:0:
125,179,56009,1,0,2:0:0:0:
55,221,56098,1,4,3:3:0:0:
199,300,56274,5,2,2:0:0:0:
157,294,56362,1,2,2:0:0:0:
125,321,56451,2,0,P|142:325|189:363,1,50,4|2,3:3|3:2,2:0:0:0:
369,229,56627,2,0,P|351:233|304:271,1,50,2|2,3:2|3:2,2:0:0:0:
260,378,56804,5,4,1:3:0:0:
245,384,56892,1,2,3:2:0:0:
270,348,56980,5,2,3:2:0:0:
285,355,57068,1,2,3:2:0:0:
256,320,57156,5,4,3:3:0:0:
240,326,57245,1,2,3:2:0:0:
265,291,57333,5,2,3:2:0:0:
281,297,57421,1,2,3:2:0:0:
251,262,57509,5,4,1:3:0:0:
236,268,57598,1,2,3:2:0:0:
261,233,57686,5,2,3:2:0:0:
276,239,57774,1,2,3:2:0:0:
246,204,57862,5,4,3:3:0:0:
231,211,57951,1,2,3:2:0:0:
256,175,58039,5,2,3:2:0:0:
271,181,58127,1,2,3:2:0:0:
242,146,58215,5,4,1:3:0:0:
226,153,58303,1,2,3:2:0:0:
251,117,58392,5,2,2:0:0:0:
267,123,58480,1,2,2:0:0:0:
237,89,58568,5,4,3:3:0:0:
222,95,58656,1,2,3:2:0:0:
247,59,58745,5,2,3:2:0:0:
262,66,58833,1,2,3:2:0:0:
232,31,58921,5,4,1:3:0:0:
217,37,59009,1,2,3:2:0:0:
242,1,59098,6,0,L|268:-2|227:8,1,50,2|0,3:2|3:0,2:0:0:0:
261,103,59274,5,4,3:3:0:0:
268,148,59362,1,2,3:2:0:0:
255,192,59451,1,2,3:2:0:0:
222,224,59539,1,2,3:2:0:0:
301,267,59627,5,4,1:3:0:0:
269,235,59715,1,2,3:2:0:0:
255,192,59804,1,2,3:2:0:0:
262,147,59892,1,2,3:2:0:0:
172,158,59980,5,4,3:3:0:0:
218,165,60068,1,2,3:2:0:0:
255,192,60156,1,2,3:2:0:0:
275,232,60245,1,2,3:2:0:0:
340,170,60333,5,4,1:3:0:0:
300,191,60421,1,2,3:2:0:0:
255,192,60509,1,2,3:2:0:0:
214,171,60598,1,2,3:2:0:0:
198,259,60686,5,4,3:3:0:0:
218,219,60774,1,2,3:2:0:0:
255,192,60862,1,2,3:2:0:0:
300,185,60951,1,2,3:2:0:0:
261,103,61039,5,4,1:3:0:0:
268,148,61127,1,2,3:2:0:0:
255,192,61215,1,2,2:0:0:0:
222,224,61304,1,2,2:0:0:0:
301,267,61392,5,4,3:3:0:0:
269,235,61480,1,2,3:2:0:0:
255,192,61568,1,2,3:2:0:0:
262,147,61656,1,2,3:2:0:0:
255,47,61745,5,4,1:3:0:0:
259,29,61833,1,2,3:3:0:0:
281,43,61921,5,2,3:3:0:0:
233,33,62009,1,2,3:3:0:0:
257,38,62098,5,4,3:3:0:0:
256,194,62274,6,0,L|325:176,1,50,2|2,3:2|3:2,2:0:0:0:
504,205,62451,5,4,1:3:0:0:
495,178,62539,1,2,3:2:0:0:
472,158,62627,1,2,3:2:0:0:
463,131,62715,1,2,3:2:0:0:
399,189,62804,5,4,3:3:0:0:
384,193,62892,1,2,3:2:0:0:
370,196,62980,1,2,3:2:0:0:
356,200,63068,1,2,3:2:0:0:
281,226,63156,5,4,1:3:0:0:
272,199,63245,1,2,3:2:0:0:
249,179,63333,1,2,3:2:0:0:
240,153,63421,1,2,3:2:0:0:
175,211,63509,5,4,3:3:0:0:
161,214,63598,1,2,3:2:0:0:
147,218,63686,1,2,3:2:0:0:
133,221,63774,1,2,3:2:0:0:
57,251,63862,5,4,1:3:0:0:
48,225,63951,1,2,3:2:0:0:
25,205,64039,1,2,2:0:0:0:
16,178,64127,1,2,2:0:0:0:
121,196,64215,5,4,3:3:0:0:
136,193,64304,1,2,3:2:0:0:
150,189,64392,1,2,3:2:0:0:
164,186,64480,1,2,3:2:0:0:
240,153,64568,5,4,1:3:0:0:
249,179,64656,1,2,3:2:0:0:
272,199,64745,2,0,L|292:130,1,50,2|0,3:2|3:0,2:0:0:0:
0,182,64921,5,4,3:3:0:0:
48,169,65009,1,2,3:2:0:0:
95,183,65098,1,2,3:2:0:0:
129,219,65186,1,2,3:2:0:0:
142,296,65274,5,4,1:3:0:0:
148,321,65362,1,2,3:2:0:0:
134,341,65451,1,2,3:2:0:0:
128,317,65539,1,2,3:2:0:0:
129,219,65627,5,4,3:3:0:0:
150,174,65715,1,2,3:2:0:0:
191,147,65803,1,2,3:2:0:0:
241,145,65892,1,2,3:2:0:0:
271,220,65980,5,4,1:3:0:0:
265,244,66068,1,2,3:2:0:0:
279,265,66156,1,2,3:2:0:0:
285,240,66245,1,2,3:2:0:0:
241,145,66333,5,4,3:3:0:0:
283,120,66421,1,2,3:2:0:0:
333,121,66509,1,2,3:2:0:0:
375,147,66598,1,2,3:2:0:0:
397,226,66686,5,4,1:3:0:0:
403,250,66774,1,2,3:2:0:0:
389,271,66862,1,2,2:0:0:0:
383,247,66951,1,2,2:0:0:0:
375,147,67039,5,4,3:3:0:0:
424,140,67127,1,2,3:2:0:0:
469,159,67215,1,2,3:2:0:0:
498,198,67303,1,2,3:2:0:0:
474,278,67392,5,4,1:3:0:0:
477,293,67480,1,2,3:2:0:0:
480,307,67568,2,0,L|390:288,1,50,2|2,3:2|3:2,2:0:0:0:
235,376,67745,6,0,P|283:363|224:364,1,200,4|0,3:3|2:0,2:0:0:0:
253,348,68009,6,0,B|263:305|263:305|207:265|186:197|204:136,1,220,2|0,3:1|2:0,2:0:0:0:
275,147,68274,6,0,B|288:160|288:160|223:161|174:94|202:20|260:0|260:0|230:62,1,280,4|4,3:2|3:0,2:0:0:0:
275,49,68539,5,2,2:0:0:0:
351,35,68627,1,8,1:2:0:0:
423,60,68715,1,2,2:0:0:0:
473,119,68804,2,0,P|457:155|481:242,1,75,4|2,3:0|2:0,2:0:0:0:
275,147,68980,2,0,P|259:110|283:23,1,75,2|2,2:3|2:0,2:0:0:0:
47,208,69156,5,4,1:3:0:0:
129,219,69245,1,2,2:0:0:0:
50,198,69333,5,2,2:2:0:0:
127,229,69421,2,0,L|150:193|142:133,1,75,2|4,2:3|1:3,2:0:0:0:
350,303,69686,5,2,2:0:0:0:
432,291,69774,1,2,2:2:0:0:
353,312,69862,5,4,1:3:0:0:
430,281,69951,2,0,L|453:316|445:376,1,75,2|0,2:3|1:0,2:0:0:0:
269,384,70127,5,0,1:0:0:0:
267,378,70171,1,0,3:0:0:0:
264,373,70215,2,0,L|233:140,1,200,4|8,1:3|1:2,2:0:0:0:
180,121,70480,1,0,1:0:0:0:
273,15,70568,1,4,1:3:0:0:
239,174,70745,6,0,B|212:222|206:276|219:325|219:325|232:311|240:295|243:278,1,200,2|4,3:0|3:0,2:0:0:0:
240,289,71098,6,0,L|362:258,1,100,8|0,1:2|2:0,2:0:0:0:
427,131,71274,1,4,3:0:0:0:
334,184,71362,6,0,L|456:153,1,100,10|0,3:2|2:0,2:0:0:0:
486,226,71539,5,8,1:2:0:0:
512,140,71627,1,4,3:0:0:0:
402,378,71804,1,8,1:2:0:0:
240,289,71980,6,0,L|362:258,1,100,4|0,1:3|2:0,2:0:0:0:
512,140,72156,1,2,3:0:0:0:
402,378,72333,1,4,3:0:0:0:
240,289,72509,6,0,L|251:274|236:209,1,80,8|0,1:2|2:0,2:0:0:0:
301,97,72686,1,4,3:0:0:0:
334,184,72774,6,0,L|345:169|330:104,1,80,8|0,3:2|2:0,2:0:0:0:
259,30,72951,5,0,1:0:0:0:
246,9,73039,1,4,3:0:0:0:
216,0,73127,1,0,3:0:0:0:
164,16,73215,1,0,1:0:0:0:
134,92,73304,5,0,1:0:0:0:
128,94,73348,1,0,1:0:0:0:
123,97,73392,2,0,B|5:125|5:125|34:120|62:133|78:155,1,200,4|2,1:2|3:2,2:0:0:0:
11,222,73656,5,2,3:3:0:0:
16,208,73745,1,4,3:3:0:0:
50,240,73833,1,2,3:3:0:0:
37,300,73921,1,2,3:2:0:0:
245,314,74098,5,4,3:3:0:0:
184,306,74186,1,2,3:3:0:0:
126,325,74274,1,2,1:2:0:0:
82,368,74362,1,2,3:3:0:0:
37,300,74451,5,4,1:2:0:0:
26,305,74539,1,2,2:0:0:0:
61,217,74627,5,2,2:0:0:0:
73,222,74715,1,2,2:0:0:0:
24,138,74804,6,0,B|5:103|5:103|218:162,1,200,4|0,1:1|2:0,2:0:0:0:
248,199,75068,6,0,B|233:225|233:225|352:192|352:192|390:180|399:128|361:98|323:105|306:129,1,300,2|0,3:0|2:0,2:0:0:0:
439,221,75333,6,0,B|458:227|458:227|511:180|490:88|405:64|347:104|336:157,1,250,2|4,3:0|3:0,2:0:0:0:
363,334,75598,6,0,B|343:327|343:327|324:262|394:198|477:236|490:306|458:348,1,220,2|0,3:0|2:0,2:0:0:0:
471,304,75862,6,0,P|456:332|451:375,1,75,6|0,3:0|2:0,2:0:0:0:
274,363,76039,1,0,2:0:0:0:
208,307,76127,6,0,P|193:278|252:82,1,220,10|0,3:0|2:0,2:0:0:0:
202,321,76392,2,0,P|154:311|86:250,1,110,6|0,3:2|2:0,2:0:0:0:
229,104,76568,6,0,B|235:165|291:208|350:201|350:201|336:170|306:153|275:153,1,220,4|0,3:0|2:0,2:0:0:0:
252,184,76833,6,0,B|229:246|160:276|100:253|100:253|108:217|146:195|181:206,1,250,2|0,3:3|2:0,2:0:0:0:
242,278,77098,6,0,B|249:334|297:375|355:377|397:352|397:352|399:314|373:282|337:272|306:282,1,280,2|4,3:3|3:0,2:0:0:0:
232,254,77362,6,0,P|209:334|231:412,1,100,2|0,3:3|2:0,2:0:0:0:
211,350,77627,6,0,L|168:339|161:327|111:315,1,100,4|0,1:3|2:0,2:0:0:0:
287,190,77804,2,0,L|334:173|379:210,1,100,2|0,3:0|2:0,2:0:0:0:
229,104,77980,1,4,3:0:0:0:
229,104,78156,6,0,L|307:93|329:67,1,100,8|0,1:2|2:0,2:0:0:0:
400,132,78333,5,4,3:0:0:0:
472,3,78421,1,8,1:2:0:0:
402,41,78509,2,0,L|480:51|502:77,1,100,8|0,1:2|2:0,2:0:0:0:
178,207,78686,6,0,L|185:181,1,20,4|0,3:0|2:0,2:0:0:0:
183,188,79039,6,0,L|169:203|91:214,1,100,4|0,1:3|2:0,2:0:0:0:
373,205,79215,2,0,L|334:173|287:189,1,100,2|0,3:0|2:0,2:0:0:0:
17,169,79392,1,4,3:0:0:0:
180,259,79568,6,0,B|173:241|173:241|186:199|186:199|173:163,1,75,8|0,1:2|2:0,2:0:0:0:
31,255,79745,1,4,3:0:0:0:
100,384,79833,1,8,1:2:0:0:
102,293,79921,2,0,B|95:310|95:310|108:352|108:352|95:388,1,75,8|0,1:2|2:0,2:0:0:0:
229,371,80098,5,4,3:0:0:0:
232,384,80186,1,2,2:0:0:0:
290,315,80274,5,2,2:0:0:0:
363,332,80362,1,2,2:0:0:0:
437,348,80451,1,4,1:3:0:0:
287,190,80627,6,0,L|294:215,1,20,2|4,3:0|3:0,2:0:0:0:
292,209,80980,6,0,B|298:191|298:191|285:149|285:149|298:113,1,75,8|0,1:2|2:0,2:0:0:0:
495,175,81156,1,4,3:0:0:0:
424,214,81245,2,0,B|430:231|430:231|417:273|417:273|430:309,1,75,8|8,1:2|1:2,2:0:0:0:
141,208,81509,6,0,L|133:182,1,20,4|0,3:0|2:0,2:0:0:0:
135,188,81862,6,0,B|152:194|152:194|229:181,1,75,4|0,1:3|2:0,2:0:0:0:
0,226,82039,2,0,L|48:214|14:168,1,100,2|0,3:0|2:0,2:0:0:0:
292,209,82215,1,4,3:0:0:0:
238,366,82392,6,0,L|226:348|157:330,1,75,8|0,1:2|2:0,2:0:0:0:
410,269,82568,1,4,3:0:0:0:
330,319,82656,2,0,L|318:301|249:283,1,75,8|8,1:2|1:2,2:0:0:0:
266,288,82921,5,4,3:0:0:0:
211,226,83009,1,2,2:0:0:0:
253,154,83098,1,2,3:0:0:0:
294,82,83186,1,2,2:0:0:0:
239,20,83274,2,0,L|96:38,1,100,4|0,1:2|2:0,2:0:0:0:
253,154,83451,5,2,2:0:0:0:
201,144,83539,1,2,1:2:0:0:
150,134,83627,1,4,3:0:0:0:
98,124,83715,1,2,1:2:0:0:
59,203,83804,2,0,L|86:329,1,100,4|0,3:2|2:0,2:0:0:0:
222,346,83980,5,4,3:3:0:0:
286,333,84068,1,0,1:0:0:0:
225,355,84156,5,0,1:0:0:0:
283,324,84245,1,8,1:2:0:0:
224,253,84333,5,4,3:3:0:0:
209,258,84421,1,8,1:2:0:0:
265,180,84509,5,8,1:2:0:0:
280,186,84598,1,8,1:2:0:0:
243,101,84686,6,0,L|266:12|203:106|257:252|231:299|249:356,1,450,4|0,1:2|2:0,2:0:0:0:
253,357,85039,2,0,L|196:350|370:388,1,150,4|0,1:2|2:0,2:0:0:0:
490,164,85215,5,2,2:0:0:0:
489,231,85304,1,2,1:2:0:0:
450,285,85392,1,4,3:0:0:0:
388,308,85480,1,2,1:2:0:0:
323,292,85568,2,0,P|313:236|276:188,1,115,2|0,3:3|2:0,2:0:0:0:
204,163,85745,5,4,3:3:0:0:
198,144,85833,1,0,1:0:0:0:
155,237,85921,5,0,1:0:0:0:
149,256,86009,1,8,1:2:0:0:
88,177,86098,5,4,3:3:0:0:
16,212,86186,1,8,1:2:0:0:
91,188,86274,5,8,1:2:0:0:
12,201,86362,1,8,1:2:0:0:
155,237,86451,6,0,L|185:250|483:174|342:267,1,450,4|0,1:2|2:0,2:0:0:0:
253,250,86804,6,0,L|242:225|257:206|284:85,1,125,4|0,1:2|2:0,2:0:0:0:
264,28,86980,5,8,1:2:0:0:
341,53,87068,1,8,1:1:0:0:
392,116,87156,1,4,3:3:0:0:
427,43,87245,1,8,1:1:0:0:
497,2,87333,2,0,L|507:54|481:100|475:140,1,140,4|0,1:2|2:0,2:0:0:0:
376,284,87509,5,4,3:3:0:0:
340,212,87598,1,8,1:2:0:0:
362,288,87686,5,8,1:2:0:0:
354,208,87774,1,8,1:2:0:0:
448,245,87862,5,4,3:2:0:0:
439,341,87951,1,8,1:2:0:0:
465,250,88039,5,8,1:1:0:0:
422,336,88127,1,8,1:2:0:0:
416,339,88171,1,8,1:2:0:0:
410,342,88215,2,0,L|67:278,1,300,4|2,1:2|1:3,2:0:0:0:
211,282,88480,5,8,1:1:0:0:
42,320,88568,2,0,L|33:270,1,50,4|0,1:3|2:0,2:0:0:0:
34,271,88745,6,0,L|376:207,1,300,4|12,1:2|3:0,2:0:0:0:
234,211,89009,5,8,1:2:0:0:
402,249,89098,2,0,L|410:199,1,50,2|0,1:3|2:0,2:0:0:0:
271,353,89274,6,0,L|258:342|231:199,1,150,4|0,1:2|2:0,2:0:0:0:
499,72,89451,6,0,L|475:161|512:64,1,150,2|0,3:0|2:0,2:0:0:0:
410,199,89627,6,0,L|67:135,1,300,4|2,1:2|1:3,2:0:0:0:
211,140,89892,5,8,1:1:0:0:
42,178,89980,2,0,L|33:128,1,50,12|0,1:3|2:0,2:0:0:0:
281,2,90156,6,0,L|258:9|245:80|266:126|225:168|222:240,1,225,4|0,1:2|2:0,2:0:0:0:
226,198,90333,5,4,1:1:0:0:
246,206,90421,1,2,2:0:0:0:
179,279,90509,5,2,2:0:0:0:
158,287,90598,2,0,P|151:237|115:181,1,100,2|4,2:0|3:0,2:0:0:0:
128,194,90862,5,8,1:2:0:0:
148,203,90951,1,2,2:0:0:0:
81,276,91039,5,4,3:0:0:0:
60,284,91127,2,0,P|53:234|17:178,1,100,2|8,2:0|1:2,2:0:0:0:
30,191,91392,5,4,3:0:0:0:
128,172,91480,1,2,2:2:0:0:
226,152,91568,2,0,L|256:23,1,100,2|2,2:2|2:2,2:0:0:0:
316,278,91745,5,8,1:2:0:0:
337,287,91833,1,2,2:2:0:0:
269,360,91921,5,2,2:2:0:0:
249,368,92009,2,0,P|242:318|206:262,1,100,2|4,2:2|3:0,2:0:0:0:
219,275,92274,5,8,1:2:0:0:
239,284,92362,1,2,2:0:0:0:
171,356,92451,5,4,3:0:0:0:
151,365,92539,2,0,P|144:315|108:259,1,100,2|8,2:0|1:2,2:0:0:0:
121,272,92804,5,4,3:0:0:0:
183,295,92892,1,2,2:0:0:0:
244,268,92980,1,8,1:2:0:0:
267,206,93068,1,8,1:2:0:0:
333,294,93156,5,4,3:0:0:0:
324,273,93245,1,2,2:0:0:0:
410,334,93333,5,2,2:0:0:0:
402,354,93421,2,0,L|527:327,1,100,2|4,2:0|3:0,2:0:0:0:
500,333,93686,5,8,1:2:0:0:
508,313,93774,1,2,2:0:0:0:
440,241,93862,5,4,3:0:0:0:
434,220,93951,1,2,2:0:0:0:
468,149,94039,2,0,L|488:97|476:190,1,100,8|0,1:2|2:0,2:0:0:0:
434,220,94215,5,4,3:0:0:0:
336,200,94304,1,2,2:0:0:0:
238,181,94392,2,0,L|207:52,1,100,2|2,2:0|2:0,2:0:0:0:
50,105,94568,5,6,3:0:0:0:
41,125,94656,1,2,2:0:0:0:
127,65,94745,5,8,1:2:0:0:
119,45,94833,2,0,L|244:71,1,100,2|4,2:0|3:0,2:0:0:0:
217,66,95098,5,8,1:2:0:0:
208,45,95186,1,2,2:0:0:0:
294,106,95274,5,4,3:0:0:0:
286,126,95362,2,0,L|411:99,1,100,8|8,1:2|1:2,2:0:0:0:
383,105,95627,5,4,3:0:0:0:
376,175,95715,1,2,2:0:0:0:
319,215,95804,1,8,1:2:0:0:
250,199,95892,1,8,1:2:0:0:
158,232,95980,5,4,1:1:0:0:
125,244,96068,1,2,2:0:0:0:
185,256,96156,1,2,2:0:0:0:
165,198,96245,1,2,2:0:0:0:
158,232,96333,1,4,3:0:0:0:
332,360,96509,5,8,1:2:0:0:
324,324,96598,1,2,2:0:0:0:
304,384,96686,1,4,3:0:0:0:
366,372,96774,2,0,P|368:329|416:245,1,100,2|8,2:0|1:2,2:0:0:0:
391,276,97039,5,4,3:0:0:0:
451,177,97127,1,2,2:2:0:0:
371,197,97215,1,2,2:2:0:0:
470,256,97304,1,2,2:2:0:0:
477,153,97392,5,8,1:2:0:0:
511,165,97480,1,2,2:2:0:0:
451,177,97568,1,2,2:2:0:0:
470,119,97656,1,2,2:2:0:0:
477,153,97745,1,4,3:0:0:0:
332,85,97921,5,8,1:2:0:0:
339,49,98009,1,2,2:0:0:0:
359,110,98098,1,4,3:0:0:0:
297,97,98186,2,0,P|294:54|246:-29,1,100,2|8,2:0|1:2,2:0:0:0:
272,2,98451,5,4,3:0:0:0:
273,64,98539,1,2,2:0:0:0:
222,102,98627,1,8,1:2:0:0:
162,83,98715,1,8,1:2:0:0:
100,150,98804,5,4,3:0:0:0:
145,182,98892,1,2,2:0:0:0:
97,139,98980,5,2,2:0:0:0:
80,205,99068,1,2,2:0:0:0:
206,219,99156,5,4,3:0:0:0:
146,203,99245,1,2,2:0:0:0:
87,225,99333,1,10,1:2:0:0:
51,276,99421,2,0,L|14:430,1,100,2|4,2:0|3:0,2:0:0:0:
28,374,99686,5,10,1:2:0:0:
95,350,99774,1,2,2:0:0:0:
137,292,99862,1,4,3:0:0:0:
138,221,99951,2,0,L|81:73,1,100,2|0,2:0|2:0,2:0:0:0:
102,127,100215,5,6,3:0:0:0:
174,98,100304,1,2,2:0:0:0:
249,114,100392,1,10,1:2:0:0:
302,171,100480,2,0,L|359:318,1,100,2|4,2:0|3:0,2:0:0:0:
338,264,100745,5,10,1:2:0:0:
480,224,100833,1,2,2:0:0:0:
415,267,100921,5,4,3:0:0:0:
508,152,101009,2,0,L|508:-6,1,100,10|8,1:2|1:2,2:0:0:0:
509,52,101274,5,4,3:0:0:0:
426,88,101362,1,2,2:0:0:0:
360,8,101451,5,10,1:2:0:0:
430,66,101539,1,10,1:2:0:0:
403,169,101627,6,0,L|443:250|400:333|433:350|381:242,1,300,4|2,1:1|2:0,2:0:0:0:
303,345,101892,5,2,2:0:0:0:
318,338,101980,1,4,3:0:0:0:
324,321,102068,1,0,2:0:0:0:
246,287,102156,5,8,1:2:0:0:
254,262,102245,1,2,2:0:0:0:
193,358,102333,5,4,3:0:0:0:
201,384,102421,2,0,P|155:364|97:361,1,100,2|8,2:0|1:2,2:0:0:0:
105,361,102686,5,4,3:0:0:0:
43,374,102774,1,2,2:2:0:0:
0,326,102862,1,2,2:2:0:0:
19,266,102951,1,2,2:2:0:0:
97,235,103039,5,8,1:2:0:0:
123,243,103127,1,2,2:2:0:0:
26,182,103215,5,2,2:2:0:0:
0,190,103304,2,0,P|19:144|22:86,1,100,2|4,2:2|3:0,2:0:0:0:
24,95,103568,5,8,1:2:0:0:
49,103,103656,1,2,2:0:0:0:
138,152,103745,5,4,3:0:0:0:
113,160,103833,2,0,P|132:114|135:56,1,100,2|8,2:0|1:2,2:0:0:0:
136,64,104098,5,4,3:0:0:0:
228,34,104186,1,2,2:0:0:0:
305,94,104274,2,0,L|328:210,1,100,8|8,1:2|1:2,2:0:0:0:
512,88,104451,5,4,3:0:0:0:
486,80,104539,1,2,2:0:0:0:
397,31,104627,5,2,2:0:0:0:
423,23,104715,2,0,P|403:68|400:126,1,100,2|4,2:0|3:0,2:0:0:0:
400,118,104980,5,8,1:2:0:0:
425,110,105068,1,2,2:0:0:0:
328,171,105156,5,4,3:0:0:0:
303,163,105245,2,0,P|322:208|325:266,1,100,2|8,2:0|1:2,2:0:0:0:
326,259,105509,5,4,3:0:0:0:
313,321,105598,1,2,2:0:0:0:
360,364,105686,1,2,2:0:0:0:
421,345,105774,1,2,2:0:0:0:
448,383,105862,5,6,3:0:0:0:
464,306,105951,1,2,2:0:0:0:
494,352,106039,5,8,1:2:0:0:
417,336,106127,1,2,2:0:0:0:
456,344,106215,5,4,3:0:0:0:
289,376,106392,5,8,1:2:0:0:
314,384,106480,1,2,2:0:0:0:
217,323,106568,5,4,3:0:0:0:
192,331,106656,2,0,P|211:285|214:227,1,100,8|8,1:2|1:2,2:0:0:0:
215,236,106921,5,4,3:0:0:0:
227,175,107009,1,2,2:0:0:0:
239,114,107098,1,8,1:2:0:0:
251,53,107186,1,8,1:2:0:0:
160,86,107274,5,4,1:1:0:0:
142,11,107362,1,2,2:0:0:0:
150,88,107451,5,2,2:0:0:0:
132,14,107539,1,2,2:0:0:0:
144,52,107627,1,4,3:0:0:0:
49,229,107804,5,8,1:2:0:0:
67,154,107892,1,2,2:0:0:0:
59,231,107980,5,4,3:0:0:0:
76,156,108068,1,2,2:0:0:0:
65,195,108156,1,8,1:2:0:0:
267,234,108333,5,4,3:0:0:0:
190,231,108421,1,2,2:2:0:0:
127,275,108509,1,2,2:2:0:0:
103,348,108598,1,2,2:2:0:0:
137,363,108686,5,8,1:2:0:0:
62,345,108774,1,2,2:2:0:0:
139,354,108862,5,2,2:2:0:0:
64,336,108951,1,2,2:2:0:0:
103,348,109039,1,4,3:0:0:0:
300,300,109215,5,8,1:2:0:0:
226,318,109304,1,2,2:0:0:0:
303,310,109392,5,4,3:0:0:0:
228,327,109480,1,2,2:0:0:0:
267,316,109568,1,8,1:2:0:0:
457,363,109745,5,4,3:0:0:0:
475,348,109833,1,2,2:0:0:0:
498,352,109921,1,8,1:2:0:0:
480,367,110009,1,8,1:2:0:0:
422,288,110098,5,4,3:0:0:0:
324,315,110186,1,2,2:0:0:0:
379,324,110274,1,2,2:0:0:0:
367,279,110362,1,2,2:0:0:0:
290,225,110451,5,4,3:2:0:0:
316,167,110539,1,2,2:0:0:0:
372,140,110627,1,10,1:2:0:0:
433,156,110715,2,0,L|437:168|466:76,1,100,2|4,2:0|3:0,2:0:0:0:
464,87,110980,5,14,1:2:0:0:
413,30,111068,1,2,2:0:0:0:
337,20,111156,1,4,3:0:0:0:
273,61,111245,2,0,L|272:74|216:-3,1,100,2|0,2:0|2:0,2:0:0:0:
222,5,111509,5,6,3:2:0:0:
116,100,111598,1,2,2:0:0:0:
187,72,111686,5,10,1:2:0:0:
43,76,111774,2,0,L|39:62|3:152,1,100,2|4,2:0|3:0,2:0:0:0:
8,143,112039,5,14,1:2:0:0:
39,221,112127,1,2,2:0:0:0:
122,266,112215,5,4,3:0:0:0:
153,344,112303,1,10,1:2:0:0:
66,327,112392,5,12,1:2:0:0:
157,354,112480,1,0,2:0:0:0:
205,272,112568,1,4,3:0:0:0:
174,193,112656,1,2,2:0:0:0:
211,281,112745,5,14,1:2:0:0:
301,208,112833,1,10,1:2:0:0:
260,104,112921,1,4,1:1:0:0:
260,104,118568,6,0,P|296:99|373:148,1,100,0|0,1:0|2:0,2:0:0:0:
420,62,118833,2,0,P|378:83|326:81,1,100,2|0,2:3|2:0,2:0:0:0:
353,123,119098,5,2,2:3:0:0:
355,134,119142,1,2,2:3:0:0:
357,144,119186,1,2,2:3:0:0:
414,214,119362,5,2,2:3:0:0:
405,259,119451,1,2,2:3:0:0:
503,323,119627,6,0,L|516:396,1,50,0|0,1:0|2:0,2:0:0:0:
499,335,119804,2,0,L|512:408,1,50,2|0,2:3|2:0,2:0:0:0:
421,355,119980,6,0,P|372:331|327:335,1,100,0|0,1:0|2:0,2:0:0:0:
354,294,120245,2,0,P|312:315|260:313,1,100,2|0,2:3|2:0,2:0:0:0:
327,336,120509,5,2,2:3:0:0:
325,346,120554,1,2,2:3:0:0:
323,357,120598,1,2,2:3:0:0:
176,235,120774,5,2,2:3:0:0:
185,281,120862,1,2,2:3:0:0:
9,323,121039,6,0,L|-4:396,1,50,0|0,1:0|2:0,2:0:0:0:
13,335,121215,2,0,L|0:408,1,50,2|0,2:3|2:0,2:0:0:0:
95,161,121392,6,0,P|96:214|75:254,1,100,0|0,1:0|2:0,2:0:0:0:
137,187,121656,2,0,P|115:145|117:93,1,100,2|0,2:3|2:0,2:0:0:0:
95,134,121921,5,2,2:3:0:0:
84,132,121965,1,2,2:3:0:0:
74,130,122009,1,2,2:3:0:0:
203,23,122186,5,2,2:3:0:0:
158,32,122274,1,2,2:3:0:0:
9,61,122451,6,0,L|-4:-12,1,50,0|0,1:0|2:0,2:0:0:0:
13,49,122627,2,0,L|0:-24,1,50,2|0,2:3|2:0,2:0:0:0:
203,23,122804,6,0,L|271:37,1,50,0|0,1:0|2:0,2:0:0:0:
295,103,122980,5,2,2:3:0:0:
319,112,123039,5,2,2:3:0:0:
331,92,123098,5,2,2:3:0:0:
355,101,123156,5,2,1:3:0:0:
374,178,123245,6,0,L|399:66,1,100,2|0,2:3|2:0,2:0:0:0:
393,67,123509,2,0,P|425:66|452:50,2,50,2|0|2,1:3|2:0|2:3,2:0:0:0:
481,150,123774,5,0,3:0:0:0:
483,160,123818,1,2,2:3:0:0:
485,171,123862,1,2,1:3:0:0:
455,247,123951,6,0,P|422:247|359:294,1,100,2|0,2:3|2:0,2:0:0:0:
365,291,124215,2,0,P|332:290|269:243,1,100,0|0,1:0|2:0,2:0:0:0:
269,257,124480,2,0,P|269:289|316:352,1,100,2|0,2:3|2:0,2:0:0:0:
365,291,124745,5,2,2:3:0:0:
367,280,124789,1,2,2:3:0:0:
369,270,124833,1,2,2:3:0:0:
423,384,125009,5,2,2:3:0:0:
466,366,125098,2,0,P|483:368|515:387,1,50,2|0,2:3|2:0,2:0:0:0:
413,299,125274,2,0,P|395:296|363:277,1,50,0|0,1:0|2:0,2:0:0:0:
463,232,125451,2,0,P|480:234|512:253,1,50,2|0,2:3|2:0,2:0:0:0:
305,345,125627,6,0,P|304:312|257:249,1,100,0|0,1:0|2:0,2:0:0:0:
260,254,125892,2,0,P|252:285|193:337,1,100,2|0,2:3|2:0,2:0:0:0:
137,297,126156,5,2,2:3:0:0:
126,299,126201,1,2,2:3:0:0:
116,301,126245,1,2,2:3:0:0:
206,333,126421,5,2,2:3:0:0:
225,289,126509,2,0,P|222:271|203:239,1,50,2|0,2:3|2:0,2:0:0:0:
30,312,126686,2,0,P|32:329|51:361,1,50,0|0,1:0|2:0,2:0:0:0:
116,321,126862,2,0,L|137:271,1,50,2|0,2:3|2:0,2:0:0:0:
95,204,127039,6,0,P|124:167|131:115,1,100,0|0,1:0|2:0,2:0:0:0:
87,207,127304,2,0,P|79:175|20:123,1,100,2|0,2:3|2:0,2:0:0:0:
74,65,127568,5,2,2:3:0:0:
71,55,127612,1,2,2:3:0:0:
68,45,127656,1,2,2:3:0:0:
0,174,127833,5,2,2:3:0:0:
19,144,127921,2,0,P|42:150|75:181,1,50,2|0,2:3|2:0,2:0:0:0:
117,218,128098,2,0,P|141:215|178:188,1,50,0|0,1:0|2:0,2:0:0:0:
217,150,128274,2,0,P|241:149|281:170,1,50,2|0,2:3|2:0,2:0:0:0:
311,219,128451,1,0,1:0:0:0:
468,145,128627,6,0,L|486:51,1,66.6666641235352,2|0,2:3|2:0,2:0:0:0:
396,208,128892,2,0,L|372:65,1,100,2|0,2:3|2:0,2:0:0:0:
382,100,129156,1,0,1:0:0:0:
293,195,129333,6,0,L|308:273,1,50,2|0,2:3|3:0,2:0:0:0:
305,250,129465,1,2,2:3:0:0:
306,255,129509,1,0,1:0:0:0:
379,318,129598,2,0,L|402:175,1,100,2|0,2:3|2:0,2:0:0:0:
398,204,129862,5,0,1:0:0:0:
496,281,130039,1,2,2:3:0:0:
321,378,130215,1,2,1:3:0:0:
311,381,130259,1,2,2:3:0:0:
300,384,130304,1,2,2:3:0:0:
379,318,130480,6,0,L|353:260,1,50,2|0,2:3|1:0,2:0:0:0:
406,210,130656,2,0,L|431:152,1,50,2|0,2:3|2:0,2:0:0:0:
471,101,130833,1,2,2:3:0:0:
482,98,130877,1,2,2:3:0:0:
492,95,130921,1,2,1:3:0:0:
364,74,131098,1,2,2:3:0:0:
285,176,131274,5,0,1:0:0:0:
158,155,131451,1,2,2:3:0:0:
285,176,131627,1,2,1:3:0:0:
295,173,131671,1,2,2:3:0:0:
306,170,131715,1,2,2:3:0:0:
206,278,131892,5,2,2:3:0:0:
79,257,132068,1,2,2:3:0:0:
206,278,132245,1,2,2:3:0:0:
217,275,132289,1,2,2:3:0:0:
227,272,132333,1,2,1:3:0:0:
127,384,132509,1,2,2:3:0:0:
79,257,132686,6,0,L|59:179,1,50,0|2,1:0|2:0,2:0:0:0:
191,90,132862,1,2,2:3:0:0:
185,134,132951,1,2,2:0:0:0:
162,163,133039,2,0,L|142:85,1,50,2|2,1:3|2:3,2:0:0:0:
198,241,133215,1,2,2:0:0:0:
222,292,133304,1,2,2:3:0:0:
262,305,133392,2,0,L|242:227,1,50,0|2,1:0|2:3,2:0:0:0:
383,100,133568,1,2,2:0:0:0:
394,164,133656,1,2,2:3:0:0:
350,215,133745,2,0,L|330:137,1,50,2|2,1:3|2:0,2:0:0:0:
445,251,133921,2,0,L|456:299,1,50,2|2,2:3|2:0,2:0:0:0:
350,215,134098,5,0,1:0:0:0:
325,172,134186,1,2,2:0:0:0:
283,144,134274,1,2,2:3:0:0:
234,137,134362,1,2,2:0:0:0:
187,151,134451,2,0,L|162:242,1,50,2|2,1:3|2:3,2:0:0:0:
117,116,134627,5,2,2:0:0:0:
105,137,134715,1,2,2:3:0:0:
86,150,134804,1,0,1:0:0:0:
62,153,134892,1,2,2:0:0:0:
40,146,134980,2,0,L|15:54,1,50,2|2,2:0|2:0,2:0:0:0:
32,3,135156,5,0,1:0:0:0:
19,9,135245,1,2,2:0:0:0:
6,14,135333,2,0,L|64:28,1,50,2|2,2:0|2:0,2:0:0:0:
345,88,135509,6,0,B|351:72|351:72|397:42|452:36|501:50,1,133.33332824707,4|0,1:0|2:0,2:0:0:0:
427,160,135745,1,2,3:3:0:0:
353,104,135862,2,0,B|351:87|351:87|368:40|421:15|471:34|494:72,1,133.33332824707,10|0,1:2|2:0,2:0:0:0:
456,238,136098,5,2,3:3:0:0:
444,249,136156,1,2,3:3:0:0:
428,244,136215,1,6,3:3:0:0:
498,106,136333,1,2,3:3:0:0:
453,333,136451,1,2,3:3:0:0:
349,134,136568,2,0,B|273:126|300:95|221:80,1,133.33332824707,10|2,1:2|3:3,2:0:0:0:
25,347,136804,5,2,3:3:0:0:
38,357,136862,1,2,3:3:0:0:
57,352,136921,2,0,P|61:299|-51:137,1,199.999984741211,4|0,3:0|2:0,2:0:0:0:
7,162,137156,1,2,3:3:0:0:
162,127,137274,6,0,P|103:83|21:85,1,133.33332824707,10|0,1:2|2:0,2:0:0:0:
253,29,137509,5,2,3:3:0:0:
237,24,137568,1,2,3:3:0:0:
225,36,137627,1,6,3:3:0:0:
419,83,137745,1,2,3:3:0:0:
275,210,137862,1,2,3:3:0:0:
377,185,137980,1,10,1:2:0:0:
327,295,138098,1,2,3:3:0:0:
504,63,138215,5,2,3:3:0:0:
509,48,138274,1,2,3:3:0:0:
498,36,138333,2,0,P|394:44|276:103,1,199.999984741211,4|0,3:0|2:0,2:0:0:0:
301,91,138568,1,2,3:3:0:0:
229,43,138686,2,0,P|164:50|120:-3,1,133.33332824707,10|0,1:2|2:0,2:0:0:0:
386,33,138921,5,2,3:3:0:0:
397,45,138980,1,2,3:3:0:0:
391,61,139039,1,6,3:3:0:0:
420,256,139156,5,2,3:3:0:0:
426,240,139215,1,0,2:0:0:0:
414,228,139274,1,2,3:3:0:0:
496,126,139392,5,10,1:2:0:0:
290,162,139509,1,2,3:3:0:0:
511,122,139627,1,2,3:3:0:0:
241,245,139745,6,0,P|221:245|-14:113,1,266.666656494141,4|2,3:0|3:3,2:0:0:0:
283,327,140098,2,0,P|348:337|400:377,1,133.33332824707,10|0,1:2|2:0,2:0:0:0:
282,129,140333,5,2,3:3:0:0:
270,134,140392,1,2,3:3:0:0:
263,151,140451,2,0,L|237:9,2,133.33332824707,6|2|2,3:3|3:3|3:3,2:0:0:0:
25,178,140804,5,10,1:2:0:0:
103,185,140892,1,2,3:0:0:0:
174,216,140980,1,2,3:0:0:0:
232,267,141068,1,2,3:0:0:0:
338,224,141156,6,0,B|356:221|356:221|379:178|380:130|364:88,1,133.33332824707,6|0,3:2|2:0,2:0:0:0:
470,297,141392,1,2,3:3:0:0:
350,364,141509,2,0,B|334:354|334:354|331:305|350:261|382:230,1,133.33332824707,10|0,1:2|2:0,2:0:0:0:
372,110,141745,5,2,3:3:0:0:
384,99,141803,1,2,3:3:0:0:
399,105,141862,1,6,3:3:0:0:
286,72,141980,5,2,3:3:0:0:
488,147,142098,1,2,3:3:0:0:
357,20,142215,5,10,1:2:0:0:
159,105,142333,1,2,3:3:0:0:
255,157,142451,5,2,3:3:0:0:
260,173,142509,1,2,3:3:0:0:
249,185,142568,2,0,B|98:204|164:252|-3:274,1,266.666656494141,4|2,3:0|3:3,2:0:0:0:
271,260,142921,2,0,B|289:253|289:253|328:265|357:291|375:324,1,133.33332824707,10|0,1:2|2:0,2:0:0:0:
469,367,143156,5,2,3:3:0:0:
457,378,143215,1,2,3:3:0:0:
441,373,143274,1,6,3:3:0:0:
391,207,143392,1,2,3:3:0:0:
299,350,143509,1,2,3:3:0:0:
512,172,143627,5,10,1:2:0:0:
382,293,143745,1,2,3:3:0:0:
293,139,143862,5,2,3:3:0:0:
282,127,143921,1,2,3:3:0:0:
288,111,143980,2,0,B|253:121|253:121|173:56|69:45|-18:80,1,266.666656494141,4|2,3:0|3:3,2:0:0:0:
0,137,144333,2,0,B|3:150|3:150|46:155|86:126|95:82|79:47,1,133.33332824707,10|0,1:2|2:0,2:0:0:0:
0,0,144568,1,2,3:3:0:0:
181,170,144686,5,6,3:3:0:0:
107,256,144804,1,2,3:3:0:0:
0,218,144921,1,2,3:3:0:0:
134,341,145039,5,10,1:2:0:0:
73,135,145156,2,0,B|52:124|40:102|43:79|55:63|55:63|84:78|96:112|84:143|61:158,1,133.33332824707,2|2,3:3|3:3,2:0:0:0:
219,371,145392,6,0,L|246:354|283:226,1,133.33332824707,4|0,3:2|2:0,2:0:0:0:
316,91,145627,1,2,3:3:0:0:
275,258,145745,6,0,L|247:241|210:113,1,133.33332824707,4|0,1:2|2:0,2:0:0:0:
183,0,145980,1,2,3:3:0:0:
219,144,146098,5,6,3:2:0:0:
316,91,146215,1,2,3:3:0:0:
222,34,146333,1,2,3:3:0:0:
210,137,146451,6,0,B|195:142|188:157|190:171|190:171|219:143,1,66.6666641235352,6|0,1:2|2:0,2:0:0:0:
314,103,146568,2,0,B|326:112|342:111|353:102|353:102|314:91,1,66.6666641235352,2|0,3:0|2:0,2:0:0:0:
233,29,146686,2,0,B|235:13|225:-1|212:-6|212:-6|222:34,1,66.6666641235352,2|0,3:0|2:0,2:0:0:0:
252,91,146804,5,6,3:2:0:0:
273,199,146921,1,2,3:2:0:0:
295,306,147039,1,2,3:2:0:0:
307,309,147098,1,2,3:2:0:0:
319,311,147156,2,0,P|349:278|438:267,1,133.33332824707,10|2,1:2|3:2,2:0:0:0:
97,334,147392,2,0,P|156:334|212:379,1,133.33332824707,2|4,3:2|3:0,2:0:0:0:
271,213,147627,5,2,3:2:0:0:
259,215,147686,1,2,3:2:0:0:
247,217,147745,1,2,3:2:0:0:
353,240,147862,5,10,1:2:0:0:
246,133,147980,1,2,3:2:0:0:
185,272,148098,1,2,3:2:0:0:
259,215,148215,5,6,3:3:0:0:
246,133,148333,1,2,3:2:0:0:
247,32,148451,5,2,3:2:0:0:
240,41,148509,1,2,3:2:0:0:
232,51,148568,2,0,P|161:40|113:2,1,133.33332824707,10|2,1:2|3:2,2:0:0:0:
330,150,148804,2,0,P|400:160|448:198,1,133.33332824707,2|4,3:2|3:0,2:0:0:0:
286,340,149039,5,2,3:2:0:0:
283,328,149098,1,2,3:2:0:0:
281,316,149156,1,2,3:2:0:0:
353,240,149274,5,10,1:2:0:0:
185,272,149392,1,2,3:2:0:0:
364,238,149509,1,2,3:2:0:0:
136,187,149627,6,0,P|131:116|158:61,1,133.33332824707,6|2,3:3|3:2,2:0:0:0:
134,383,149862,1,2,3:2:0:0:
131,371,149921,1,2,3:2:0:0:
128,359,149980,2,0,P|85:345|36:270,1,133.33332824707,10|2,1:2|3:2,2:0:0:0:
365,347,150215,2,0,P|294:346|240:375,1,133.33332824707,2|4,3:2|3:0,2:0:0:0:
450,379,150451,5,2,3:2:0:0:
452,368,150509,1,2,3:2:0:0:
454,356,150568,1,2,3:2:0:0:
379,254,150686,6,0,B|387:235|398:219|398:219|382:219|370:232|369:247,1,66.6666641235352,10|0,1:2|2:0,2:0:0:0:
468,98,150804,2,0,B|472:117|472:137|472:137|485:127|487:110|479:97,1,66.6666641235352,2|0,3:2|2:0,2:0:0:0:
488,277,150921,2,0,B|472:263|460:247|460:247|456:263|464:278|478:284,1,66.6666641235352,2|0,3:2|2:0,2:0:0:0:
324,173,151039,5,6,3:3:0:0:
235,197,151156,1,2,3:2:0:0:
123,216,151274,1,2,3:2:0:0:
135,218,151333,1,2,3:2:0:0:
147,221,151392,2,0,P|151:291|124:346,2,133.33332824707,10|2|2,1:2|3:2|3:2,2:0:0:0:
138,115,151745,5,4,3:0:0:0:
118,37,151862,1,2,3:2:0:0:
61,94,151980,1,2,3:2:0:0:
135,130,152098,6,0,L|146:149|109:239,1,66.6666641235352,10|0,1:2|2:0,2:0:0:0:
133,33,152215,2,0,L|144:13|240:0,1,66.6666641235352,2|0,3:2|2:0,2:0:0:0:
50,83,152333,2,0,L|27:83|-32:6,1,66.6666641235352,2|0,3:2|2:0,2:0:0:0:
237,295,152451,6,0,B|255:299|255:299|292:255|356:248|401:278,1,133.33332824707,4|0,3:0|2:0,2:0:0:0:
179,380,152686,1,2,3:3:0:0:
128,245,152804,2,0,B|109:249|109:249|72:205|8:198|-37:228,1,133.33332824707,10|0,1:2|2:0,2:0:0:0:
174,356,153039,5,2,3:3:0:0:
176,368,153098,1,2,3:3:0:0:
179,380,153156,1,6,3:3:0:0:
237,295,153274,5,2,3:3:0:0:
235,283,153333,1,0,2:0:0:0:
232,271,153392,1,2,3:3:0:0:
320,334,153509,5,10,1:2:0:0:
342,181,153627,1,2,3:3:0:0:
427,310,153745,1,2,3:3:0:0:
285,244,153862,6,0,P|246:237|198:208,1,66.6666641235352,4|0,3:0|2:0,2:0:0:0:
425,208,153980,2,0,P|463:214|511:243,1,66.6666641235352,2|0,3:0|2:0,2:0:0:0:
279,257,154098,2,0,P|240:250|192:221,1,66.6666641235352,2|0,3:0|2:0,2:0:0:0:
306,166,154215,5,10,1:2:0:0:
319,76,154333,1,2,3:0:0:0:
369,153,154451,1,2,3:0:0:0:
257,17,154568,6,0,P|218:23|170:52,1,66.6666641235352,4|0,3:0|2:0,2:0:0:0:
397,53,154686,2,0,P|435:46|483:17,1,66.6666641235352,2|0,3:0|2:0,2:0:0:0:
251,4,154804,2,0,P|212:10|164:39,1,66.6666641235352,2|0,3:0|2:0,2:0:0:0:
384,147,154921,5,10,1:2:0:0:
279,257,155039,1,2,3:0:0:0:
319,76,155156,1,2,3:0:0:0:
397,53,155274,6,0,P|435:46|483:17,1,66.6666641235352,4|0,3:0|2:0,2:0:0:0:
257,17,155392,2,0,P|218:23|170:52,1,66.6666641235352,2|0,3:0|2:0,2:0:0:0:
402,66,155509,2,0,P|440:59|488:30,1,66.6666641235352,2|0,3:0|2:0,2:0:0:0:
392,203,155627,5,10,1:2:0:0:
326,102,155745,1,2,3:0:0:0:
309,221,155862,1,2,3:0:0:0:
443,270,155980,6,0,P|481:276|529:305,1,66.6666641235352,4|0,3:0|2:0,2:0:0:0:
303,305,156098,2,0,P|264:298|216:269,1,66.6666641235352,2|0,3:0|2:0,2:0:0:0:
449,256,156215,2,0,P|487:262|535:291,1,66.6666641235352,2|0,3:0|2:0,2:0:0:0:
212,363,156333,5,10,1:2:0:0:
135,245,156451,1,2,3:0:0:0:
115,384,156568,1,2,3:0:0:0:
131,165,156686,6,0,P|169:171|217:200,1,66.6666641235352,4|0,3:2|2:0,2:0:0:0:
170,157,156804,2,0,P|204:174|242:215,1,66.6666641235352,2|0,3:0|2:0,2:0:0:0:
124,252,156921,6,0,P|88:269|33:274,1,66.6666641235352,2|0,3:0|2:0,2:0:0:0:
97,282,157039,2,0,P|58:288|3:277,1,66.6666641235352,14|0,1:2|2:0,2:0:0:0:
78,178,157156,6,0,P|96:143|138:106,1,66.6666641235352,2|0,3:0|2:0,2:0:0:0:
83,137,157274,2,0,P|110:109|161:86,1,66.6666641235352,2|0,3:0|2:0,2:0:0:0:
261,122,157392,6,0,B|255:108|255:108|295:61|306:1|291:-53,1,133.33332824707,4|2,3:2|3:0,2:0:0:0:
149,18,157627,1,2,3:0:0:0:
368,146,157745,6,0,L|400:121|261:158,1,100,10|0,1:2|1:0,2:0:0:0:
164,180,157921,2,0,L|131:204|270:167,1,100,0|0,1:0|1:0,2:0:0:0:
252,375,158098,6,0,P|248:344|431:291,1,266.666656494141,4|2,3:0|3:0,2:0:0:0:
270,336,158451,2,0,P|232:197|88:251,1,333.333312988281,14|2,1:2|3:0,2:0:0:0:
253,359,158804,2,0,B|201:180|368:234|316:49,1,333.333312988281,0|2,1:0|3:0,2:0:0:0:
265,233,159156,2,0,L|273:187|223:129|237:64,1,166.666656494141,14|2,1:2|3:0,2:0:0:0:
242,11,159392,1,2,3:0:0:0:
351,179,159509,6,0,P|329:107|514:125,1,333.333312988281,4|2,3:2|3:0,2:0:0:0:
468,265,159862,6,0,P|445:147|335:194,1,266.666656494141,4|2,3:2|3:0,2:0:0:0:
366,345,160215,6,0,P|383:254|467:290,1,200,4|2,3:2|3:0,2:0:0:0:
442,384,160568,6,0,P|430:324|375:348,1,133.33332824707,4|2,3:2|3:0,2:0:0:0:
258,375,160921,5,4,1:1:0:0:
241,170,161098,2,0,L|222:239,1,50,2|2,2:0|2:0,2:0:0:0:
58,378,161274,5,4,3:3:0:0:
68,384,161362,1,2,3:2:0:0:
37,332,161451,5,2,2:0:0:0:
27,326,161539,1,2,2:0:0:0:
68,370,161627,5,4,3:3:0:0:
80,370,161715,1,2,3:2:0:0:
27,340,161804,5,2,2:0:0:0:
15,341,161892,1,2,2:0:0:0:
73,358,161980,5,4,3:3:0:0:
83,352,162068,1,2,3:2:0:0:
48,355,162156,2,0,P|24:364|0:369,1,50,2|0,2:0|2:0,2:0:0:0:
152,270,162333,5,4,3:3:0:0:
142,264,162421,1,0,3:0:0:0:
178,267,162509,2,0,P|201:276|225:281,1,50,2|2,2:0|2:0,2:0:0:0:
52,344,162686,5,4,3:3:0:0:
33,298,162774,1,2,3:2:0:0:
37,249,162862,1,0,2:0:0:0:
63,207,162951,2,0,L|147:182,1,50,0|4,2:0|3:3,2:0:0:0:
19,123,163127,5,0,3:0:0:0:
0,141,163215,1,2,2:0:0:0:
47,127,163304,1,2,2:0:0:0:
83,93,163392,1,4,3:3:0:0:
100,46,163480,2,0,L|65:-35,1,50,2|0,3:2|2:0,2:0:0:0:
178,119,163656,1,2,2:0:0:0:
205,75,163745,5,4,3:3:0:0:
217,77,163833,1,0,3:0:0:0:
255,100,163921,5,2,2:0:0:0:
267,102,164009,1,0,3:0:0:0:
297,70,164098,2,0,P|289:52|284:7,1,50,4|0,3:3|3:0,2:0:0:0:
396,234,164274,2,0,P|388:251|383:296,1,50,2|0,2:0|2:0,2:0:0:0:
465,153,164451,5,4,3:3:0:0:
450,165,164539,1,0,3:0:0:0:
462,134,164627,1,2,2:0:0:0:
483,160,164715,1,0,2:0:0:0:
396,234,164804,5,4,3:3:0:0:
447,242,164892,1,2,3:2:0:0:
414,283,164980,1,0,2:0:0:0:
419,253,165068,1,2,2:0:0:0:
473,359,165156,5,4,3:3:0:0:
457,355,165245,1,2,3:2:0:0:
425,382,165333,5,2,2:0:0:0:
409,379,165421,1,2,2:0:0:0:
380,362,165509,6,0,L|311:373,1,50,4|2,3:3|3:2,2:0:0:0:
259,384,165686,1,2,2:0:0:0:
245,307,165774,1,2,2:0:0:0:
231,229,165862,5,4,3:3:0:0:
257,231,165951,1,0,3:0:0:0:
282,232,166039,1,2,2:0:0:0:
308,234,166127,1,0,2:0:0:0:
346,201,166215,5,4,3:3:0:0:
102,368,166392,2,0,L|114:319,1,50,2|2,2:0|2:0,2:0:0:0:
245,307,166568,2,0,P|220:302|195:303,1,50,4|0,3:3|3:0,2:0:0:0:
105,128,166745,5,2,2:0:0:0:
132,202,166833,1,2,2:0:0:0:
55,188,166921,5,4,3:3:0:0:
42,191,167009,1,2,3:2:0:0:
30,195,167098,1,2,2:0:0:0:
18,198,167186,1,2,2:0:0:0:
105,128,167274,5,4,3:3:0:0:
93,131,167362,1,2,3:2:0:0:
81,134,167451,1,2,2:0:0:0:
69,138,167539,1,2,2:0:0:0:
156,67,167627,5,4,3:3:0:0:
144,71,167715,1,2,3:2:0:0:
132,74,167804,2,0,L|149:-1,1,50,2|0,2:0|2:0,2:0:0:0:
12,22,167980,5,4,3:3:0:0:
0,19,168068,1,0,3:0:0:0:
34,0,168156,2,0,L|51:75,1,50,2|2,2:0|2:0,2:0:0:0:
171,192,168333,5,4,3:3:0:0:
210,162,168421,1,2,3:2:0:0:
259,160,168509,1,0,2:0:0:0:
301,186,168598,1,0,2:0:0:0:
319,232,168686,1,4,3:3:0:0:
171,192,168862,5,2,2:0:0:0:
230,171,168951,1,2,2:0:0:0:
290,149,169039,2,0,L|307:88,1,50,4|2,3:3|3:2,2:0:0:0:
380,108,169215,5,0,2:0:0:0:
396,104,169304,1,2,2:0:0:0:
479,106,169392,5,4,3:3:0:0:
504,131,169480,1,0,3:0:0:0:
440,33,169568,5,2,2:0:0:0:
449,0,169656,1,0,3:0:0:0:
428,29,169745,1,4,3:3:0:0:
469,250,169921,6,0,P|484:277|488:317,1,50,2|0,2:0|2:0,2:0:0:0:
410,368,170098,6,0,P|413:336|401:298,1,50,4|0,3:3|3:0,2:0:0:0:
315,269,170274,5,2,2:0:0:0:
334,277,170362,1,0,2:0:0:0:
228,348,170451,5,4,3:3:0:0:
259,334,170539,1,2,3:2:0:0:
115,265,170627,5,0,2:0:0:0:
163,287,170715,1,2,2:0:0:0:
66,347,170804,5,4,3:3:0:0:
8,362,170892,1,2,3:2:0:0:
64,338,170980,5,2,2:0:0:0:
6,352,171068,1,2,2:0:0:0:
25,307,171156,5,4,3:3:0:0:
6,245,171245,1,2,3:2:0:0:
40,193,171333,1,2,2:0:0:0:
21,130,171421,1,2,2:0:0:0:
2,85,171509,5,4,3:3:0:0:
60,100,171598,1,0,3:0:0:0:
4,75,171686,5,2,2:0:0:0:
62,90,171774,1,0,2:0:0:0:
46,32,171862,5,4,3:3:0:0:
45,23,171951,1,0,3:0:0:0:
44,14,172039,2,0,L|99:25,1,50,2|2,2:0|2:0,2:0:0:0:
35,201,172215,6,0,L|108:179|115:187|186:152|194:159|359:111,1,250,6|2,3:1|3:2,2:0:0:0:
338,175,172480,1,2,3:2:0:0:
401,100,172568,5,6,3:3:0:0:
407,74,172656,1,2,3:3:0:0:
413,48,172745,1,2,3:3:0:0:
418,23,172833,1,2,3:3:0:0:
409,105,172921,5,6,3:3:0:0:
414,79,173009,1,2,3:3:0:0:
420,53,173098,1,2,3:3:0:0:
426,27,173186,1,2,3:3:0:0:
416,109,173274,5,6,3:3:0:0:
422,83,173362,1,2,3:3:0:0:
428,57,173451,1,2,3:3:0:0:
433,31,173539,1,2,3:3:0:0:
424,113,173627,5,6,3:3:0:0:
429,87,173715,1,2,3:3:0:0:
435,61,173803,1,2,3:3:0:0:
441,35,173892,1,2,3:3:0:0:
431,117,173980,5,6,3:3:0:0:
437,91,174068,1,2,3:3:0:0:
443,65,174156,1,2,3:3:0:0:
449,40,174245,1,2,3:3:0:0:
439,122,174333,5,6,3:3:0:0:
445,96,174421,1,2,3:3:0:0:
450,70,174509,1,2,3:3:0:0:
456,44,174598,1,2,3:3:0:0:
446,126,174686,5,6,3:3:0:0:
452,100,174774,1,2,3:3:0:0:
458,74,174862,2,0,L|529:56,1,50,2|0,3:2|3:0,2:0:0:0:
378,190,175039,5,6,3:3:0:0:
374,239,175127,1,2,3:3:0:0:
385,288,175215,1,2,3:3:0:0:
409,332,175304,1,2,3:3:0:0:
385,288,175392,5,6,3:3:0:0:
336,300,175480,1,2,3:3:0:0:
293,325,175568,1,2,3:3:0:0:
259,361,175656,1,2,3:3:0:0:
293,325,175745,5,6,3:3:0:0:
267,282,175833,1,2,3:3:0:0:
230,249,175921,1,2,3:3:0:0:
185,228,176009,1,2,3:3:0:0:
230,249,176098,5,6,3:3:0:0:
262,211,176186,1,2,3:3:0:0:
282,165,176274,1,2,3:3:0:0:
288,116,176362,1,2,3:3:0:0:
282,165,176451,5,6,3:3:0:0:
328,185,176539,1,2,3:3:0:0:
378,190,176627,1,2,3:3:0:0:
427,180,176715,1,2,3:3:0:0:
378,190,176804,5,6,3:3:0:0:
374,239,176892,1,2,3:3:0:0:
385,288,176980,1,2,3:3:0:0:
409,332,177068,1,2,3:3:0:0:
385,288,177156,5,6,3:3:0:0:
336,300,177245,1,2,3:3:0:0:
293,325,177333,1,2,3:3:0:0:
259,361,177421,1,2,3:3:0:0:
205,299,177509,5,6,3:3:0:0:
197,295,177598,1,0,3:0:0:0:
136,352,177686,5,2,3:3:0:0:
129,356,177774,2,0,L|151:277,1,50,0|2,3:0|3:3,2:0:0:0:
8,0,178039,6,0,L|30:78,1,50,2|2,3:3|3:3,2:0:0:0:
38,121,178215,5,2,3:3:0:0:
48,123,178304,1,2,3:3:0:0:
57,125,178392,1,2,3:3:0:0:
67,128,178480,1,2,3:3:0:0:
91,108,178568,5,2,3:3:0:0:
101,110,178656,1,2,3:3:0:0:
110,113,178745,1,2,3:3:0:0:
119,115,178833,1,2,3:3:0:0:
144,95,178921,5,2,3:3:0:0:
153,97,179009,1,2,3:3:0:0:
163,100,179098,1,2,3:3:0:0:
172,102,179186,1,2,3:3:0:0:
197,82,179274,5,2,3:3:0:0:
206,85,179362,1,2,3:3:0:0:
216,87,179451,1,2,3:3:0:0:
225,89,179539,1,2,3:3:0:0:
250,70,179627,5,2,3:3:0:0:
259,72,179715,1,2,3:3:0:0:
269,74,179804,1,2,3:3:0:0:
278,77,179892,1,2,3:3:0:0:
303,57,179980,5,2,3:3:0:0:
312,59,180068,1,2,3:3:0:0:
322,62,180156,1,2,3:3:0:0:
331,64,180245,1,2,3:3:0:0:
359,40,180333,5,2,3:3:0:0:
368,38,180421,1,2,3:3:0:0:
361,31,180509,2,0,L|377:99,1,50,2|2,3:3|3:3,2:0:0:0:
472,10,180686,5,2,3:3:0:0:
460,26,180774,1,2,3:3:0:0:
459,45,180862,1,2,3:3:0:0:
450,50,180951,5,2,3:3:0:0:
464,66,181039,1,2,3:3:0:0:
466,88,181127,1,2,3:3:0:0:
476,92,181215,5,2,3:3:0:0:
462,110,181304,1,2,3:3:0:0:
459,133,181392,1,2,3:3:0:0:
449,131,181480,5,2,3:3:0:0:
465,151,181568,1,2,3:3:0:0:
468,177,181656,1,2,3:3:0:0:
481,175,181745,5,2,3:3:0:0:
463,197,181833,1,2,3:3:0:0:
461,225,181921,1,2,3:3:0:0:
445,224,182009,5,2,3:3:0:0:
465,249,182098,1,2,3:3:0:0:
468,280,182186,1,2,3:3:0:0:
478,280,182274,5,2,3:3:0:0:
457,307,182362,1,2,3:3:0:0:
454,341,182451,2,0,P|480:346|513:364,1,50,2|2,3:3|3:3,2:0:0:0:
370,384,182627,5,2,3:3:0:0:
344,352,182715,1,2,3:3:0:0:
340,311,182804,1,2,3:3:0:0:
326,316,182892,5,2,3:3:0:0:
357,278,182980,1,2,3:3:0:0:
362,229,183068,1,2,3:3:0:0:
373,229,183156,5,2,3:3:0:0:
337,183,183245,1,2,3:3:0:0:
331,125,183333,2,0,L|259:102,1,50,2|2,3:3|3:3,2:0:0:0:
218,218,183509,5,2,3:3:0:0:
209,214,183598,1,2,3:3:0:0:
200,209,183686,2,0,L|188:174,1,25,2|2,3:3|3:3,2:0:0:0:
272,149,183862,5,2,3:3:0:0:
282,147,183951,1,2,3:3:0:0:
291,145,184039,2,0,L|320:166,1,25,2|2,3:3|3:3,2:0:0:0:
269,236,184215,5,2,3:3:0:0:
262,244,184304,1,2,3:3:0:0:
255,251,184392,2,0,L|218:250,1,25,2|2,3:3|3:3,2:0:0:0:
220,164,184568,5,2,3:3:0:0:
221,154,184656,1,2,3:3:0:0:
222,144,184745,2,0,L|251:122,1,25,2|2,3:3|3:3,2:0:0:0:
302,194,184921,5,2,3:3:0:0:
307,202,185009,1,2,3:3:0:0:
312,211,185098,2,0,L|300:245,1,25,2|2,3:3|3:3,2:0:0:0:
246,201,185274,5,2,3:3:0:0:
252,203,185362,1,2,3:3:0:0:
258,205,185451,1,2,3:3:0:0:
264,207,185539,1,2,3:3:0:0:
264,201,185627,5,2,3:3:0:0:
258,203,185715,1,2,3:3:0:0:
252,205,185804,1,2,3:3:0:0:
246,207,185892,1,2,3:3:0:0:
252,213,185980,5,2,3:3:0:0:
254,207,186068,1,2,3:3:0:0:
256,201,186156,1,2,3:3:0:0:
258,195,186245,1,2,3:3:0:0:
254,193,186333,5,2,3:3:0:0:
256,200,186421,1,2,3:3:0:0:
258,208,186509,1,2,3:3:0:0:
260,215,186598,1,2,3:3:0:0:
251,216,186686,5,2,3:3:0:0:
254,208,186774,1,2,3:3:0:0:
256,200,186862,1,2,3:3:0:0:
259,192,186951,1,2,3:3:0:0:
253,191,187039,5,2,3:3:0:0:
256,200,187127,1,2,3:3:0:0:
258,208,187215,1,2,3:3:0:0:
261,217,187304,1,2,3:3:0:0:
251,219,187392,5,2,3:3:0:0:
254,209,187480,1,2,3:3:0:0:
257,199,187568,1,2,3:3:0:0:
260,189,187656,1,2,3:3:0:0:
252,188,187745,5,2,3:3:0:0:
255,199,187833,1,2,3:3:0:0:
259,209,187921,1,2,3:3:0:0:
262,220,188009,1,2,3:3:0:0:
250,222,188098,5,2,3:3:0:0:
253,210,188186,1,2,3:3:0:0:
257,198,188274,1,2,3:3:0:0:
261,186,188362,1,2,3:3:0:0:
251,184,188451,5,2,3:3:0:0:
255,197,188539,1,2,3:3:0:0:
259,210,188627,1,2,3:3:0:0:
263,224,188715,1,2,3:3:0:0:
248,227,188804,5,2,3:3:0:0:
253,212,188892,1,2,3:3:0:0:
257,196,188980,1,2,3:3:0:0:
262,180,189068,1,2,3:3:0:0:
249,178,189156,5,2,3:3:0:0:
254,195,189245,1,2,3:3:0:0:
260,213,189333,1,2,3:3:0:0:
265,230,189421,1,2,3:3:0:0:
246,232,189509,5,2,3:3:0:0:
252,213,189598,1,2,3:3:0:0:
258,194,189686,1,2,3:3:0:0:
264,176,189774,1,2,3:3:0:0:
247,173,189862,5,2,3:3:0:0:
254,194,189951,1,2,3:3:0:0:
260,214,190039,1,2,3:3:0:0:
267,235,190127,1,2,3:3:0:0:
244,238,190215,5,2,3:3:0:0:
252,215,190304,1,2,3:3:0:0:
259,192,190392,1,2,3:3:0:0:
266,170,190480,1,2,3:3:0:0:
245,166,190568,5,2,3:3:0:0:
253,191,190656,1,2,3:3:0:0:
261,217,190745,1,2,3:3:0:0:
269,242,190833,1,2,3:3:0:0:
242,246,190921,5,2,3:3:0:0:
251,218,191009,1,2,3:3:0:0:
259,190,191098,1,2,3:3:0:0:
268,162,191186,1,2,3:3:0:0:
243,158,191274,5,2,3:3:0:0:
252,189,191362,1,2,3:3:0:0:
262,219,191451,1,2,3:3:0:0:
271,250,191539,1,2,3:3:0:0:
243,244,191627,5,2,3:3:0:0:
252,213,191715,1,2,3:3:0:0:
262,183,191804,1,2,3:3:0:0:
271,152,191892,1,2,3:3:0:0:
240,148,191980,5,2,3:3:0:0:
250,181,192068,1,2,3:3:0:0:
260,215,192156,1,2,3:3:0:0:
271,248,192245,1,2,3:3:0:0:
241,248,192333,5,2,3:3:0:0:
252,215,192421,1,2,3:3:0:0:
262,181,192509,1,2,3:3:0:0:
272,148,192598,1,2,3:3:0:0:
238,143,192686,5,2,3:3:0:0:
249,180,192774,1,2,3:3:0:0:
261,217,192862,1,2,3:3:0:0:
272,253,192951,1,2,3:3:0:0:
238,259,193039,5,2,3:3:0:0:
251,218,193127,1,2,3:3:0:0:
263,178,193215,1,2,3:3:0:0:
276,137,193304,1,2,3:3:0:0:
234,131,193392,5,2,3:3:0:0:
248,176,193480,1,2,3:3:0:0:
262,220,193568,1,2,3:3:0:0:
276,265,193656,1,2,3:3:0:0:
234,272,193745,5,2,3:3:0:0:
249,223,193833,1,2,3:3:0:0:
265,173,193921,1,2,3:3:0:0:
280,124,194009,1,2,3:3:0:0:
230,117,194098,5,2,3:3:0:0:
247,171,194186,1,2,3:3:0:0:
263,225,194274,1,2,3:3:0:0:
280,279,194362,1,2,3:3:0:0:
229,287,194451,5,2,3:3:0:0:
248,228,194539,1,2,3:3:0:0:
266,168,194627,1,2,3:3:0:0:
284,109,194715,1,2,3:3:0:0:
225,100,194804,5,2,3:3:0:0:
245,165,194892,1,2,3:3:0:0:
265,231,194980,1,2,3:3:0:0:
285,296,195068,1,2,3:3:0:0:
224,306,195156,5,2,3:3:0:0:
246,234,195245,1,2,3:3:0:0:
268,162,195333,1,2,3:3:0:0:
290,90,195421,1,2,3:3:0:0:
219,79,195509,5,2,3:3:0:0:
243,158,195598,1,2,3:3:0:0:
267,238,195686,1,2,3:3:0:0:
292,317,195774,1,2,3:3:0:0:
217,329,195862,5,2,3:3:0:0:
244,242,195951,1,2,3:3:0:0:
270,154,196039,1,2,3:3:0:0:
297,67,196127,1,2,3:3:0:0:
219,79,196215,6,0,B|245:56|255:22|248:-9|248:-9|298:87|298:87|297:53|332:2|332:2|340:13|340:13|303:177|303:177|310:185|310:185|341:94|341:94|401:98|437:166|402:228|346:243|305:222|305:222|354:246|416:246|416:246|346:257|316:352|390:414|463:393|487:343,1,1220.68969726563,6|2,3:2|2:0,2:0:0:0:
