osu file format v14

[General]
AudioFilename: audio.mp3
AudioLeadIn: 0
PreviewTime: 132324
Countdown: 0
SampleSet: Soft
StackLeniency: 0.7
Mode: 0
LetterboxInBreaks: 0
WidescreenStoryboard: 0

[Editor]
Bookmarks: 32119,59660,75398,106873,134414,161955,173758,174250,174742,175234,175725,176217,176709,177201,177693,178184,178676,179168,179660,180152,180644,181135,181627,182119,182611,183103,183594,184086,184578,185070,185562,197365,228840,256381,283922,307529
DistanceSpacing: 1.2
BeatDivisor: 4
GridSize: 8
TimelineZoom: 1

[Metadata]
Title:with
TitleUnicode:with
Artist:Kushima Kamome (CV: Mineuchi Tomomi)
ArtistUnicode:久島鴎(CV: 嶺内ともみ)
Creator:Garden
Version:you
Source:Summer Pockets
Tags:サマーポケッツ サマポケ Character Insert Songs Sing! Key Sounds Label Visual Art's visualarts novel vn japanese video game galgame j-pop jpop
BeatmapID:2929443
BeatmapSetID:1422384

[Difficulty]
HPDrainRate:6
CircleSize:4
OverallDifficulty:7
ApproachRate:8
SliderMultiplier:1.6
SliderTickRate:1

[Events]
//Background and Video events
0,0,"cg_km02_0101__base_cg_km02_0102.jpg",0,0
//Break Periods
2,286089,290795
//Storyboard Layer 0 (Background)
//Storyboard Layer 1 (Fail)
//Storyboard Layer 2 (Pass)
//Storyboard Layer 3 (Foreground)
//Storyboard Layer 4 (Overlay)
//Storyboard Sound Samples

[TimingPoints]
644,491.803278688525,4,2,1,50,1,0
644,-133.333333333333,4,2,1,50,0,0
16381,-100,4,2,1,70,0,0
32119,-100,4,2,1,70,0,1
32242,-100,4,2,1,70,0,0
106873,-133.333333333333,4,2,1,50,0,0
110316,-100,4,2,1,50,0,0
110807,-133.333333333333,4,2,1,50,0,0
114250,-100,4,2,1,50,0,0
114742,-133.333333333333,4,2,1,50,0,0
118676,-100,4,2,1,70,0,0
132078,-100,4,2,1,10,0,0
132201,-100,4,2,1,70,0,0
133799,-100,4,2,1,10,0,0
133922,-80,4,2,1,70,0,0
134291,-80,4,2,1,10,0,0
134414,-100,4,2,1,70,0,1
134537,-100,4,2,1,70,0,0
195398,-133.333333333333,4,2,1,70,0,0
197365,-100,4,2,1,70,0,0
228840,-133.333333333333,4,2,1,70,0,0
232283,-100,4,2,1,70,0,0
232775,-133.333333333333,4,2,1,70,0,0
236217,-100,4,2,1,70,0,0
236709,-133.333333333333,4,2,1,70,0,0
240644,-100,4,2,1,70,0,0
254045,-100,4,2,1,10,0,0
254168,-100,4,2,1,70,0,0
254414,-133.333333333333,4,2,1,40,0,0
255889,-80,4,2,1,70,0,0
256258,-80,4,2,1,10,0,0
256381,-100,4,2,1,70,0,1
256504,-100,4,2,1,70,0,0
321299,-100,4,2,1,60,0,0
323266,-100,4,2,1,50,0,0
325234,-100,4,2,1,40,0,0
327201,-100,4,2,1,30,0,0
329168,-100,4,2,1,20,0,0

[Colours]
Combo1 : 200,145,255
Combo2 : 162,162,208
Combo3 : 149,149,255
Combo4 : 106,207,255

[HitObjects]
494,241,644,6,0,P|447:221|365:221,1,120.000004577637,4|0,0:1|0:0,0:0:0:0:
296,241,1381,1,10,0:0:0:0:
296,241,1627,2,0,P|274:205|270:166,1,60.0000022888184,8|0,0:0|0:0,0:0:0:0:
334,128,2119,1,0,0:0:0:0:
283,63,2365,1,0,0:0:0:0:
283,63,2488,1,0,0:0:0:0:
283,63,2611,6,0,P|236:43|154:43,1,120.000004577637,10|0,0:0|0:0,0:0:0:0:
85,63,3348,2,0,P|63:27|59:-12,1,60.0000022888184,10|0,0:0|0:0,0:0:0:0:
148,125,3840,1,0,0:0:0:0:
62,149,4086,1,2,0:0:0:0:
134,218,4332,1,0,0:0:0:0:
134,218,4455,1,0,0:0:0:0:
134,218,4578,6,0,P|197:240|270:231,1,120.000004577637,10|0,0:0|0:0,0:0:0:0:
329,203,5316,1,10,0:0:0:0:
329,203,5562,2,0,P|353:225|366:266,1,60.0000022888184,8|0,0:0|0:0,0:0:0:0:
250,150,6053,1,0,0:0:0:0:
368,256,6299,6,0,P|382:198|424:140,1,120.000004577637,10|0,0:0|0:0,0:0:0:0:
502,103,7037,1,2,0:0:0:0:
510,110,7283,1,8,0:0:0:0:
418,40,7529,1,2,0:0:0:0:
426,47,7775,1,8,0:0:0:0:
324,83,8021,1,2,0:0:0:0:
332,90,8266,1,8,0:0:0:0:
415,148,8512,6,0,P|401:206|359:264,1,120.000004577637,10|0,0:0|0:0,0:0:0:0:
288,291,9250,1,10,0:0:0:0:
288,291,9496,2,0,P|260:270|247:241,1,60.0000022888184,8|0,0:0|0:0,0:0:0:0:
273,162,9988,1,0,0:0:0:0:
204,95,10234,1,0,0:0:0:0:
204,95,10357,1,0,0:0:0:0:
204,95,10480,6,0,P|190:153|148:211,1,120.000004577637,2|0,0:0|0:0,0:0:0:0:
77,238,11217,2,0,P|49:217|36:188,1,60.0000022888184,10|0,0:0|0:0,0:0:0:0:
155,290,11709,1,0,0:0:0:0:
70,328,11955,1,2,0:0:0:0:
156,202,12201,1,0,0:0:0:0:
156,202,12324,1,0,0:0:0:0:
156,202,12447,6,0,P|217:211|273:252,1,120.000004577637,10|0,0:0|0:0,0:0:0:0:
334,306,13184,1,10,0:0:0:0:
334,306,13430,2,0,P|368:290|397:255,1,60.0000022888184,8|0,0:0|0:0,0:0:0:0:
243,334,13922,1,0,0:0:0:0:
391,269,14168,6,0,P|368:332|366:385,1,120.000004577637,10|0,0:0|0:0,0:0:0:0:
481,249,14906,1,2,0:0:0:0:
421,180,15152,1,8,0:0:0:0:
512,163,15398,1,2,0:0:0:0:
391,269,15644,5,8,0:0:0:0:
362,111,15889,1,2,1:2:0:0:
500,19,16135,1,8,0:0:0:0:
500,19,16258,1,8,0:0:0:0:
500,19,16381,6,0,B|500:61|458:85|458:85|439:129|487:165,1,160,12|0,0:0|1:0,0:0:0:0:
467,245,17119,2,0,L|358:279,1,80,2|8,0:0|0:0,0:0:0:0:
282,168,17611,1,0,0:0:0:0:
390,268,17857,2,0,L|366:186,1,80,2|0,1:2|0:0,0:0:0:0:
186,50,18348,6,0,P|297:61|334:101,1,160,10|0,0:0|1:0,0:0:0:0:
424,124,19086,1,2,0:0:0:0:
424,124,19209,1,2,0:0:0:0:
424,124,19332,2,0,L|514:99,1,80,10|0,0:0|0:0,0:0:0:0:
282,168,19824,2,0,L|204:189,1,80,2|0,1:2|0:0,0:0:0:0:
367,191,20316,5,10,0:0:0:0:
416,350,20562,1,2,0:0:0:0:
367,191,20807,2,0,L|389:267,1,80,2|0,1:2|0:0,0:0:0:0:
264,373,21299,2,0,P|186:363|138:301,1,160,10|0,0:0|1:0,0:0:0:0:
13,208,22037,6,0,L|92:220,1,80,2|8,0:0|0:0,0:0:0:0:
183,96,22529,1,2,0:0:0:0:
92,220,22775,2,0,L|103:140,1,80,2|0,1:2|0:0,0:0:0:0:
307,34,23266,2,0,B|268:18|225:39|225:39|223:92|156:102,1,160,10|2,0:0|1:2,0:0:0:0:
182,95,24250,5,10,0:0:0:0:
260,134,24496,1,2,0:0:0:0:
295,214,24742,1,2,1:2:0:0:
280,300,24988,2,0,L|456:260,1,160,2|0,0:0|0:0,0:0:0:0:
318,90,25725,5,2,1:2:0:0:
318,90,25971,2,0,L|306:150,1,40,2|0,0:0|0:0,0:0:0:0:
295,214,26217,5,10,0:0:0:0:
451,178,26463,1,2,0:0:0:0:
295,214,26709,2,0,L|384:194,1,80,2|0,1:2|0:0,0:0:0:0:
280,300,27201,5,10,0:0:0:0:
91,224,27447,1,2,0:0:0:0:
135,372,27693,1,2,1:2:0:0:
236,152,27939,1,2,0:0:0:0:
135,372,28184,6,0,B|168:340|153:295|153:295|168:244|230:242,1,160,10|0,0:0|1:0,0:0:0:0:
209,76,28922,2,0,L|238:160,1,80,10|0,0:0|0:0,0:0:0:0:
323,188,29414,1,10,0:0:0:0:
121,39,29660,1,0,1:0:0:0:
323,188,29906,6,0,B|366:188|390:148|390:148|439:138|476:166,1,160,12|0,0:0|0:0,0:0:0:0:
509,235,30644,1,0,1:0:0:0:
482,318,30889,1,2,0:0:0:0:
398,345,31135,5,10,0:0:0:0:
498,233,31381,1,2,1:2:0:0:
455,89,31627,1,2,1:2:0:0:
320,34,31873,1,8,0:0:0:0:
320,34,31996,1,8,0:0:0:0:
320,34,32119,5,12,0:0:0:0:
367,109,32365,2,0,P|387:142|396:190,1,80,2|0,0:0|1:0,0:0:0:0:
353,260,32857,2,0,P|321:277|258:285,1,80,2|8,0:0|0:0,0:0:0:0:
195,258,33348,1,2,0:0:0:0:
93,373,33594,1,0,1:0:0:0:
195,258,33840,6,0,P|189:299|175:335,1,80,2|8,0:0|0:0,0:0:0:0:
34,307,34332,2,0,P|39:265|53:229,1,80,2|0,0:0|1:0,0:0:0:0:
137,188,34824,2,0,P|231:165|280:105,1,160,2|0,0:0|0:0,0:0:0:0:
442,48,35562,1,0,1:0:0:0:
345,44,35807,1,2,0:0:0:0:
345,44,36053,6,0,P|362:100|380:127,1,80,10|0,0:0|0:0,0:0:0:0:
512,224,36545,1,0,1:0:0:0:
428,196,36791,2,0,P|351:210|283:280,1,160,2|0,0:0|0:0,0:0:0:0:
153,384,37529,2,0,P|129:360|113:306,1,80,2|0,1:2|0:0,0:0:0:0:
44,264,38021,6,0,L|202:293,2,160,10|0|8,0:0|1:0|0:0,0:0:0:0:
22,179,39250,2,0,L|0:84,1,80,2|0,0:0|1:0,0:0:0:0:
63,35,39742,1,2,0:0:0:0:
136,83,39988,6,0,P|183:92|225:80,1,80,10|0,0:0|0:0,0:0:0:0:
369,0,40480,1,0,1:0:0:0:
303,58,40725,2,0,P|306:141|365:210,1,160,2|0,0:0|0:0,0:0:0:0:
499,278,41463,1,0,1:0:0:0:
411,268,41709,6,0,P|372:282|340:312,1,80,2|8,0:0|0:0,0:0:0:0:
279,368,42201,2,0,P|241:353|211:328,1,80,2|0,0:0|1:0,0:0:0:0:
156,258,42693,2,0,P|117:272|85:302,1,80,2|8,0:0|0:0,0:0:0:0:
248,246,43184,1,2,0:0:0:0:
230,160,43430,1,0,1:0:0:0:
219,77,43676,1,2,0:0:0:0:
219,77,43799,1,2,0:0:0:0:
219,77,43922,6,0,L|406:108,2,160,10|0|8,0:0|1:0|0:0,0:0:0:0:
151,18,45152,1,2,0:0:0:0:
71,56,45398,2,0,L|83:135,1,80,0|0,1:0|0:0,0:0:0:0:
120,303,45889,6,0,B|92:269|113:226|113:226|157:210|168:172,1,160,10|0,0:0|1:0,0:0:0:0:
392,81,46873,2,0,B|420:115|399:158|399:158|355:174|344:212,1,160,10|0,0:0|1:0,0:0:0:0:
433,249,47611,1,2,0:0:0:0:
433,249,47734,1,2,0:0:0:0:
433,249,47857,6,0,P|449:289|452:328,1,80,10|0,0:0|0:0,0:0:0:0:
344,209,48348,1,0,1:0:0:0:
406,146,48594,2,0,P|402:106|386:69,1,80,2|8,0:0|0:0,0:0:0:0:
198,0,49086,2,0,P|201:39|217:76,1,80,2|0,0:0|1:0,0:0:0:0:
303,95,49578,6,0,P|232:101|136:167,1,160,2|0,0:0|0:0,0:0:0:0:
101,262,50316,1,0,1:0:0:0:
101,262,50562,2,0,P|140:254|174:234,1,80,2|8,0:0|0:0,0:0:0:0:
156,144,51053,1,2,0:0:0:0:
267,267,51299,1,0,1:0:0:0:
249,177,51545,1,0,0:0:0:0:
360,300,51791,5,10,0:0:0:0:
360,300,52037,2,0,P|399:292|433:272,1,80,2|0,0:0|1:0,0:0:0:0:
504,323,52529,2,0,P|462:274|449:168,1,160,2|0,0:0|0:0,0:0:0:0:
479,39,53266,1,0,1:0:0:0:
512,120,53512,1,2,0:0:0:0:
446,181,53758,6,0,L|274:163,2,160,8|0|8,0:0|1:0|0:0,0:0:0:0:
471,265,54988,2,0,L|495:352,1,80,2|0,0:0|1:0,0:0:0:0:
446,181,55480,1,2,0:0:0:0:
446,181,55725,6,0,L|424:103,1,80,10|0,0:0|0:0,0:0:0:0:
350,55,56217,2,0,L|509:71,2,160,0|8|0,1:0|0:0|1:0,0:0:0:0:
262,42,57447,1,2,0:0:0:0:
211,176,57693,5,10,0:0:0:0:
211,176,57939,2,0,P|195:139|189:98,1,80,2|0,0:0|1:0,0:0:0:0:
350,55,58430,2,0,P|365:91|371:132,1,80,2|8,0:0|0:0,0:0:0:0:
371,131,58799,1,0,1:0:0:0:
371,131,58922,1,0,1:0:0:0:
228,273,59168,1,2,1:2:0:0:
307,216,59414,1,10,0:0:0:0:
307,216,59537,1,0,1:0:0:0:
307,216,59660,6,0,P|429:229|472:266,1,160,12|0,0:0|1:0,0:0:0:0:
475,335,60398,2,0,L|525:346,2,40,2|2|8,0:0|0:0|0:0,0:0:0:0:
397,364,60889,1,2,0:0:0:0:
397,364,61012,1,2,0:0:0:0:
397,364,61135,2,0,P|354:364|304:334,1,80,2|0,1:2|0:0,0:0:0:0:
256,288,61627,6,0,P|287:214|289:131,2,160,10|0|8,0:0|1:0|0:0,0:0:0:0:
183,332,62857,1,2,0:0:0:0:
183,332,62980,1,2,0:0:0:0:
183,332,63103,2,0,P|146:312|97:308,1,80,0|0,1:0|0:0,0:0:0:0:
22,325,63594,6,0,P|23:241|65:159,1,160,10|0,0:0|1:0,0:0:0:0:
113,108,64332,1,2,0:0:0:0:
113,108,64455,1,2,0:0:0:0:
113,108,64578,2,0,L|104:63,2,40,10|0|0,0:0|0:0|0:0,0:0:0:0:
177,168,65070,2,0,P|213:186|268:183,1,80,0|0,1:0|0:0,0:0:0:0:
277,165,65439,1,2,0:0:0:0:
277,165,65562,6,0,P|313:121|414:103,1,160,10|0,0:0|1:0,0:0:0:0:
490,139,66299,2,0,L|479:229,1,80,2|8,0:0|0:0,0:0:0:0:
346,306,66791,1,2,0:0:0:0:
480,218,67037,2,0,L|397:237,1,80,2|0,1:2|0:0,0:0:0:0:
346,306,67529,6,0,P|292:260|182:263,1,160,10|0,0:0|1:0,0:0:0:0:
125,292,68266,2,0,P|113:329|86:358,1,80,2|8,0:0|0:0,0:0:0:0:
79,216,68758,2,0,P|45:212|2:188,1,80,2|0,0:0|1:0,0:0:0:0:
168,178,69250,1,2,0:0:0:0:
168,178,69373,1,2,0:0:0:0:
168,178,69496,5,10,0:0:0:0:
205,253,69742,1,2,0:0:0:0:
284,214,69988,1,0,1:0:0:0:
244,135,70234,2,0,P|252:96|270:60,1,80,2|8,0:0|0:0,0:0:0:0:
400,0,70725,2,0,P|391:38|374:75,1,80,2|0,0:0|1:0,0:0:0:0:
344,162,71217,1,2,0:0:0:0:
344,162,71340,1,2,0:0:0:0:
344,162,71463,6,0,P|401:224|404:317,1,160,10|0,0:0|1:0,0:0:0:0:
354,366,72201,1,2,0:0:0:0:
354,366,72324,1,2,0:0:0:0:
354,366,72447,2,0,L|288:378,2,40,10|0|0,0:0|0:0|0:0,0:0:0:0:
409,296,72939,5,0,1:0:0:0:
328,261,73184,1,2,0:0:0:0:
246,293,73430,1,8,0:0:0:0:
226,378,73676,5,2,1:2:0:0:
323,253,73922,1,2,1:2:0:0:
261,109,74168,1,0,3:0:0:0:
261,109,74291,1,0,1:0:0:0:
261,109,74414,1,0,1:0:0:0:
106,69,74660,5,8,0:0:0:0:
170,131,74906,1,0,1:0:0:0:
261,109,75152,1,8,0:0:0:0:
261,109,75275,1,0,1:0:0:0:
261,109,75398,6,0,P|283:66|287:31,1,80,12|0,0:0|0:0,0:0:0:0:
170,131,75889,1,0,1:0:0:0:
261,109,76135,2,0,P|354:128|409:190,1,160,2|0,0:0|0:0,0:0:0:0:
495,261,76873,1,0,1:0:0:0:
435,336,77119,6,0,P|408:295|401:247,1,80,2|8,0:0|0:0,0:0:0:0:
331,337,77611,2,0,P|293:349|256:366,1,80,2|0,0:0|1:0,0:0:0:0:
175,331,78103,2,0,P|127:268|131:189,1,160,2|0,0:0|0:0,0:0:0:0:
238,64,78840,1,0,1:0:0:0:
161,104,79086,1,2,0:0:0:0:
161,104,79332,6,0,P|114:104|68:77,1,80,10|0,0:0|0:0,0:0:0:0:
238,64,79824,1,0,1:0:0:0:
309,116,80070,2,0,P|349:177|343:269,1,160,2|0,0:0|0:0,0:0:0:0:
472,357,80807,2,0,P|432:354|395:339,1,80,2|0,1:2|0:0,0:0:0:0:
346,261,81299,6,0,L|183:283,1,160,10|0,0:0|1:0,0:0:0:0:
131,350,82037,1,2,0:0:0:0:
55,304,82283,2,0,L|73:136,1,160,8|0,0:0|1:0,0:0:0:0:
158,126,83021,1,2,0:0:0:0:
99,60,83266,6,0,P|74:38|19:28,1,80,10|0,0:0|0:0,0:0:0:0:
72,144,83758,1,0,1:2:0:0:
158,126,84004,2,0,P|235:100|284:37,1,160,2|0,0:0|0:0,0:0:0:0:
298,162,84742,2,0,P|332:192|374:200,1,80,2|0,1:2|0:0,0:0:0:0:
450,177,85234,6,0,L|472:6,2,160,10|2|10,0:0|1:2|0:0,0:0:0:0:
498,250,86463,1,0,0:0:0:0:
384,372,86709,2,0,L|395:289,1,80,2|0,1:2|0:0,0:0:0:0:
403,263,87078,1,2,0:0:0:0:
403,263,87201,6,0,P|343:223|244:230,1,160,10|0,0:0|1:0,0:0:0:0:
192,284,87939,1,2,0:0:0:0:
210,369,88184,5,8,0:0:0:0:
183,285,88430,1,2,0:0:0:0:
125,218,88676,1,0,1:0:0:0:
37,206,88922,1,2,0:0:0:0:
176,143,89168,6,0,P|252:91|328:90,1,160,10|0,0:0|1:0,0:0:0:0:
358,2,89906,1,2,0:0:0:0:
358,2,90029,1,2,0:0:0:0:
358,2,90152,2,0,P|352:76|395:154,1,160,10|0,0:0|1:0,0:0:0:0:
478,193,90889,1,2,0:0:0:0:
478,193,91012,1,2,0:0:0:0:
478,193,91135,6,0,P|469:231|443:274,1,80,12|0,0:0|0:0,0:0:0:0:
315,384,91627,1,0,1:0:0:0:
378,322,91873,2,0,P|332:293|200:289,1,160,2|0,0:0|0:0,0:0:0:0:
102,350,92611,1,0,1:0:0:0:
102,350,92857,6,0,P|85:319|75:275,1,80,2|8,0:0|0:0,0:0:0:0:
129,151,93348,2,0,P|146:182|155:225,1,80,2|0,0:0|1:0,0:0:0:0:
228,281,93840,2,0,P|317:275|377:218,1,160,2|0,0:0|0:0,0:0:0:0:
374,88,94578,1,0,1:0:0:0:
434,164,94824,1,2,0:0:0:0:
434,164,94947,1,2,0:0:0:0:
434,164,95070,6,0,P|477:158|523:135,1,80,10|0,0:0|0:0,0:0:0:0:
374,88,95562,1,0,1:0:0:0:
295,127,95807,2,0,P|282:162|280:212,1,80,2|8,0:0|0:0,0:0:0:0:
374,88,96299,2,0,P|362:44|340:10,1,80,2|0,0:0|1:0,0:0:0:0:
256,4,96791,6,0,P|198:46|94:55,1,160,2|0,0:0|0:0,0:0:0:0:
14,33,97529,1,0,1:0:0:0:
100,79,97775,1,2,0:0:0:0:
100,79,97898,1,2,0:0:0:0:
100,79,98021,2,0,P|114:116|115:163,1,80,10|0,0:0|0:0,0:0:0:0:
0,271,98512,1,0,1:0:0:0:
88,243,98758,1,2,0:0:0:0:
88,243,98881,1,2,0:0:0:0:
88,243,99004,6,0,P|139:252|177:269,1,80,10|0,0:0|0:0,0:0:0:0:
278,384,99496,1,0,1:0:0:0:
278,384,99742,2,0,P|255:323|257:219,1,160,2|0,0:0|0:0,0:0:0:0:
355,108,100480,2,0,P|349:147|329:181,1,80,0|0,1:0|0:0,0:0:0:0:
254,229,100971,6,0,L|425:205,2,160,10|0|10,0:0|1:0|0:0,0:0:0:0:
185,281,102201,1,2,0:0:0:0:
185,281,102324,1,2,0:0:0:0:
185,281,102447,2,0,P|140:278|90:243,1,80,0|0,1:0|0:0,0:0:0:0:
37,211,102939,6,0,P|73:136|77:44,1,160,10|0,0:0|1:0,0:0:0:0:
9,6,103676,1,2,0:0:0:0:
86,67,103922,5,8,0:0:0:0:
181,60,104168,1,2,0:0:0:0:
242,133,104414,1,0,1:0:0:0:
217,225,104660,1,2,0:0:0:0:
290,287,104906,6,0,P|330:283|367:267,1,80,10|0,0:0|0:0,0:0:0:0:
512,313,105398,2,0,P|469:319|423:337,1,80,0|0,1:0|0:0,0:0:0:0:
366,268,105889,1,10,0:0:0:0:
467,134,106135,1,0,1:0:0:0:
366,268,106381,2,0,P|371:226|386:190,1,80,2|2,1:2|0:0,0:0:0:0:
381,173,106750,1,10,0:0:0:0:
381,173,106873,6,8,P|321:168|258:142,1,120.000004577637,12|10,0:0|0:0,0:0:0:0:
258,143,107857,2,0,P|267:114|271:84,1,60.0000022888184,2|0,0:0|0:0,0:0:0:0:
217,28,108348,1,8,0:3:0:0:
141,46,108594,1,4,0:3:0:0:
71,80,108840,1,2,0:0:0:0:
50,155,109086,1,4,0:3:0:0:
42,232,109332,1,10,0:0:0:0:
44,239,109824,6,0,P|80:230|125:223,1,60.0000022888184,2|8,0:0|0:0,0:0:0:0:
202,361,110316,6,0,P|198:321|187:282,1,80,2|0,1:2|0:0,0:0:0:0:
238,202,110807,6,0,P|301:187|376:175,1,120.000004577637,10|0,0:0|0:0,0:0:0:0:
449,195,111545,1,8,0:0:0:0:
449,195,111791,2,0,P|442:142|424:71,1,120.000004577637,2|8,0:0|0:3,0:0:0:0:
364,28,112529,1,4,0:3:0:0:
434,83,112775,1,2,0:0:0:0:
463,168,113021,1,4,0:3:0:0:
452,257,113266,1,10,0:0:0:0:
448,263,113758,6,0,P|415:268|376:276,1,60.0000022888184,2|0,0:0|0:0,0:0:0:0:
281,169,114250,6,0,P|287:199|294:250,1,80,2|0,1:2|0:0,0:0:0:0:
219,308,114742,6,0,P|162:319|95:327,1,120.000004577637,12|2,0:0|0:0,0:0:0:0:
95,326,115725,2,0,P|86:289|84:259,1,60.0000022888184,2|0,0:0|0:0,0:0:0:0:
113,187,116217,1,8,0:3:0:0:
196,192,116463,1,4,0:3:0:0:
275,218,116709,1,2,0:0:0:0:
305,296,116955,1,4,0:3:0:0:
312,379,117201,1,10,0:0:0:0:
319,384,117693,6,0,P|359:379|389:372,1,60.0000022888184,2|8,0:0|0:0,0:0:0:0:
494,234,118184,1,0,1:0:0:0:
463,325,118430,1,0,1:0:0:0:
463,325,118553,1,0,1:0:0:0:
463,325,118676,6,0,P|455:246|429:163,1,160,12|0,0:0|1:0,0:0:0:0:
499,107,119414,1,2,0:0:0:0:
499,107,119660,2,0,P|456:123|327:143,1,160,8|0,0:0|1:0,0:0:0:0:
267,98,120398,1,2,0:0:0:0:
281,11,120644,1,10,0:0:0:0:
281,11,121135,6,0,P|246:14|184:30,1,80,2|0,1:2|0:0,0:0:0:0:
144,90,121627,2,0,P|147:131|161:172,1,80,10|0,0:0|0:0,0:0:0:0:
191,258,122119,2,0,P|176:294|143:315,1,80,2|0,1:2|0:0,0:0:0:0:
159,167,122611,6,0,P|240:180|342:187,1,160,10|0,0:0|1:0,0:0:0:0:
370,117,123348,1,2,0:0:0:0:
370,117,123594,2,0,P|357:184|343:292,1,160,8|0,0:0|1:0,0:0:0:0:
400,343,124332,1,2,0:0:0:0:
314,363,124578,6,0,P|274:359|223:332,1,80,10|0,0:0|0:0,0:0:0:0:
79,294,125070,1,0,1:0:0:0:
150,344,125316,2,0,P|169:274|185:180,1,160,2|0,0:0|0:0,0:0:0:0:
272,184,126053,1,0,1:0:0:0:
287,97,126299,1,2,0:0:0:0:
212,49,126545,1,10,0:0:0:0:
212,49,127037,5,0,1:0:0:0:
289,105,127283,1,2,0:0:0:0:
306,199,127529,1,8,0:0:0:0:
250,277,127775,2,0,P|212:290|150:295,1,80,2|0,0:0|1:0,0:0:0:0:
326,216,128266,1,2,0:0:0:0:
326,216,128389,1,2,0:0:0:0:
326,216,128512,6,0,P|337:305|359:379,1,160,10|0,0:0|1:0,0:0:0:0:
363,374,129250,2,0,P|402:368|440:357,1,80,2|8,0:0|0:0,0:0:0:0:
491,275,129742,1,2,0:0:0:0:
417,213,129988,1,0,1:0:0:0:
477,138,130234,1,2,0:0:0:0:
395,86,130480,6,0,P|382:48|376:8,1,80,12|0,0:0|0:0,0:0:0:0:
388,209,130971,2,0,P|351:192|317:154,1,80,0|0,1:0|0:0,0:0:0:0:
512,274,131463,2,0,P|479:297|436:308,1,80,0|0,1:0|0:0,0:0:0:0:
512,267,131955,6,0,P|505:239|498:225,1,40,8|0,0:0|0:0,0:0:0:0:
346,371,132201,1,0,1:0:0:0:
346,371,133676,6,0,P|339:343|332:329,1,40,10|0,0:0|0:0,0:0:0:0:
263,293,133922,2,0,B|235:325|199:316|199:316|179:278|136:278,1,150,2|0,1:2|0:0,0:0:0:0:
56,299,134414,5,12,0:0:0:0:
56,299,134660,2,0,P|39:254|42:212,1,80,2|0,0:0|1:0,0:0:0:0:
105,152,135152,2,0,P|144:151|181:135,1,80,2|8,0:0|0:0,0:0:0:0:
259,77,135644,1,2,0:0:0:0:
352,209,135889,1,0,1:0:0:0:
259,77,136135,6,0,P|262:127|282:171,1,80,2|8,0:0|0:0,0:0:0:0:
352,209,136627,2,0,P|394:191|451:187,1,80,2|0,0:0|1:0,0:0:0:0:
326,300,137119,2,0,P|257:334|168:334,1,160,2|0,0:0|0:0,0:0:0:0:
43,255,137857,1,0,1:0:0:0:
142,251,138103,5,2,0:0:0:0:
142,251,138348,2,0,P|165:214|168:160,1,80,10|0,0:0|0:0,0:0:0:0:
113,60,138840,1,0,1:0:0:0:
82,151,139086,2,0,L|262:117,1,160,2|0,0:0|0:0,0:0:0:0:
360,12,139824,1,0,1:0:0:0:
333,104,140070,1,2,0:0:0:0:
306,196,140316,6,0,P|312:245|348:289,1,80,10|0,0:0|0:0,0:0:0:0:
418,300,140807,1,0,1:0:0:0:
486,233,141053,1,2,0:0:0:0:
486,233,141176,1,2,0:0:0:0:
486,233,141299,2,0,P|480:184|444:140,1,80,10|0,0:0|0:0,0:0:0:0:
374,28,141791,1,0,1:0:0:0:
459,70,142037,1,2,0:0:0:0:
379,121,142283,5,10,0:0:0:0:
379,121,142529,2,0,P|326:115|292:85,1,80,2|0,0:0|1:0,0:0:0:0:
244,25,143021,2,0,P|204:26|169:45,1,80,2|8,0:0|0:0,0:0:0:0:
105,115,143512,1,2,0:0:0:0:
0,0,143758,1,0,1:0:0:0:
105,115,144004,6,0,P|82:76|78:22,1,80,2|8,0:0|0:0,0:0:0:0:
197,136,144496,2,0,P|194:173|169:215,1,80,2|0,0:0|1:0,0:0:0:0:
97,269,144988,2,0,P|67:252|3:251,1,80,2|8,0:0|0:0,0:0:0:0:
144,358,145480,1,2,0:0:0:0:
258,258,145725,1,0,1:0:0:0:
144,358,145971,6,0,B|191:323|234:344|234:344|249:390|309:385,1,160,2|0,0:0|0:0,0:0:0:0:
380,239,146709,1,0,1:0:0:0:
332,317,146955,1,2,0:0:0:0:
332,317,147078,1,2,0:0:0:0:
332,317,147201,1,10,0:0:0:0:
403,368,147447,1,2,0:0:0:0:
375,236,147693,1,0,1:0:0:0:
260,163,147939,1,2,0:0:0:0:
132,211,148184,5,10,0:0:0:0:
156,126,148430,1,2,0:0:0:0:
100,58,148676,1,0,1:0:0:0:
129,216,148922,1,2,0:0:0:0:
280,271,149168,2,0,P|363:243|397:155,1,160,10|0,0:0|1:0,0:0:0:0:
394,94,149906,1,2,0:0:0:0:
394,94,150029,1,2,0:0:0:0:
394,94,150152,5,10,0:0:0:0:
397,189,150398,2,0,P|405:227|428:259,1,80,2|0,0:0|1:0,0:0:0:0:
449,353,150889,2,0,P|412:340|350:341,1,80,2|8,0:0|0:0,0:0:0:0:
280,369,151381,1,2,0:0:0:0:
176,248,151627,1,0,1:0:0:0:
280,369,151873,6,0,P|277:329|261:292,1,80,2|8,0:0|0:0,0:0:0:0:
176,248,152365,2,0,P|143:267|92:280,1,80,2|0,0:0|1:0,0:0:0:0:
232,168,152857,2,0,P|222:106|134:33,1,160,2|0,0:0|0:0,0:0:0:0:
241,80,153594,2,0,P|288:71|330:40,1,80,0|0,1:0|0:0,0:0:0:0:
391,121,154086,5,10,0:0:0:0:
391,121,154332,2,0,P|430:99|488:99,1,80,2|0,0:0|1:0,0:0:0:0:
356,208,154824,2,0,P|384:243|383:296,1,80,2|8,0:0|0:0,0:0:0:0:
261,205,155316,2,0,P|218:229|172:232,1,80,2|0,0:0|1:0,0:0:0:0:
144,319,155807,6,0,P|62:296|19:227,1,160,2|0,0:0|0:0,0:0:0:0:
59,64,156545,1,0,1:0:0:0:
3,144,156791,1,2,0:0:0:0:
3,144,156914,1,2,0:0:0:0:
3,144,157037,2,0,P|42:161|95:152,1,80,10|0,0:0|0:0,0:0:0:0:
224,61,157529,1,0,1:0:0:0:
155,218,157775,1,2,0:0:0:0:
155,218,158021,6,0,P|177:168|167:123,1,80,10|0,0:0|0:0,0:0:0:0:
224,61,158512,1,0,1:0:0:0:
244,47,158635,1,2,0:0:0:0:
268,47,158758,1,2,0:0:0:0:
289,56,158881,1,2,0:0:0:0:
301,76,159004,2,0,L|290:125,2,40,10|2|2,0:0|0:0|0:0,0:0:0:0:
429,0,159496,1,0,1:0:0:0:
410,99,159742,1,2,0:0:0:0:
410,99,159865,1,2,0:0:0:0:
410,99,159988,6,0,L|389:187,1,80,10|0,0:0|0:0,0:0:0:0:
508,284,160480,2,0,L|431:266,1,80,2|0,1:2|0:0,0:0:0:0:
407,266,160848,1,2,0:0:0:0:
390,282,160971,1,8,3:2:0:0:
384,305,161094,1,2,0:0:0:0:
390,328,161217,1,2,0:0:0:0:
305,372,161463,2,0,P|259:368|216:336,1,80,0|8,1:0|0:0,0:0:0:0:
204,329,161832,1,0,3:0:0:0:
204,329,161955,6,0,P|251:262|238:159,1,160,12|0,0:0|1:0,0:0:0:0:
191,123,162693,1,2,0:0:0:0:
191,123,162816,1,2,0:0:0:0:
191,123,162939,1,8,0:0:0:0:
124,191,163184,1,2,0:0:0:0:
124,191,163307,1,2,0:0:0:0:
124,191,163430,2,0,P|79:218|31:213,1,80,0|0,1:0|0:0,0:0:0:0:
65,39,163922,6,0,P|112:98|226:117,1,160,10|0,0:0|1:0,0:0:0:0:
277,75,164660,1,2,0:0:0:0:
277,75,164783,1,2,0:0:0:0:
277,75,164906,1,8,0:0:0:0:
362,138,165152,1,2,0:0:0:0:
362,138,165275,1,2,0:0:0:0:
362,138,165398,2,0,P|385:180|376:227,1,80,0|0,1:0|0:0,0:0:0:0:
473,241,165889,6,0,P|395:241|335:294,1,160,10|0,0:0|1:0,0:0:0:0:
290,380,166627,1,2,0:0:0:0:
290,380,166750,1,2,0:0:0:0:
290,380,166873,2,0,P|248:376|201:335,1,80,10|0,0:0|0:0,0:0:0:0:
203,202,167365,2,0,P|193:240|169:272,1,80,2|0,1:2|0:0,0:0:0:0:
75,294,167857,6,0,P|32:238|35:123,1,160,10|0,0:0|1:0,0:0:0:0:
56,60,168594,2,0,P|134:56|196:7,1,160,2|0,0:0|0:0,0:0:0:0:
344,32,169332,2,0,P|305:42|273:65,1,80,2|0,1:2|0:0,0:0:0:0:
201,130,169824,6,0,P|249:193|247:304,1,160,10|0,0:0|1:0,0:0:0:0:
181,332,170562,2,0,L|85:348,1,80,2|8,0:0|0:0,0:0:0:0:
266,370,171053,1,2,0:0:0:0:
375,238,171299,1,0,1:0:0:0:
266,370,171545,6,0,L|372:353,1,80,2|8,0:0|0:0,0:0:0:0:
432,316,172037,1,2,0:0:0:0:
375,238,172283,1,0,1:0:0:0:
459,192,172529,2,0,P|479:154|479:117,1,80,2|8,0:0|0:0,0:0:0:0:
371,242,173021,5,0,1:0:0:0:
250,161,173266,1,0,1:0:0:0:
293,29,173512,5,2,0:0:0:0:
293,29,173635,1,2,0:0:0:0:
293,29,173758,1,12,0:0:0:0:
328,118,174004,5,2,0:0:0:0:
246,169,174250,5,2,1:2:0:0:
158,143,174496,5,2,0:0:0:0:
158,143,174619,1,2,0:0:0:0:
76,194,174865,5,2,0:0:0:0:
89,293,175111,5,2,0:0:0:0:
89,293,175234,1,0,1:0:0:0:
247,334,175480,5,2,0:0:0:0:
247,334,175603,1,2,0:0:0:0:
247,334,175725,1,10,0:0:0:0:
229,243,175971,5,2,0:0:0:0:
229,243,176094,1,2,0:0:0:0:
288,167,176340,5,2,0:0:0:0:
382,183,176586,5,2,0:0:0:0:
456,121,176832,5,2,0:0:0:0:
456,121,176955,1,2,0:0:0:0:
435,27,177201,6,0,L|352:12,1,80,0|0,1:0|0:0,0:0:0:0:
255,44,177693,5,10,0:0:0:0:
242,64,177816,1,2,0:0:0:0:
246,87,177939,1,2,0:0:0:0:
259,106,178062,1,2,0:0:0:0:
282,109,178184,2,0,L|337:92,3,40,0|2|2|2,1:0|0:0|0:0|0:0,0:0:0:0:
393,139,178676,5,10,0:0:0:0:
408,157,178799,1,2,0:0:0:0:
411,180,178922,1,2,0:0:0:0:
402,202,179045,1,2,0:0:0:0:
384,218,179168,2,0,L|325:206,1,40,0|0,1:0|0:0,0:0:0:0:
275,254,179414,2,0,L|212:242,1,40,2|0,0:0|0:0,0:0:0:0:
186,184,179660,5,10,0:0:0:0:
235,101,179906,5,2,0:0:0:0:
158,43,180152,6,0,L|133:49,3,26.6666666666667,0|2|2|2,1:0|0:0|0:0|0:0,0:0:0:0:
107,57,180521,1,2,0:0:0:0:
240,105,180766,5,2,0:0:0:0:
345,10,181012,5,2,0:0:0:0:
345,10,181135,1,0,1:0:0:0:
245,109,181381,5,2,0:0:0:0:
295,249,181627,5,10,0:0:0:0:
295,249,181750,1,2,0:0:0:0:
295,249,181873,2,0,L|344:257,2,26.6666666666667,2|2|2,0:0|0:0|0:0,0:0:0:0:
230,304,182119,5,0,1:0:0:0:
203,322,182242,1,2,0:0:0:0:
171,328,182365,1,2,0:0:0:0:
139,325,182488,1,2,0:0:0:0:
109,311,182611,1,10,0:0:0:0:
91,283,182734,1,2,0:0:0:0:
88,251,182857,1,2,0:0:0:0:
100,221,182980,1,2,0:0:0:0:
120,196,183103,2,0,L|102:144,1,40,2|0,1:2|0:0,0:0:0:0:
175,109,183348,2,0,L|157:57,1,40,2|0,0:2|0:0,0:0:0:0:
228,18,183594,5,10,0:0:0:0:
324,44,183840,5,2,0:0:0:0:
324,44,183963,1,2,0:0:0:0:
420,72,184209,5,2,0:0:0:0:
420,72,184332,1,2,0:0:0:0:
493,140,184578,5,10,0:0:0:0:
470,147,184701,1,2,0:0:0:0:
447,154,184824,1,2,0:0:0:0:
424,161,184947,1,2,0:0:0:0:
401,167,185070,2,0,L|388:229,1,40,2|0,1:2|0:0,0:0:0:0:
474,240,185316,2,0,L|460:305,1,40,2|0,0:0|0:0,0:0:0:0:
449,360,185562,6,0,B|408:356|390:322|390:322|337:306|290:362,1,160,12|0,0:0|1:0,0:0:0:0:
221,378,186299,2,0,B|174:367|165:321|165:321|201:293|194:248,1,160,2|0,0:0|0:0,0:0:0:0:
19,233,187037,2,0,L|98:249,1,80,2|0,1:2|0:0,0:0:0:0:
194,255,187529,6,0,B|237:239|241:192|241:192|274:158|337:175,1,160,10|0,0:0|1:0,0:0:0:0:
392,221,188266,1,2,0:0:0:0:
459,153,188512,2,0,L|519:162,2,53.3333333333333,8|2|2,0:0|0:0|0:0,0:0:0:0:
413,79,189004,6,0,L|333:67,1,80,2|0,1:2|3:0,0:0:0:0:
302,65,189373,1,0,3:0:0:0:
302,65,189496,1,10,0:0:0:0:
145,25,189988,6,0,B|144:76|197:85|197:85|234:119|208:173,1,160,2|8,1:2|0:0,0:0:0:0:
138,206,190725,2,0,L|44:193,1,80,2|0,0:0|1:0,0:0:0:0:
28,193,191094,1,2,0:0:0:0:
28,193,191217,1,2,0:0:0:0:
74,347,191463,5,10,0:0:0:0:
134,294,191627,1,2,0:0:0:0:
198,342,191791,1,2,0:0:0:0:
258,289,191955,6,0,B|305:269|292:221|292:221|257:192|281:136,1,160,2|8,1:2|0:0,0:0:0:0:
334,76,192693,1,2,0:0:0:0:
370,166,192939,2,0,L|463:148,1,80,2|0,1:2|0:0,0:0:0:0:
242,69,193430,5,10,0:0:0:0:
242,69,193922,2,0,L|50:106,1,160,4|10,1:2|0:0,0:0:0:0:
98,10,194660,1,0,1:0:0:0:
98,10,194783,1,0,1:0:0:0:
98,10,194906,1,2,1:2:0:0:
175,114,195152,1,8,0:3:0:0:
73,193,195398,6,0,B|63:231|78:254|87:241|113:266|100:311,1,120.000004577637,12|0,0:0|0:0,0:0:0:0:
99,307,196135,2,0,L|69:314,2,30.0000011444092,2|2|12,0:0|0:0|0:0,0:0:0:0:
184,354,196627,1,4,0:3:0:0:
184,354,196750,1,4,0:3:0:0:
184,354,196873,2,0,L|256:336,1,60.0000022888184,8|0,0:3|0:0,0:0:0:0:
332,372,197365,6,0,P|356:330|358:294,1,80,12|0,0:0|0:0,0:0:0:0:
325,208,197857,1,0,1:0:0:0:
392,139,198103,2,0,P|332:87|254:76,1,160,2|0,0:0|0:0,0:0:0:0:
123,0,198840,1,0,1:0:0:0:
159,88,199086,6,0,P|156:125|130:161,1,80,2|8,0:0|0:0,0:0:0:0:
60,224,199578,2,0,P|71:267|105:295,1,80,2|0,0:0|1:0,0:0:0:0:
49,375,200070,2,0,P|112:327|191:331,1,160,2|0,0:0|0:0,0:0:0:0:
328,384,200807,1,0,1:0:0:0:
285,303,201053,1,2,0:0:0:0:
285,303,201299,6,0,P|292:260|327:224,1,80,10|0,0:0|0:0,0:0:0:0:
474,143,201791,1,0,1:0:0:0:
404,208,202037,2,0,P|325:203|266:152,1,160,2|0,0:0|0:0,0:0:0:0:
250,57,202775,2,0,P|276:25|331:9,1,80,2|0,1:2|0:0,0:0:0:0:
266,152,203266,6,0,L|103:174,1,160,10|0,0:0|1:0,0:0:0:0:
75,264,204004,1,2,0:0:0:0:
10,193,204250,2,0,L|34:25,1,160,8|0,0:0|1:0,0:0:0:0:
125,6,204988,1,2,0:0:0:0:
201,64,205234,6,0,P|239:55|270:30,1,80,10|0,0:0|0:0,0:0:0:0:
366,35,205725,1,0,1:2:0:0:
275,28,205971,2,0,P|301:105|364:154,1,160,2|0,0:0|0:0,0:0:0:0:
475,161,206709,2,0,P|445:195|437:237,1,80,2|0,1:2|0:0,0:0:0:0:
344,255,207201,6,0,P|432:266|485:336,2,160,10|2|10,0:0|1:2|0:0,0:0:0:0:
274,320,208430,1,0,0:0:0:0:
196,205,208676,2,0,L|182:283,1,80,2|0,1:2|0:0,0:0:0:0:
176,316,209045,1,2,0:0:0:0:
176,316,209168,6,0,P|94:320|41:259,1,160,10|0,0:0|1:0,0:0:0:0:
30,171,209906,1,2,0:0:0:0:
93,99,210152,1,8,0:0:0:0:
188,105,210398,1,2,0:0:0:0:
241,16,210644,5,0,1:0:0:0:
241,16,210889,2,0,P|262:55|304:73,1,80,2|8,0:0|0:0,0:0:0:0:
395,65,211381,1,2,0:0:0:0:
395,65,211504,1,2,0:0:0:0:
395,65,211627,1,0,1:0:0:0:
355,152,211873,1,2,0:0:0:0:
450,144,212119,1,10,0:0:0:0:
405,229,212365,2,0,L|358:328,1,80,2|0,0:0|1:0,0:0:0:0:
315,384,212857,1,2,0:0:0:0:
315,384,212980,1,2,0:0:0:0:
315,384,213103,6,0,P|286:356|213:362,1,80,12|0,0:0|0:0,0:0:0:0:
154,325,213594,1,0,1:0:0:0:
248,354,213840,2,0,P|241:278|159:223,1,160,2|0,0:0|0:0,0:0:0:0:
77,114,214578,1,0,1:0:0:0:
77,114,214824,6,0,P|108:134|152:141,1,80,2|8,0:0|0:0,0:0:0:0:
245,155,215316,2,0,P|252:115|271:80,1,80,2|0,0:0|1:0,0:0:0:0:
348,24,215807,2,0,P|426:25|487:86,1,160,2|0,0:0|0:0,0:0:0:0:
512,207,216545,1,0,1:0:0:0:
434,164,216791,1,2,0:0:0:0:
434,164,216914,1,2,0:0:0:0:
434,164,217037,6,0,P|389:170|348:214,1,80,10|0,0:0|0:0,0:0:0:0:
344,355,217529,1,0,1:0:0:0:
344,355,217775,2,0,P|328:320|331:270,1,80,2|8,0:0|0:0,0:0:0:0:
265,206,218266,2,0,P|232:186|169:193,1,80,2|0,0:0|1:0,0:0:0:0:
107,230,218758,1,2,0:0:0:0:
134,321,219004,5,10,0:0:0:0:
107,230,219250,1,2,0:0:0:0:
13,208,219496,1,0,1:0:0:0:
141,328,219742,1,2,0:0:0:0:
141,328,219865,1,2,0:0:0:0:
141,328,219988,2,0,P|186:320|217:292,1,80,10|0,0:0|0:0,0:0:0:0:
263,217,220480,1,0,1:0:0:0:
186,178,220725,1,2,0:0:0:0:
186,178,220848,1,2,0:0:0:0:
186,178,220971,6,0,P|166:144|173:85,1,80,10|0,0:0|0:0,0:0:0:0:
70,90,221463,1,0,1:0:0:0:
133,18,221709,2,0,P|211:24|271:75,1,160,2|0,0:0|0:0,0:0:0:0:
400,136,222447,2,0,P|365:155|326:154,1,80,0|0,1:0|0:0,0:0:0:0:
485,180,222939,6,0,P|432:122|439:45,2,160,10|0|10,0:0|1:0|0:0,0:0:0:0:
492,283,224168,1,2,0:0:0:0:
492,283,224291,1,2,0:0:0:0:
492,283,224414,2,0,P|471:311|404:330,1,80,0|0,1:0|0:0,0:0:0:0:
334,326,224906,5,10,0:0:0:0:
301,235,225152,1,2,0:0:0:0:
334,326,225398,5,0,1:0:0:0:
301,235,225644,1,2,0:0:0:0:
206,219,225889,5,8,0:0:0:0:
334,326,226135,1,0,1:0:0:0:
174,384,226381,1,0,1:0:0:0:
50,273,226627,6,0,P|10:220|39:109,1,160,12|0,0:0|1:0,0:0:0:0:
98,0,227365,1,0,1:0:0:0:
118,102,227611,1,8,0:0:0:0:
118,102,227734,1,8,0:0:0:0:
118,102,227857,1,0,1:0:0:0:
133,196,228103,1,0,1:0:0:0:
151,289,228348,2,0,P|195:317|251:309,1,80,2|2,1:2|0:0,0:0:0:0:
240,337,228717,1,2,0:0:0:0:
240,337,228840,6,0,P|297:312|365:313,1,120.000004577637,12|2,0:0|0:0,0:0:0:0:
359,315,229824,2,0,P|368:286|372:256,1,60.0000022888184,2|0,0:0|0:0,0:0:0:0:
512,222,230316,1,8,0:3:0:0:
436,204,230562,1,4,0:3:0:0:
366,170,230807,1,2,0:0:0:0:
345,95,231053,1,4,0:3:0:0:
337,18,231299,1,10,0:0:0:0:
337,12,231791,6,0,P|307:17|278:25,1,60.0000022888184,2|8,0:0|0:0,0:0:0:0:
231,179,232283,6,0,P|227:139|216:100,1,80,2|0,1:2|0:0,0:0:0:0:
131,59,232775,6,0,P|71:69|13:83,1,120.000004577637,10|0,0:0|0:0,0:0:0:0:
0,176,233512,1,8,0:0:0:0:
0,176,233758,2,0,P|7:229|25:300,1,120.000004577637,2|8,0:0|0:3,0:0:0:0:
32,384,234496,1,4,0:3:0:0:
29,295,234742,1,2,0:0:0:0:
75,218,234988,1,4,0:3:0:0:
150,170,235234,1,10,0:0:0:0:
155,173,235725,6,0,P|184:168|214:162,1,60.0000022888184,2|0,0:0|0:0,0:0:0:0:
311,285,236217,6,0,P|306:246|298:207,1,80,2|0,1:2|0:0,0:0:0:0:
355,132,236709,6,0,P|412:121|479:113,1,120.000004577637,12|2,0:0|0:0,0:0:0:0:
479,117,237693,2,0,P|482:146|489:175,1,60.0000022888184,2|0,0:0|0:0,0:0:0:0:
512,38,238184,1,8,0:3:0:0:
430,45,238430,1,4,0:3:0:0:
352,75,238676,1,2,0:0:0:0:
326,154,238922,1,4,0:3:0:0:
321,237,239168,1,10,0:0:0:0:
324,242,239660,6,0,P|294:247|264:251,1,60.0000022888184,2|8,0:0|0:0,0:0:0:0:
154,105,240152,1,0,1:0:0:0:
189,197,240398,1,0,1:0:0:0:
189,197,240521,1,0,1:0:0:0:
189,197,240644,6,0,P|197:118|223:35,1,160,12|0,0:0|1:0,0:0:0:0:
126,0,241381,1,2,0:0:0:0:
126,0,241627,2,0,P|110:43|90:172,1,160,8|0,0:0|1:0,0:0:0:0:
105,250,242365,1,2,0:0:0:0:
193,288,242611,1,10,0:0:0:0:
193,288,243103,6,0,P|231:278|271:275,1,80,2|0,1:2|0:0,0:0:0:0:
362,306,243594,2,0,P|364:345|376:383,1,80,10|0,0:0|0:0,0:0:0:0:
276,279,244086,2,0,P|275:236|261:186,1,80,2|0,1:2|0:0,0:0:0:0:
347,148,244578,6,0,P|425:145|479:84,1,160,10|0,0:0|1:0,0:0:0:0:
439,0,245316,1,2,0:0:0:0:
439,0,245562,2,0,P|360:2|307:64,1,160,10|0,0:0|1:0,0:0:0:0:
347,148,246299,1,2,0:0:0:0:
266,200,246545,6,0,P|226:196|178:160,1,80,10|0,0:0|0:0,0:0:0:0:
111,83,247037,1,0,1:0:0:0:
96,177,247283,2,0,P|99:262|130:333,1,160,2|0,0:0|0:0,0:0:0:0:
216,373,248021,1,0,1:0:0:0:
282,304,248266,1,2,0:0:0:0:
372,347,248512,1,10,0:0:0:0:
372,347,249004,5,0,1:0:0:0:
430,271,249250,1,2,0:0:0:0:
415,176,249496,1,8,0:0:0:0:
333,124,249742,2,0,P|293:129|255:142,1,80,2|0,0:0|1:0,0:0:0:0:
173,184,250234,1,2,0:0:0:0:
173,184,250357,1,2,0:0:0:0:
173,184,250480,6,0,P|156:139|152:86,1,80,10|2,0:0|0:0,0:0:0:0:
253,238,250971,1,0,1:0:0:0:
166,279,251217,2,0,P|128:292|88:296,1,80,2|8,0:0|0:0,0:0:0:0:
258,241,251709,1,2,0:0:0:0:
304,325,251955,1,0,1:0:0:0:
398,344,252201,1,2,0:0:0:0:
484,301,252447,6,0,P|477:261|460:223,1,80,12|0,0:0|0:0,0:0:0:0:
259,111,252939,2,0,P|282:78|314:54,1,80,0|0,1:0|0:0,0:0:0:0:
468,128,253430,2,0,P|431:114|392:110,1,80,0|0,1:0|0:0,0:0:0:0:
387,113,253922,6,0,P|379:131|375:150,1,40,8|0,0:0|0:0,0:0:0:0:
375,239,254168,1,0,1:0:0:0:
375,239,254414,6,0,P|373:263|364:299,2,60.0000022888184,2|2|2,0:0|0:0|0:0,0:0:0:0:
297,197,255152,2,0,P|262:193|223:182,1,60.0000022888184,2|2,0:0|0:0,0:0:0:0:
297,197,255644,1,10,0:0:0:0:
221,104,255889,2,0,B|178:104|158:142|158:142|122:151|94:119,1,150,2|0,1:2|0:0,0:0:0:0:
19,65,256381,5,12,0:0:0:0:
19,65,256627,2,0,P|2:110|5:152,1,80,2|0,0:0|1:0,0:0:0:0:
70,209,257119,2,0,P|109:210|152:224,1,80,2|8,0:0|0:0,0:0:0:0:
222,282,257611,1,2,0:0:0:0:
327,165,257857,1,0,1:0:0:0:
222,282,258103,6,0,P|226:242|241:204,1,80,2|8,0:0|0:0,0:0:0:0:
327,165,258594,2,0,P|369:183|426:187,1,80,2|0,0:0|1:0,0:0:0:0:
486,140,259086,2,0,P|483:64|413:19,1,160,2|0,0:0|0:0,0:0:0:0:
270,18,259824,1,0,1:0:0:0:
346,85,260070,5,2,0:0:0:0:
346,85,260316,2,0,P|344:126|332:163,1,80,10|0,0:0|0:0,0:0:0:0:
295,283,260807,1,0,1:0:0:0:
383,240,261053,2,0,P|321:192|243:200,1,160,2|0,0:0|0:0,0:0:0:0:
153,376,261791,1,0,1:0:0:0:
198,290,262037,1,2,0:0:0:0:
140,213,262283,6,0,P|123:178|127:138,1,80,10|0,0:0|0:0,0:0:0:0:
193,68,262775,1,0,1:0:0:0:
120,21,263021,1,2,0:0:0:0:
120,21,263144,1,2,0:0:0:0:
120,21,263266,2,0,P|75:26|36:63,1,80,10|0,0:0|0:0,0:0:0:0:
193,73,263758,1,0,1:0:0:0:
269,14,264004,1,2,0:0:0:0:
348,76,264250,5,10,0:0:0:0:
348,76,264496,2,0,P|397:77|432:54,1,80,2|0,0:0|1:0,0:0:0:0:
493,129,264988,2,0,P|511:163|512:203,1,80,2|8,0:0|0:0,0:0:0:0:
467,290,265480,1,2,0:0:0:0:
354,216,265725,1,0,1:0:0:0:
467,290,265971,6,0,P|427:293|386:311,1,80,2|8,0:0|0:0,0:0:0:0:
317,371,266463,2,0,P|297:336|293:296,1,80,2|0,0:0|1:0,0:0:0:0:
354,216,266955,2,0,P|324:199|260:204,1,80,2|8,0:0|0:0,0:0:0:0:
198,247,267447,1,2,0:0:0:0:
132,86,267693,1,0,1:0:0:0:
198,247,267939,6,0,B|159:207|177:174|177:174|228:153|225:82,1,160,2|0,0:0|0:0,0:0:0:0:
207,20,268676,1,0,1:0:0:0:
132,86,268922,1,2,0:0:0:0:
132,86,269045,1,2,0:0:0:0:
132,86,269168,1,10,0:0:0:0:
149,180,269414,1,2,0:0:0:0:
214,22,269660,1,0,1:0:0:0:
380,46,269906,1,2,0:0:0:0:
317,202,270152,5,10,0:0:0:0:
303,106,270398,1,2,0:0:0:0:
382,52,270644,1,0,1:0:0:0:
321,207,270889,1,2,0:0:0:0:
160,263,271135,2,0,P|83:258|29:201,1,160,10|0,0:0|1:0,0:0:0:0:
22,112,271873,1,2,0:0:0:0:
22,112,271996,1,2,0:0:0:0:
22,112,272119,5,10,0:0:0:0:
113,83,272365,2,0,P|136:51|144:12,1,80,2|0,0:0|1:0,0:0:0:0:
112,89,272857,2,0,P|144:109|201:121,1,80,2|8,0:0|0:0,0:0:0:0:
281,103,273348,1,2,0:0:0:0:
394,205,273594,1,0,1:0:0:0:
281,103,273840,6,0,P|284:143|300:180,1,80,2|8,0:0|0:0,0:0:0:0:
394,205,274332,2,0,P|435:198|474:178,1,80,2|0,0:0|1:0,0:0:0:0:
327,272,274824,2,0,P|251:284|172:310,1,160,2|0,0:0|0:0,0:0:0:0:
52,384,275562,2,0,P|36:350|31:308,1,80,0|0,1:0|0:0,0:0:0:0:
105,247,276053,5,10,0:0:0:0:
105,247,276299,2,0,P|99:207|82:172,1,80,2|0,0:0|1:0,0:0:0:0:
71,75,276791,2,0,P|32:83|0:106,1,80,2|8,0:0|0:0,0:0:0:0:
159,121,277283,1,2,0:0:0:0:
220,47,277529,1,0,1:0:0:0:
304,92,277775,6,0,P|408:82|464:19,1,160,2|0,0:0|0:0,0:0:0:0:
304,92,278512,1,0,1:0:0:0:
401,133,278758,1,2,0:0:0:0:
401,133,278881,1,2,0:0:0:0:
401,133,279004,2,0,P|431:173|429:216,1,80,10|0,0:0|0:0,0:0:0:0:
346,347,279496,1,0,1:0:0:0:
423,293,279742,1,2,0:0:0:0:
423,293,279988,6,0,P|480:299|518:326,1,80,10|0,0:0|0:0,0:0:0:0:
342,350,280480,1,0,1:0:0:0:
322,364,280603,1,2,0:0:0:0:
298,364,280725,1,2,0:0:0:0:
277,355,280848,1,2,0:0:0:0:
265,335,280971,2,0,L|276:286,2,40,10|2|2,0:0|0:0|0:0,0:0:0:0:
174,367,281463,1,0,1:0:0:0:
123,297,281709,1,2,0:0:0:0:
123,297,281832,1,2,0:0:0:0:
123,297,281955,5,10,0:0:0:0:
270,337,282201,1,0,1:0:0:0:
396,252,282447,2,0,P|385:221|382:174,1,80,2|0,1:2|0:0,0:0:0:0:
392,151,282816,1,2,0:0:0:0:
397,127,282939,1,8,3:2:0:0:
386,105,283062,1,2,0:0:0:0:
367,90,283184,1,2,0:0:0:0:
270,90,283430,1,0,1:0:0:0:
256,192,283676,1,2,3:2:0:0:
256,192,283799,1,2,3:2:0:0:
256,192,283922,1,12,0:0:0:0:
256,192,284045,12,10,285889,0:0:0:0:
445,331,291545,6,0,P|413:307|374:300,1,80,2|8,0:0|0:0,0:0:0:0:
281,325,292037,2,0,P|232:260|253:170,1,160,2|0,0:0|0:0,0:0:0:0:
290,102,292775,1,10,0:0:0:0:
380,133,293021,2,0,P|424:124|458:91,1,80,2|0,0:0|1:0,0:0:0:0:
286,100,293512,1,2,0:0:0:0:
264,193,293758,5,10,0:0:0:0:
353,227,294004,1,2,0:0:0:0:
283,98,294250,1,0,1:0:0:0:
147,149,294496,2,0,P|97:209|104:311,1,160,2|0,0:0|1:0,0:0:0:0:
228,384,295234,1,0,1:0:0:0:
22,344,295480,1,0,1:0:0:0:
22,344,295603,1,0,1:0:0:0:
22,344,295725,6,0,L|201:307,1,160,14|0,0:0|1:0,0:0:0:0:
282,312,296463,1,2,0:0:0:0:
282,312,296586,1,2,0:0:0:0:
282,312,296709,2,0,L|275:359,2,40,10|2|2,0:0|0:0|0:0,0:0:0:0:
378,303,297201,2,0,L|390:210,1,80,0|0,1:0|0:0,0:0:0:0:
400,128,297693,6,0,L|221:165,1,160,10|0,0:0|1:0,0:0:0:0:
171,222,298430,1,2,0:0:0:0:
171,222,298553,1,2,0:0:0:0:
171,222,298676,2,0,L|164:269,2,40,10|2|2,0:0|0:0|0:0,0:0:0:0:
82,183,299168,2,0,L|94:90,1,80,0|0,1:0|0:0,0:0:0:0:
163,38,299660,6,0,L|342:1,1,160,14|0,0:0|1:0,0:0:0:0:
419,38,300398,1,2,0:0:0:0:
419,38,300521,1,2,0:0:0:0:
419,38,300644,2,0,L|412:85,2,40,10|2|2,0:0|0:0|0:0,0:0:0:0:
324,102,301136,2,0,L|313:181,1,80,0|0,1:0|0:0,0:0:0:0:
408,167,301627,5,10,0:0:0:0:
484,225,301873,1,2,0:0:0:0:
495,320,302119,1,0,1:0:0:0:
415,373,302365,2,0,P|327:370|271:315,1,160,2|2,0:0|0:0,0:0:0:0:
143,269,303103,2,0,P|177:249|217:247,1,80,2|0,1:2|0:0,0:0:0:0:
312,235,303594,6,0,P|357:172|344:71,1,160,10|0,0:0|1:0,0:0:0:0:
391,3,304332,2,0,P|330:57|235:49,1,160,2|2,0:0|0:0,0:0:0:0:
109,0,305070,1,0,1:0:0:0:
156,83,305316,2,0,P|151:124|108:172,1,80,2|10,0:0|0:0,0:0:0:0:
43,196,305807,5,2,0:0:0:0:
133,162,306053,1,0,1:0:0:0:
186,241,306299,2,0,P|233:260|283:254,1,80,2|8,0:0|0:0,0:0:0:0:
347,384,306791,5,2,1:2:0:0:
268,261,307037,1,0,1:0:0:0:
396,183,307283,1,0,1:0:0:0:
396,183,307406,1,0,1:0:0:0:
396,183,307529,6,0,P|433:103|400:24,2,160,12|0|10,0:0|1:0|0:0,0:0:0:0:
300,178,308758,1,2,0:0:0:0:
269,268,309004,2,0,P|244:290|185:294,1,80,2|0,1:2|0:0,0:0:0:0:
103,285,309496,6,0,B|76:247|96:205|96:205|147:183|143:119,1,160,10|0,0:0|1:0,0:0:0:0:
409,99,310480,2,0,B|436:137|416:179|416:179|365:201|369:265,1,160,10|0,0:0|1:0,0:0:0:0:
88,260,311463,6,0,L|81:299,2,40,10|2|2,0:0|0:0|0:0,0:0:0:0:
15,199,311955,2,0,P|-3:137|46:52,2,160,2|8|2,1:2|0:0|1:2,0:0:0:0:
88,260,313184,6,0,L|183:246,1,80,2|8,0:0|0:0,0:0:0:0:
257,304,313676,1,2,0:0:0:0:
257,304,313799,1,2,0:0:0:0:
257,304,313922,1,0,1:0:0:0:
317,229,314168,2,0,P|351:155|316:69,1,160,2|2,0:0|0:0,0:0:0:0:
236,56,314906,1,0,1:0:0:0:
259,157,315152,1,2,0:0:0:0:
259,157,315275,1,2,0:0:0:0:
259,157,315398,6,0,L|426:176,1,160,10|0,0:0|1:0,0:0:0:0:
477,250,316135,1,2,0:0:0:0:
400,308,316381,2,0,L|316:299,1,80,10|0,0:0|0:0,0:0:0:0:
290,296,316750,2,0,P|252:340|194:340,1,120,2|2,0:0|0:0,0:0:0:0:
98,352,317365,6,0,P|119:273|122:180,1,160,10|2,0:0|1:2,0:0:0:0:
76,110,318103,2,0,P|37:112|-1:101,1,80,2|8,0:0|0:0,0:0:0:0:
149,48,318594,1,2,1:2:0:0:
235,90,318840,1,2,1:2:0:0:
256,192,319086,1,0,1:0:0:0:
256,192,319209,1,0,1:0:0:0:
256,192,319332,1,12,0:0:0:0:
256,192,319455,12,12,331135,0:0:0:0:
