osu file format v14

[General]
AudioFilename: audio.mp3
AudioLeadIn: 0
PreviewTime: 88105
Countdown: 0
SampleSet: Soft
StackLeniency: 0.7
Mode: 0
LetterboxInBreaks: 0
WidescreenStoryboard: 0

[Editor]
DistanceSpacing: 0.9
BeatDivisor: 4
GridSize: 8
TimelineZoom: 3.799999

[Metadata]
Title:Sakura no Zenya
TitleUnicode:Sakura no Zenya
Artist:Kushi
ArtistUnicode:Kushi
Creator:Seox
Version:Yakusoku
Source:
Tags:
BeatmapID:1606099
BeatmapSetID:763841

[Difficulty]
HPDrainRate:6
CircleSize:4
OverallDifficulty:9
ApproachRate:9.8
SliderMultiplier:1.7
SliderTickRate:1

[Events]
//Background and Video events
0,0,"bgsakura.jpg",0,0
//Break Periods
//Storyboard Layer 0 (Background)
//Storyboard Layer 1 (Fail)
//Storyboard Layer 2 (Pass)
//Storyboard Layer 3 (Foreground)
//Storyboard Sound Samples

[TimingPoints]
1439,333.333333333333,4,2,1,100,1,0
1439,-133.333333333333,4,2,1,50,0,0
34772,-83.3333333333333,4,2,1,100,0,0
45438,-100,4,2,1,100,0,0
85438,-200,4,2,1,100,0,0
86105,-250,4,2,1,100,0,0
86772,-333.333333333333,4,2,1,100,0,0
87772,-83.3333333333333,4,2,1,100,0,0
88105,-66.6666666666667,4,2,1,100,0,1
111438,-133.333333333333,4,2,1,100,0,1
112105,-83.3333333333333,4,2,1,100,0,0

[HitObjects]
326,315,1439,6,0,L|461:315,2,127.500004863739,4|0|4,0:0|0:0|0:0,0:0:0:0:
223,275,2439,1,0,0:0:0:0:
135,231,2772,2,0,P|117:283|138:350,1,127.500004863739,4|0,0:0|0:0,0:0:0:0:
223,275,3439,1,4,0:0:0:0:
223,275,4105,6,0,B|245:243|245:243|243:152,1,127.500004863739,4|0,0:0|0:0,0:0:0:0:
194,62,4772,1,4,0:0:0:0:
297,46,5105,1,0,0:0:0:0:
404,86,5439,6,0,B|391:135|391:135|407:218,1,127.500004863739,4|0,0:0|0:0,0:0:0:0:
415,250,6105,1,4,0:0:0:0:
314,243,6272,1,4,0:0:0:0:
274,319,6439,1,4,0:0:0:0:
274,319,6772,6,0,L|145:317,1,127.500004863739,4|0,0:0|0:0,0:0:0:0:
21,244,7439,2,0,L|151:236,1,127.500004863739,4|0,0:0|0:0,0:0:0:0:
141,75,8105,5,4,0:0:0:0:
93,157,8439,1,0,0:0:0:0:
43,79,8772,1,4,0:0:0:0:
43,79,9439,6,0,B|79:66|79:66|179:69,1,127.500004863739,4|0,0:0|0:0,0:0:0:0:
306,131,10105,2,0,P|362:138|452:128,1,127.500004863739,4|0,0:0|0:0,0:0:0:0:
233,55,10772,6,0,B|213:95|213:95|221:189,1,127.500004863739,4|0,0:0|0:0,0:0:0:0:
249,288,11439,1,4,0:0:0:0:
167,242,11605,1,4,0:0:0:0:
82,271,11772,1,4,0:0:0:0:
82,271,12105,6,0,B|135:282|135:282|218:258,1,127.500004863739,4|0,0:0|0:0,0:0:0:0:
416,239,12772,2,0,P|348:231|312:180,1,127.500004863739,4|0,0:0|0:0,0:0:0:0:
398,45,13272,1,0,0:0:0:0:
398,45,13439,2,0,B|405:93|405:93|381:182,1,127.500004863739,4|0,0:0|0:0,0:0:0:0:
258,97,14105,1,4,0:0:0:0:
258,97,14772,6,0,B|185:80|183:123|110:88,1,127.500004863739,4|0,0:0|0:0,0:0:0:0:
33,208,15439,2,0,B|106:191|108:234|181:199,1,127.500004863739,4|0,0:0|0:0,0:0:0:0:
306,229,16105,2,0,P|294:275|308:353,1,127.500004863739,4|0,0:0|0:0,0:0:0:0:
453,151,16772,1,4,0:0:0:0:
451,237,16938,1,4,0:0:0:0:
443,322,17105,1,4,0:0:0:0:
383,113,17438,6,0,P|438:74|497:83,1,127.500004863739,4|0,0:0|0:0,0:0:0:0:
364,203,18105,2,0,L|234:197,1,127.500004863739,4|0,0:0|0:0,0:0:0:0:
151,112,18605,1,0,0:0:0:0:
71,174,18772,6,0,B|59:218|59:218|73:300,1,127.500004863739,4|0,0:0|0:0,0:0:0:0:
175,343,19438,2,0,B|248:326|250:369|323:334,1,127.500004863739,4|0,0:0|0:0,0:0:0:0:
375,293,19938,1,0,0:0:0:0:
450,346,20105,6,0,B|468:308|468:308|466:215,1,127.500004863739,4|0,0:0|0:0,0:0:0:0:
336,88,20772,2,0,L|355:220,1,127.500004863739,4|0,0:0|0:0,0:0:0:0:
433,95,21272,1,0,0:0:0:0:
258,45,21438,2,0,B|185:28|183:71|110:36,1,127.500004863739,4|0,0:0|0:0,0:0:0:0:
103,156,22105,1,4,0:0:0:0:
56,241,22272,1,4,0:0:0:0:
103,322,22438,1,4,0:0:0:0:
259,335,22772,6,0,L|392:340,1,127.500004863739,4|0,0:0|0:0,0:0:0:0:
432,193,23272,1,0,0:0:0:0:
208,296,23438,6,0,L|341:301,1,127.500004863739,4|0,0:0|0:0,0:0:0:0:
208,156,23938,1,0,0:0:0:0:
117,350,24105,6,0,B|90:325|90:325|90:227,2,127.500004863739,4|0|4,0:0|0:0|0:0,0:0:0:0:
208,156,25272,1,0,0:0:0:0:
208,156,25438,6,0,P|156:128|77:157,1,127.500004863739,4|0,0:0|0:0,0:0:0:0:
299,200,26105,2,0,P|310:147|268:63,1,127.500004863739,4|0,0:0|0:0,0:0:0:0:
312,286,26772,2,0,L|461:287,1,127.500004863739,4|0,0:0|0:0,0:0:0:0:
242,175,27438,1,4,0:0:0:0:
228,266,27605,1,4,0:0:0:0:
216,362,27772,1,4,0:0:0:0:
309,324,27938,1,4,0:0:0:0:
126,180,28105,6,0,L|117:319,1,127.500004863739,4|0,0:0|0:0,0:0:0:0:
337,104,28772,2,0,L|352:238,1,127.500004863739,4|0,0:0|0:0,0:0:0:0:
79,73,29438,2,0,B|116:95|116:95|201:75,2,127.500004863739,4|0|4,0:0|0:0|0:0,0:0:0:0:
192,175,30438,1,4,0:0:0:0:
328,160,30772,6,0,P|348:203|286:251,1,127.500004863739,4|0,0:0|0:0,0:0:0:0:
166,278,31438,2,0,P|131:307|196:341,1,127.500004863739,4|0,0:0|0:0,0:0:0:0:
388,347,32105,2,0,L|401:221,1,127.500004863739,4|0,0:0|0:0,0:0:0:0:
214,195,32605,1,0,0:0:0:0:
291,263,32772,1,4,0:0:0:0:
256,192,32855,12,0,34438,0:0:0:0:
301,131,34605,5,4,0:0:0:0:
335,121,34688,1,4,0:0:0:0:
365,124,34772,2,0,P|381:184|377:231,1,101.999996887207,2|0,0:0|0:0,0:0:0:0:
337,336,35105,2,0,P|276:318|191:340,1,152.999995330811,2|0,0:0|0:0,0:0:0:0:
115,357,35438,6,0,L|11:345,1,101.999996887207,8|0,0:0|0:0,0:0:0:0:
80,130,35772,1,2,0:0:0:0:
170,269,35938,1,4,0:0:0:0:
170,269,36022,1,4,0:0:0:0:
170,269,36105,6,0,B|209:248|209:248|225:179,1,101.999996887207,0|8,0:0|0:0,0:0:0:0:
80,130,36438,2,0,B|129:145|129:145|174:122,1,101.999996887207,2|0,0:0|0:0,0:0:0:0:
261,58,36772,2,0,B|316:49|316:49|356:87,1,101.999996887207,8|0,0:0|0:0,0:0:0:0:
326,295,37022,1,4,0:0:0:0:
372,329,37105,1,4,0:0:0:0:
400,276,37188,1,4,0:0:0:0:
382,218,37272,1,4,0:0:0:0:
325,200,37355,1,4,0:0:0:0:
264,216,37438,6,0,P|222:255|225:313,1,101.999996887207,2|0,0:0|0:0,0:0:0:0:
111,353,37772,2,0,B|77:318|77:318|81:199,1,152.999995330811,2|0,0:0|0:0,0:0:0:0:
155,170,38105,2,0,P|170:124|165:61,1,101.999996887207,8|0,0:0|0:0,0:0:0:0:
64,55,38438,1,2,0:0:0:0:
263,136,38605,1,0,0:0:0:0:
263,136,38688,1,0,0:0:0:0:
263,136,38772,6,0,L|374:135,1,101.999996887207,0|8,0:0|0:0,0:0:0:0:
479,235,39105,2,0,B|410:230|410:230|305:239,1,152.999995330811,2|0,0:0|0:0,0:0:0:0:
280,320,39438,2,0,L|390:329,1,101.999996887207,8|0,0:0|0:0,0:0:0:0:
239,158,39772,1,2,0:0:0:0:
162,342,39938,1,8,0:0:0:0:
162,342,40022,1,8,0:0:0:0:
162,342,40105,6,0,B|136:298|136:298|155:247,1,101.999996887207,2|0,0:0|0:0,0:0:0:0:
239,158,40438,1,0,0:0:0:0:
86,119,40605,1,0,0:0:0:0:
327,210,40772,1,8,0:0:0:0:
259,21,40938,1,0,0:0:0:0:
236,304,41105,2,0,P|287:293|356:296,1,101.999996887207
417,341,41355,1,8,0:0:0:0:
452,339,41438,6,0,P|475:280|470:242,1,101.999996887207,2|0,0:0|0:0,0:0:0:0:
387,129,41772,2,0,B|374:16|374:16|410:54,1,152.999995330811
304,88,42105,2,0,L|192:82,1,101.999996887207,8|0,0:0|0:0,0:0:0:0:
153,102,42355,1,0,0:0:0:0:
153,102,42438,1,0,0:0:0:0:
80,216,42605,1,8,0:0:0:0:
308,352,42772,6,0,L|321:241,1,101.999996887207,2|0,0:0|0:0,0:0:0:0:
153,102,43105,1,0,0:0:0:0:
98,317,43272,1,0,0:0:0:0:
345,205,43438,1,8,0:0:0:0:
80,215,43605,1,0,0:0:0:0:
80,215,43688,1,0,0:0:0:0:
80,215,43772,1,0,0:0:0:0:
402,291,43938,1,8,0:0:0:0:
263,153,44105,6,0,P|252:207|267:258,1,101.999996887207,0|8,0:0|0:0,0:0:0:0:
439,131,44438,2,0,P|448:70|439:22,1,101.999996887207
197,68,44772,1,8,0:0:0:0:
365,76,44938,1,2,0:0:0:0:
365,76,45022,1,8,0:0:0:0:
365,76,45105,1,2,0:0:0:0:
92,94,45272,1,8,0:0:0:0:
197,68,45438,6,8,P|197:131|183:165,1,85,10|0,0:0|0:0,0:0:0:0:
52,288,45772,2,0,P|125:277|150:278,1,85,2|0,0:0|0:0,0:0:0:0:
359,351,46105,2,0,P|304:354|268:344,1,85,8|0,0:0|0:0,0:0:0:0:
466,220,46438,2,0,P|478:269|473:315,1,85,2|8,0:0|0:0,0:0:0:0:
220,198,46772,5,2,0:0:0:0:
377,245,46938,1,8,0:0:0:0:
247,88,47105,1,2,0:0:0:0:
185,287,47272,1,0,0:0:0:0:
399,108,47438,1,8,0:0:0:0:
219,197,47605,1,0,0:0:0:0:
219,197,47688,1,0,0:0:0:0:
219,197,47772,1,0,0:0:0:0:
434,236,47938,1,8,0:0:0:0:
129,118,48105,6,0,P|111:167|116:221,1,85,2|0,0:0|0:0,0:0:0:0:
247,351,48438,2,0,P|246:297|228:255,1,85,2|0,0:0|0:0,0:0:0:0:
37,280,48772,2,0,P|78:299|133:299,1,85,8|0,0:0|0:0,0:0:0:0:
312,167,49105,2,0,P|271:148|216:148,1,85,2|8,0:0|0:0,0:0:0:0:
396,333,49438,5,2,0:0:0:0:
457,179,49605,1,8,0:0:0:0:
375,364,49772,1,2,0:0:0:0:
289,137,49938,1,0,0:0:0:0:
439,268,50105,1,8,0:0:0:0:
388,57,50272,1,2,0:0:0:0:
388,57,50355,1,2,0:0:0:0:
388,57,50438,1,2,0:0:0:0:
287,267,50605,1,8,0:0:0:0:
141,71,50772,6,0,P|197:88|237:81,1,85,2|0,0:0|0:0,0:0:0:0:
409,188,51105,2,0,P|350:186|300:157,1,85,2|0,0:0|0:0,0:0:0:0:
179,320,51438,2,0,B|212:283|212:283|215:152,1,170,8|0,0:0|0:0,0:0:0:0:
80,206,51938,1,8,0:0:0:0:
304,311,52105,6,0,L|404:313,1,85,2|0,0:0|0:0,0:0:0:0:
489,205,52438,2,0,L|401:201,1,85,2|0,0:0|0:0,0:0:0:0:
232,73,52772,1,8,0:0:0:0:
257,202,52938,1,2,0:0:0:0:
257,202,53022,1,2,0:0:0:0:
257,202,53105,1,2,0:0:0:0:
357,80,53272,1,8,0:0:0:0:
131,109,53438,6,0,P|88:88|54:48,1,85,2|0,0:0|0:0,0:0:0:0:
186,237,53772,2,0,P|208:299|213:351,1,85,2|0,0:0|0:0,0:0:0:0:
70,304,54105,1,8,0:0:0:0:
266,129,54272,1,0,0:0:0:0:
374,304,54438,1,2,0:0:0:0:
426,180,54605,1,8,0:0:0:0:
283,272,54772,6,0,P|281:330|295:378,1,85,2|8,0:0|0:0,0:0:0:0:
426,180,55105,2,0,P|441:124|432:75,1,85,2|0,0:0|0:0,0:0:0:0:
232,54,55438,1,8,0:0:0:0:
351,122,55605,1,2,0:0:0:0:
351,122,55688,1,2,0:0:0:0:
351,122,55772,1,2,0:0:0:0:
125,176,55938,1,8,0:0:0:0:
435,187,56105,6,0,B|454:236|454:236|434:358,1,170
171,271,56605,1,0,0:0:0:0:
351,296,56772,2,0,P|307:326|265:332,1,85,8|0,0:0|0:0,0:0:0:0:
36,246,57105,2,0,P|105:270|130:271,1,85,0|8,0:0|0:0,0:0:0:0:
254,100,57438,6,0,L|241:224,1,85,0|8,0:0|0:0,0:0:0:0:
81,111,57772,2,0,L|65:28,1,85
292,100,58105,1,8,0:0:0:0:
127,229,58272,1,0,0:0:0:0:
127,229,58355,1,0,0:0:0:0:
127,229,58438,1,0,0:0:0:0:
339,284,58605,1,8,0:0:0:0:
81,322,58772,6,0,P|127:326|190:313,1,85
422,296,59105,2,0,P|347:286|328:279,1,85
494,150,59438,2,0,P|503:195|498:241,1,85,8|0,0:0|0:0,0:0:0:0:
257,117,59772,1,0,0:0:0:0:
418,200,59938,1,8,0:0:0:0:
320,37,60105,5,0,0:0:0:0:
204,238,60272,1,8,0:0:0:0:
158,53,60438,1,0,0:0:0:0:
349,151,60605,1,0,0:0:0:0:
97,218,60772,1,8,0:0:0:0:
356,284,60938,1,2,0:0:0:0:
356,284,61022,1,2,0:0:0:0:
356,284,61105,1,2,0:0:0:0:
63,340,61272,1,8,0:0:0:0:
405,216,61438,6,0,P|432:260|431:316,1,85
126,221,61772,2,0,P|154:182|193:165,1,85
276,364,62105,2,0,L|281:189,1,170,8|0,0:0|0:0,0:0:0:0:
188,71,62605,1,8,0:0:0:0:
350,68,62772,6,0,L|446:71,1,85,0|8,0:0|0:0,0:0:0:0:
145,153,63105,2,0,L|52:150,1,85
264,334,63438,1,8,0:0:0:0:
366,149,63605,1,2,0:0:0:0:
366,149,63688,1,2,0:0:0:0:
366,149,63772,1,2,0:0:0:0:
172,237,63938,1,8,0:0:0:0:
406,231,64105,6,0,P|450:191|453:153,1,85
172,237,64438,2,0,P|163:277|168:343,1,85
325,115,64772,1,8,0:0:0:0:
119,76,64938,1,0,0:0:0:0:
345,208,65105,1,0,0:0:0:0:
252,15,65272,1,8,0:0:0:0:
314,298,65438,6,0,P|364:304|413:293,1,85,0|8,0:0|0:0,0:0:0:0:
501,135,65772,2,0,P|494:178|467:217,1,85
177,142,66105,1,8,0:0:0:0:
345,208,66272,1,2,0:0:0:0:
345,208,66355,1,8,0:0:0:0:
345,208,66438,1,2,0:0:0:0:
247,55,66605,1,8,0:0:0:0:
113,279,66772,6,0,B|87:241|87:241|92:108,1,170,2|0,0:0|0:0,0:0:0:0:
258,195,67272,1,0,0:0:0:0:
141,355,67438,2,0,P|114:308|115:267,1,85,8|0,0:0|0:0,0:0:0:0:
371,355,67772,2,0,P|398:308|397:267,1,85,0|8,0:0|0:0,0:0:0:0:
225,106,68105,5,2,0:0:0:0:
257,350,68272,1,8,0:0:0:0:
257,350,68355,1,0,0:0:0:0:
257,350,68438,1,0,0:0:0:0:
343,149,68605,1,0,0:0:0:0:
111,192,68772,1,8,0:0:0:0:
408,281,68938,1,0,0:0:0:0:
408,281,69022,1,0,0:0:0:0:
408,281,69105,1,8,0:0:0:0:
205,80,69272,1,8,0:0:0:0:
102,304,69438,6,0,P|74:260|70:214,1,85,2|0,0:0|0:0,0:0:0:0:
313,80,69772,2,0,P|294:144|269:165,1,85,2|0,0:0|0:0,0:0:0:0:
41,111,70105,1,8,0:0:0:0:
165,49,70272,1,0,0:0:0:0:
350,217,70438,1,0,0:0:0:0:
188,135,70605,1,8,0:0:0:0:
188,135,70688,1,0,0:0:0:0:
188,135,70772,6,0,P|177:197|184:250,1,85,0|8,0:0|0:0,0:0:0:0:
414,369,71105,2,0,P|428:313|423:266,1,85
310,74,71438,1,8,0:0:0:0:
228,350,71605,1,0,0:0:0:0:
228,350,71688,1,0,0:0:0:0:
228,350,71772,1,0,0:0:0:0:
120,151,71938,1,8,0:0:0:0:
289,195,72105,5,0,0:0:0:0:
112,296,72272,1,0,0:0:0:0:
373,191,72438,1,0,0:0:0:0:
120,151,72605,1,0,0:0:0:0:
417,208,72772,1,8,0:0:0:0:
73,224,72938,1,0,0:0:0:0:
449,240,73105,1,0,0:0:0:0:
206,61,73272,1,0,0:0:0:0:
206,61,73355,1,0,0:0:0:0:
206,61,73438,6,0,P|196:111|206:158,1,85,0|8,0:0|0:0,0:0:0:0:
438,273,73772,2,0,P|378:256|326:265,1,85
79,325,74105,1,8,0:0:0:0:
262,192,74272,1,0,0:0:0:0:
262,192,74355,1,0,0:0:0:0:
262,192,74438,1,0,0:0:0:0:
368,333,74605,1,8,0:0:0:0:
468,126,74772,6,0,L|475:217,1,85
322,112,75105,2,0,L|331:20,1,85
137,163,75438,1,8,0:0:0:0:
272,257,75605,1,0,0:0:0:0:
272,257,75688,1,0,0:0:0:0:
272,257,75772,1,0,0:0:0:0:
72,293,75938,1,8,0:0:0:0:
375,295,76105,5,2,0:0:0:0:
219,136,76272,1,8,0:0:0:0:
399,316,76438,1,0,0:0:0:0:
420,336,76605,1,0,0:0:0:0:
357,82,76772,1,8,0:0:0:0:
226,337,76938,1,2,0:0:0:0:
226,337,77022,1,2,0:0:0:0:
226,337,77105,1,2,0:0:0:0:
446,189,77272,1,8,0:0:0:0:
169,150,77438,6,0,L|82:147,1,85,2|2,0:0|0:0,0:0:0:0:
338,328,77772,2,0,L|432:316,1,85
334,131,78105,2,0,L|349:30,1,85,8|0,0:0|0:0,0:0:0:0:
133,277,78438,2,8,L|145:372,1,85,0|10,0:0|0:0,0:0:0:0:
207,236,78688,1,2,0:0:0:0:
184,202,78772,6,8,P|118:194|75:220,1,85,2|8,0:0|0:0,0:0:0:0:
259,302,79105,1,0,0:0:0:0:
343,153,79272,1,0,0:0:0:0:
207,236,79438,1,8,0:0:0:0:
414,225,79605,1,0,0:0:0:0:
414,225,79688,1,0,0:0:0:0:
414,225,79772,1,0,0:0:0:0:
215,117,79938,1,8,0:0:0:0:
390,309,80105,6,0,P|442:304|486:278,1,85,2|0,0:0|0:0,0:0:0:0:
215,117,80438,2,0,P|190:158|182:206,1,85,2|0,0:0|0:0,0:0:0:0:
466,111,80772,2,0,P|426:71|377:58,1,85,8|0,0:0|0:0,0:0:0:0:
257,306,81105,1,2,0:0:0:0:
374,155,81272,1,8,0:0:0:0:
374,155,81355,1,8,0:0:0:0:
374,155,81438,6,0,P|397:187|405:238,1,85,2|0,0:0|0:0,0:0:0:0:
93,192,81772,1,0,0:0:0:0:
285,220,81938,1,0,0:0:0:0:
85,112,82105,2,0,P|77:162|103:201,1,85,8|0,0:0|0:0,0:0:0:0:
160,231,82355,1,0,0:0:0:0:
179,271,82438,1,0,0:0:0:0:
83,329,82605,1,8,0:0:0:0:
297,340,82772,6,0,L|385:342,1,85
488,225,83105,2,0,L|381:234,1,85
217,139,83438,2,0,B|271:154|271:154|409:124,1,170,8|0,0:0|0:0,0:0:0:0:
138,45,83938,1,8,0:0:0:0:
138,45,84022,1,8,0:0:0:0:
138,45,84105,2,0,B|117:93|117:93|147:144,1,85,2|8,0:0|0:0,0:0:0:0:
132,341,84438,2,0,B|109:302|109:302|134:255,1,85
368,214,84772,1,8,0:0:0:0:
146,188,84938,1,0,0:0:0:0:
405,215,85105,1,0,0:0:0:0:
241,353,85272,1,8,0:0:0:0:
394,137,85438,6,0,L|381:273,1,127.5,4|0,0:0|0:0,0:0:0:0:
304,77,86105,2,0,L|335:186,1,102,4|0,0:0|0:0,0:0:0:0:
215,71,86772,2,0,B|188:140|243:135|209:199,1,127.499996109009,4|0,0:0|0:0,0:0:0:0:
173,219,87688,1,2,0:0:0:0:
173,219,87772,1,8,0:0:0:0:
340,314,88105,6,0,P|385:297|478:300,1,127.500004863739,8|0,0:0|0:0,0:0:0:0:
184,330,88438,2,0,P|137:335|50:310,1,127.500004863739,8|0,0:0|0:0,0:0:0:0:
262,82,88772,1,8,0:0:0:0:
343,352,88938,1,2,0:0:0:0:
414,119,89105,1,8,0:0:0:0:
96,196,89272,1,2,0:0:0:0:
392,257,89438,6,0,B|458:250|458:250|506:209,1,127.500004863739,8|0,0:0|0:0,0:0:0:0:
129,129,89772,2,0,B|81:173|81:173|71:242,1,127.500004863739,8|0,0:0|0:0,0:0:0:0:
266,357,90105,1,8,0:0:0:0:
361,98,90272,1,2,0:0:0:0:
261,328,90438,1,8,0:0:0:0:
119,70,90605,1,2,0:0:0:0:
363,231,90772,6,0,L|501:232,1,127.500004863739,8|0,0:0|0:0,0:0:0:0:
179,288,91105,2,0,L|39:286,1,127.500004863739,8|0,0:0|0:0,0:0:0:0:
225,95,91438,1,8,0:0:0:0:
334,338,91605,1,2,0:0:0:0:
321,38,91772,1,8,0:0:0:0:
237,290,91938,1,2,0:0:0:0:
154,94,92105,5,8,0:0:0:0:
395,174,92272,1,2,0:0:0:0:
93,192,92438,1,8,0:0:0:0:
435,164,92605,1,2,0:0:0:0:
151,326,92772,1,8,0:0:0:0:
341,64,92938,1,2,0:0:0:0:
383,354,93105,1,8,0:0:0:0:
154,94,93272,1,2,0:0:0:0:
425,222,93438,6,0,P|368:243|296:231,1,127.500004863739,8|0,0:0|0:0,0:0:0:0:
65,109,93772,2,0,P|63:172|114:244,1,127.500004863739,8|0,0:0|0:0,0:0:0:0:
234,369,94105,2,0,P|250:294|229:235,1,127.500004863739,8|0,0:0|0:0,0:0:0:0:
251,35,94438,2,0,P|282:108|332:143,1,127.500004863739,8|0,0:0|0:0,0:0:0:0:
499,254,94772,2,0,P|432:263|384:305,1,127.500004863739,8|0,0:0|0:0,0:0:0:0:
82,213,95105,2,0,L|242:213,1,127.500004863739,8|0,0:0|0:0,0:0:0:0:
397,106,95438,1,8,0:0:0:0:
314,343,95605,1,2,0:0:0:0:
239,59,95772,1,8,0:0:0:0:
390,277,95938,1,2,0:0:0:0:
368,36,96105,6,0,L|353:175,1,127.500004863739,8|0,0:0|0:0,0:0:0:0:
168,351,96438,2,0,L|146:208,1,127.500004863739,8|0,0:0|0:0,0:0:0:0:
274,38,96772,1,8,0:0:0:0:
221,269,96938,1,2,0:0:0:0:
204,93,97105,1,8,0:0:0:0:
299,349,97272,1,2,0:0:0:0:
459,186,97438,6,8,P|393:222|337:226,1,127.500004863739,8|0,0:0|0:0,0:0:0:0:
45,86,97772,2,0,P|103:119|185:121,1,127.500004863739,8|0,0:0|0:0,0:0:0:0:
379,121,98105,1,8,0:0:0:0:
100,244,98272,1,2,0:0:0:0:
100,244,98355,1,2,0:0:0:0:
100,244,98438,1,10,0:0:0:0:
385,298,98605,1,2,0:0:0:0:
175,75,98772,5,8,0:0:0:0:
263,352,98938,1,2,0:0:0:0:
363,89,99105,1,8,0:0:0:0:
100,244,99272,1,2,0:0:0:0:
430,250,99438,2,0,P|361:229|237:266,1,191.250007295609,8|0,0:0|0:0,0:0:0:0:
161,318,99772,2,0,B|52:317|52:317|95:297,1,127.500004863739,8|0,0:0|0:0,0:0:0:0:
272,118,100105,5,8,0:0:0:0:
340,344,100272,1,2,0:0:0:0:
426,156,100438,2,0,P|439:83|426:25,1,127.500004863739,8|0,0:0|0:0,0:0:0:0:
124,187,100772,1,8,0:0:0:0:
359,61,100938,1,2,0:0:0:0:
100,95,101105,1,8,0:0:0:0:
329,189,101272,1,2,0:0:0:0:
41,194,101438,6,0,P|128:189|178:168,1,127.500004863739,8|0,0:0|0:0,0:0:0:0:
390,280,101772,1,8,0:0:0:0:
125,286,101938,1,2,0:0:0:0:
314,116,102105,1,8,0:0:0:0:
326,351,102272,1,2,0:0:0:0:
439,158,102438,2,0,P|454:98|431:23,1,127.500004863739,8|0,0:0|0:0,0:0:0:0:
185,110,102772,6,0,P|292:117|336:105,1,127.500004863739,8|0,0:0|0:0,0:0:0:0:
78,45,103105,2,0,P|63:108|77:173,1,127.500004863739,8|0,0:0|0:0,0:0:0:0:
239,322,103438,2,0,P|237:258|200:198,1,127.500004863739,8|0,0:0|0:0,0:0:0:0:
61,297,103772,1,8,0:0:0:0:
390,262,103938,1,2,0:0:0:0:
390,262,104022,1,2,0:0:0:0:
390,262,104105,6,0,B|375:368|375:368|353:322,1,127.500004863739,10|0,0:0|0:0,0:0:0:0:
485,169,104438,2,0,B|492:65|492:65|462:94,1,127.500004863739,8|0,0:0|0:0,0:0:0:0:
175,161,104772,1,8,0:0:0:0:
380,182,104938,1,2,0:0:0:0:
65,153,105105,1,8,0:0:0:0:
282,173,105272,1,2,0:0:0:0:
146,347,105438,6,0,B|135:282|150:242|150:242|144:197,1,127.500004863739,8|0,0:0|0:0,0:0:0:0:
207,17,105772,2,0,P|207:91|231:165,1,127.500004863739,8|0,0:0|0:0,0:0:0:0:
416,343,106105,1,8,0:0:0:0:
443,89,106272,1,2,0:0:0:0:
402,316,106438,1,8,0:0:0:0:
282,173,106605,1,2,0:0:0:0:
477,238,106772,6,0,P|409:225|337:236,1,127.500004863739,8|0,0:0|0:0,0:0:0:0:
88,307,107105,2,0,P|149:293|245:302,1,127.500004863739,8|0,0:0|0:0,0:0:0:0:
402,316,107438,1,8,0:0:0:0:
148,148,107605,1,2,0:0:0:0:
416,343,107772,1,8,0:0:0:0:
337,74,107938,1,2,0:0:0:0:
248,336,108105,6,0,P|217:270|228:204,1,127.500004863739,8|0,0:0|0:0,0:0:0:0:
432,38,108438,2,0,P|415:101|369:151,1,127.500004863739,8|0,0:0|0:0,0:0:0:0:
130,69,108772,1,8,0:0:0:0:
353,204,108938,1,2,0:0:0:0:
62,170,109105,1,8,0:0:0:0:
285,68,109272,1,2,0:0:0:0:
185,351,109438,5,8,0:0:0:0:
228,46,109605,1,2,0:0:0:0:
320,351,109772,1,8,0:0:0:0:
142,45,109938,1,2,0:0:0:0:
121,367,110105,1,8,0:0:0:0:
321,32,110272,1,2,0:0:0:0:
62,234,110438,1,8,0:0:0:0:
402,288,110605,1,2,0:0:0:0:
218,118,110772,1,8,0:0:0:0:
205,131,111438,6,0,P|248:153|341:66,1,191.250007295609
261,74,112105,6,0,L|258:199,1,101.999996887207
354,350,112438,2,0,L|361:241,1,101.999996887207
403,97,112772,1,0,0:0:0:0:
461,191,112938,1,4,0:0:0:0:
461,191,113022,1,4,0:0:0:0:
461,191,113105,1,4,0:0:0:0:
478,61,113272,1,0,0:0:0:0:
368,188,113438,6,0,L|249:188,1,101.999996887207
69,131,113688,1,4,0:0:0:0:
63,98,113772,2,0,L|176:93,1,101.999996887207,4|0,0:0|0:0,0:0:0:0:
146,342,114105,1,0,0:0:0:0:
193,170,114272,1,4,0:0:0:0:
193,170,114355,1,4,0:0:0:0:
193,170,114438,1,4,0:0:0:0:
266,282,114605,1,0,0:0:0:0:
370,182,114772,6,0,L|377:303,1,101.999996887207
97,200,115105,2,0,L|81:86,1,101.999996887207
215,186,115438,1,0,0:0:0:0:
94,297,115605,1,4,0:0:0:0:
131,322,115688,1,4,0:0:0:0:
174,337,115772,1,4,0:0:0:0:
218,328,115855,1,4,0:0:0:0:
256,302,115938,1,4,0:0:0:0:
427,211,116105,6,0,L|418:318,1,101.999996887207
296,176,116438,2,0,L|279:68,1,101.999996887207
