osu file format v14

[General]
AudioFilename: audio.mp3
AudioLeadIn: 0
PreviewTime: 62299
Countdown: 0
SampleSet: Soft
StackLeniency: 0.7
Mode: 0
LetterboxInBreaks: 0
WidescreenStoryboard: 0

[Editor]
Bookmarks: 11986,26272,37700,49129,63415,74843,91986,103415,126272,137700,149129,166272,177700,186272,189129,191986,197700,203415,209129,214843,215915,217700,226272,243415,244843,256271,264843,273057
DistanceSpacing: 1
BeatDivisor: 4
GridSize: 32
TimelineZoom: 1.4

[Metadata]
Title:Saigo no Page wa Hirakazu ni
TitleUnicode:最後のページは開かずに
Artist:Kusano Kayoko
ArtistUnicode:草野 華余子
Creator:Lasse
Version:Insane
Source:
Tags:japanese pop
BeatmapID:2405957
BeatmapSetID:1152703

[Difficulty]
HPDrainRate:6
CircleSize:4
OverallDifficulty:8
ApproachRate:8.4
SliderMultiplier:3.2
SliderTickRate:1

[Events]
//Background and Video events
0,0,"a.jpg",0,0
//Break Periods
2,192198,197022
//Storyboard Layer 0 (Background)
//Storyboard Layer 1 (Fail)
//Storyboard Layer 2 (Pass)
//Storyboard Layer 3 (Foreground)
//Storyboard Layer 4 (Overlay)
//Storyboard Sound Samples

[TimingPoints]
570,714.285714285714,4,2,1,30,1,0
570,-200,4,2,1,30,0,0
6284,-133.333333333333,4,2,1,35,0,0
6998,-133.333333333333,4,2,1,28,0,0
7355,-133.333333333333,4,2,1,35,0,0
8427,-133.333333333333,4,2,1,28,0,0
8784,-133.333333333333,4,2,1,35,0,0
9141,-133.333333333333,4,2,1,38,0,0
9319,-133.333333333333,4,2,1,30,0,0
10450,-133.333333333333,4,2,1,40,0,0
10569,-133.333333333333,4,2,1,42,0,0
11165,-133.333333333333,4,2,1,44,0,0
11284,-133.333333333333,4,2,1,46,0,0
11403,-133.333333333333,4,2,1,48,0,0
11522,-133.333333333333,4,2,1,50,0,0
11641,-133.333333333333,4,2,1,52,0,0
11760,-133.333333333333,4,2,1,54,0,0
11879,-133.333333333333,4,2,1,56,0,0
11998,-100,4,2,1,60,0,0
23427,-200,4,2,1,50,0,0
24141,-200,4,2,1,40,0,0
24855,-200,4,2,1,45,0,0
26284,-133.333333333333,4,2,1,44,0,0
37355,-133.333333333333,4,2,1,38,0,0
37712,-133.333333333333,4,2,1,45,0,0
48248,-133.333333333333,4,2,1,50,0,0
48784,-133.333333333333,4,2,1,48,0,0
49141,-111.111111111111,4,2,1,55,0,0
57712,-100,4,2,1,58,0,0
59855,-100,4,2,1,60,0,0
60569,-90.9090909090909,4,2,1,65,0,0
61819,-90.9090909090909,4,2,1,40,0,0
62712,-200,4,2,1,40,0,0
62772,-200,4,2,1,42,0,0
62831,-200,4,2,1,44,0,0
62891,-200,4,2,1,46,0,0
62950,-200,4,2,1,48,0,0
63010,-200,4,2,1,50,0,0
63069,-200,4,2,1,52,0,0
63129,-200,4,2,1,54,0,0
63189,-200,4,2,1,56,0,0
63248,-200,4,2,1,58,0,0
63308,-200,4,2,1,60,0,0
63367,-200,4,2,1,62,0,0
63427,-83.3333333333333,4,2,1,70,0,0
90569,-166.666666666667,4,2,1,60,0,0
90927,-166.666666666667,4,2,1,40,0,0
91641,-166.666666666667,4,2,1,44,0,0
91998,-133.333333333333,4,2,1,42,0,0
99677,-133.333333333333,4,2,1,44,0,0
100569,-133.333333333333,4,2,1,46,0,0
103427,-119.047619047619,4,2,1,48,0,0
114855,-111.111111111111,4,2,1,50,0,0
116462,-133.333333333333,4,2,1,36,0,0
117355,-133.333333333333,4,2,1,35,0,0
117712,-119.047619047619,4,2,1,48,0,0
123427,-119.047619047619,4,2,1,50,0,0
124141,-119.047619047619,4,2,1,52,0,0
124855,-119.047619047619,4,2,1,54,0,0
126284,-111.111111111111,4,2,1,56,0,0
131998,-105.263157894737,4,2,1,56,0,0
134141,-105.263157894737,4,2,1,58,0,0
134498,-105.263157894737,4,2,2,60,0,0
134855,-90.9090909090909,4,2,1,64,0,0
136641,-90.9090909090909,4,2,1,67,0,0
137355,-90.9090909090909,4,2,2,67,0,0
137712,-83.3333333333333,4,2,1,70,0,0
156462,-83.3333333333333,4,2,1,65,0,0
157712,-83.3333333333333,4,2,1,70,0,0
160212,-83.3333333333333,4,2,2,70,0,0
160391,-83.3333333333333,4,2,1,70,0,0
163962,-83.3333333333333,4,2,1,64,0,0
164855,-83.3333333333333,4,2,1,70,0,0
165123,-83.3333333333333,4,2,1,30,0,0
165212,-83.3333333333333,4,2,1,70,0,0
166284,-90.9090909090909,4,2,1,65,0,0
177712,-83.3333333333333,4,2,1,70,0,0
184498,-83.3333333333333,4,2,2,70,0,0
184855,-83.3333333333333,4,2,1,70,0,0
188069,-83.3333333333333,4,2,1,64,0,0
189141,-83.3333333333333,4,2,1,68,0,0
189498,-100,4,2,1,66,0,0
190034,-133.333333333333,4,2,1,64,0,0
190569,-133.333333333333,4,2,1,62,0,0
190659,-133.333333333333,4,2,1,10,0,0
191998,-200,4,2,99,20,0,0
197712,-200,4,2,1,30,0,0
201998,-200,4,2,1,32,0,0
202355,-200,4,2,1,34,0,0
202712,-200,4,2,1,36,0,0
203069,-200,4,2,1,38,0,0
203427,-142.857142857143,4,2,1,42,0,0
208784,-142.857142857143,4,2,1,46,0,0
209141,-111.111111111111,4,2,1,52,0,0
211284,-111.111111111111,4,2,1,55,0,0
211998,-99.9999999999999,4,2,1,60,0,0
213069,-99.9999999999999,4,2,1,62,0,0
213427,-99.9999999999999,4,2,1,64,0,0
213784,-99.9999999999999,4,2,1,65,0,0
215927,-133.333333333333,4,2,1,50,0,0
216105,-133.333333333333,4,2,1,52,0,0
216284,-83.3333333333333,4,2,1,60,0,0
216641,-83.3333333333333,4,2,1,62,0,0
216819,-83.3333333333333,4,2,1,64,0,0
216998,-83.3333333333333,4,2,1,66,0,0
217177,-83.3333333333333,4,2,1,68,0,0
217355,-83.3333333333333,4,2,1,70,0,0
217400,-83.3333333333333,4,2,1,56,0,0
217712,-76.9230769230769,4,2,1,72,0,0
237177,-71.4285714285714,4,2,1,72,0,0
237712,-71.4285714285714,4,2,1,74,0,0
242355,-71.4285714285714,4,2,1,66,0,0
242534,-71.4285714285714,4,2,1,68,0,0
242712,-71.4285714285714,4,2,1,70,0,0
242891,-71.4285714285714,4,2,1,72,0,0
243069,-71.4285714285714,4,2,1,74,0,0
243248,-71.4285714285714,4,2,1,76,0,0
243427,-200,4,2,1,65,0,0
244855,714.285714285714,4,2,1,62,1,0
244855,-90.9090909090909,4,2,1,62,0,0
250212,-111.111111111111,4,2,1,62,0,0
250480,-111.111111111111,4,2,1,34,0,0
250569,-90.9090909090909,4,2,1,62,0,0
256105,-90.9090909090909,4,2,1,54,0,0
256283,-100,4,2,1,60,0,0
264051,-100,4,2,1,56,0,0
264140,-100,4,2,1,60,0,0
264259,-100,4,2,1,58,0,0
264378,-100,4,2,1,56,0,0
264497,-100,4,2,1,54,0,0
264616,-100,4,2,1,52,0,0
264735,-100,4,2,1,50,0,0
264855,-200,4,2,1,48,0,0
265033,-200,4,2,1,18,0,0
267712,-200,4,2,1,16,0,0
270569,-200,4,2,1,14,0,0
271997,-200,4,2,99,12,0,0
273069,-200,4,2,99,14,0,0

[Colours]
Combo1 : 250,180,240
Combo2 : 120,200,230
Combo3 : 255,230,130
Combo4 : 160,230,150

[HitObjects]
118,21,570,6,0,P|17:72|28:194,1,240,2|0,0:0|0:0,0:0:0:0:
164,144,1998,2,0,P|265:195|254:317,1,240,2|0,0:0|0:0,0:0:0:0:
157,384,3427,2,0,L|165:118,1,240,2|0,0:0|0:0,0:0:0:0:
252,198,4855,1,2,0:0:0:0:
331,131,5212,1,0,0:0:0:0:
291,35,5569,1,0,0:0:0:0:
187,43,5927,1,0,0:0:0:0:
267,164,6284,6,0,P|388:153|554:145,1,240.000009155274,14|2,0:1|0:3,0:0:0:0:
488,332,7355,1,8,0:1:0:0:
421,292,7712,2,0,P|301:282|181:275,1,240.000009155274,8|2,0:1|0:3,0:0:0:0:
0,298,8784,5,2,0:0:0:0:
71,270,8962,1,2,0:0:0:0:
87,195,9141,2,0,P|75:119|295:45,1,360.000013732911,14|0,0:1|0:0,0:0:0:0:
381,126,10450,5,8,0:1:0:0:
381,126,10510,1,8,0:1:0:0:
381,126,10569,2,0,L|368:200,1,60.0000022888185,8|8,0:0|0:1,0:0:0:0:
429,357,11165,5,8,0:0:0:0:
393,325,11284,1,8,0:0:0:0:
345,325,11403,1,8,0:0:0:0:
316,363,11522,1,8,0:3:0:0:
270,377,11641,1,8,0:3:0:0:
223,365,11760,1,8,0:3:0:0:
199,323,11879,1,8,0:0:0:0:
200,273,11998,6,0,P|211:193|218:114,1,160,14|0,0:1|0:0,0:0:0:0:
218,114,12534,1,8,0:1:0:0:
137,150,12712,2,0,P|131:187|127:229,1,80,10|0,0:0|0:0,0:0:0:0:
287,276,13069,2,0,P|283:315|276:355,1,80,10|8,0:1|0:1,0:0:0:0:
185,384,13427,5,2,0:1:0:0:
84,329,13605,1,8,0:0:0:0:
190,286,13784,1,10,0:1:0:0:
84,329,13962,1,8,0:1:0:0:
18,217,14141,2,0,P|24:177|26:132,1,80,10|8,0:0|0:1,0:0:0:0:
145,70,14498,2,0,P|139:109|136:149,1,80,2|0,0:0|0:0,0:0:0:0:
256,212,14855,6,0,P|343:197|449:183,1,160,10|0,0:1|0:0,0:0:0:0:
414,187,15391,1,8,0:1:0:0:
363,111,15569,2,0,P|324:118|276:124,1,80,10|0,0:0|0:0,0:0:0:0:
176,224,15927,2,0,P|215:217|263:211,1,80,10|8,0:1|0:1,0:0:0:0:
151,57,16284,5,2,0:0:0:0:
72,111,16462,1,10,0:0:0:0:
72,111,16552,1,2,0:0:0:0:
72,111,16641,2,0,P|64:72|64:18,1,80,2|8,0:0|0:1,0:0:0:0:
239,90,16998,2,0,P|238:50|230:11,1,80,10|0,0:0|0:0,0:0:0:0:
83,192,17355,2,0,P|84:231|92:271,1,80,2|0,0:0|0:0,0:0:0:0:
224,373,17712,6,0,P|318:335|394:363,1,160,14|0,0:1|0:0,0:0:0:0:
439,384,18248,1,8,0:1:0:0:
510,317,18427,2,0,L|501:238,1,80,10|0,0:0|0:0,0:0:0:0:
414,169,18784,2,0,L|423:89,1,80,10|8,0:1|0:1,0:0:0:0:
348,13,19141,5,2,0:0:0:0:
321,116,19319,1,8,0:0:0:0:
249,35,19498,1,10,0:1:0:0:
249,35,19677,1,8,0:1:0:0:
423,90,19855,2,0,L|513:75,1,80,10|0,0:0|0:0,0:0:0:0:
366,190,20212,5,10,0:0:0:0:
468,259,20391,1,2,0:0:0:0:
340,350,20569,2,0,P|265:333|156:325,1,160,14|0,0:1|0:3,0:0:0:0:
0,72,21284,5,10,0:0:0:0:
28,162,21462,1,0,0:0:0:0:
118,134,21641,1,2,0:0:0:0:
90,44,21819,1,8,0:1:0:0:
204,178,21998,2,0,P|277:192|339:141,1,160,10|8,0:0|0:1,0:0:0:0:
155,280,22534,2,0,P|82:266|20:317,1,160,10|8,0:0|0:1,0:0:0:0:
241,382,23069,5,10,0:0:0:0:
258,254,23248,1,2,0:0:0:0:
275,126,23427,2,0,P|285:207|366:217,1,160,14|2,0:1|0:3,0:0:0:0:
512,360,24855,6,0,L|420:353,1,80,8|8,0:0|0:3,0:0:0:0:
160,338,25569,1,8,0:0:0:0:
249,384,25748,1,8,0:0:0:0:
321,351,25927,1,4,0:3:0:0:
321,351,26284,6,0,P|308:293|315:234,1,120.000004577637,14|0,0:1|0:0,0:0:0:0:
488,76,26998,2,0,P|501:134|494:193,1,120.000004577637,2|0,1:2|0:0,0:0:0:0:
459,260,27534,1,8,0:1:0:0:
389,287,27712,2,0,L|232:261,1,120.000004577637,2|0,0:0|0:0,0:0:0:0:
170,373,28248,1,8,0:1:0:0:
112,329,28427,2,0,L|108:250,1,60.0000022888184,2|8,1:0|0:1,0:0:0:0:
197,216,28784,2,0,L|193:137,1,60.0000022888184,2|8,0:0|0:1,0:0:0:0:
132,93,29141,6,0,P|74:109|16:95,1,120.000004577637,10|0,0:1|0:0,0:0:0:0:
240,23,29855,2,0,P|297:6|355:20,1,120.000004577637,2|0,1:0|0:0,0:0:0:0:
411,70,30391,1,8,0:1:0:0:
428,142,30569,2,0,L|409:278,1,120.000004577637,2|0,0:0|0:0,0:0:0:0:
218,325,31105,2,0,L|227:403,2,60.0000022888184,8|0|8,0:1|1:0|0:1,0:0:0:0:
315,239,31641,2,0,L|321:179,1,60.0000022888184,2|8,0:0|0:1,0:0:0:0:
192,102,31998,6,0,L|210:262,1,120.000004577637,10|0,0:1|0:0,0:0:0:0:
421,165,32712,2,0,L|402:4,1,120.000004577637,2|0,1:0|0:0,0:0:0:0:
342,7,33248,1,8,0:1:0:0:
331,81,33427,2,0,L|349:241,1,120.000004577637,2|0,0:0|0:0,0:0:0:0:
401,328,33962,1,8,0:1:0:0:
455,380,34141,2,0,P|488:379|515:367,1,60.0000022888184,2|8,1:0|0:1,0:0:0:0:
448,266,34498,2,0,P|470:241|481:214,1,60.0000022888184,2|8,0:0|0:1,0:0:0:0:
366,133,34855,6,0,P|358:72|336:13,2,120.000004577637,10|0|0,0:1|0:0|1:0,0:0:0:0:
192,254,35927,1,2,0:0:0:0:
112,279,36105,2,0,P|65:272|34:264,2,60.0000022888184,8|2|0,0:1|0:0|0:0,0:0:0:0:
242,322,36641,2,0,P|256:347|264:376,1,60.0000022888184,10|0,0:1|0:0,0:0:0:0:
426,255,36998,2,0,P|446:166|481:139,1,120.000004577637,2|2,1:2|0:3,0:0:0:0:
464,148,37712,6,0,P|444:237|409:264,1,120.000004577637,14|0,0:1|0:0,0:0:0:0:
273,105,38427,2,0,P|276:46|312:0,1,120.000004577637,2|0,1:0|0:0,0:0:0:0:
342,176,38962,1,8,0:1:0:0:
269,205,39141,2,0,L|154:168,1,120.000004577637,2|0,0:0|0:0,0:0:0:0:
0,233,39677,1,8,0:1:0:0:
44,169,39855,2,0,P|54:139|64:94,1,60.0000022888184,2|8,1:2|0:1,0:0:0:0:
154,257,40212,2,0,P|165:288|174:332,1,60.0000022888184,2|8,0:0|2:1,0:0:0:0:
272,151,40569,6,0,P|265:91|274:32,1,120.000004577637,10|0,0:1|0:0,0:0:0:0:
443,159,41284,2,0,P|449:218|440:277,1,120.000004577637,2|0,1:0|0:0,0:0:0:0:
315,358,41819,1,8,0:1:0:0:
391,376,41998,2,0,L|524:361,1,120.000004577637,2|0,0:0|0:0,0:0:0:0:
426,222,42534,1,8,0:1:0:0:
362,271,42712,2,0,L|295:260,1,60.0000022888184,2|8,1:0|0:1,0:0:0:0:
206,294,43069,2,0,L|139:305,1,60.0000022888184,2|8,0:0|0:1,0:0:0:0:
184,132,43427,6,0,P|194:56|220:-3,1,120.000004577637,10|0,0:1|0:0,0:0:0:0:
314,196,44141,2,0,P|304:272|278:331,1,120.000004577637,2|0,1:0|0:0,0:0:0:0:
236,370,44677,1,8,0:1:0:0:
157,370,44855,2,0,L|26:350,1,120.000004577637,2|8,0:0|0:1,0:0:0:0:
0,136,45569,2,0,L|82:148,1,60.0000022888184,0|8,1:0|0:1,0:0:0:0:
87,72,45927,2,0,L|4:59,1,60.0000022888184,2|8,0:1|0:1,0:0:0:0:
136,171,46284,6,0,P|137:227|206:247,1,120.000004577637,10|0,0:1|0:0,0:0:0:0:
343,202,46819,1,0,0:0:0:0:
394,276,46998,2,0,P|393:332|324:352,1,120.000004577637,2|0,1:2|0:0,0:0:0:0:
260,166,47534,1,8,0:1:0:0:
343,202,47712,2,0,P|394:178|396:121,1,120.000004577637,2|8,0:0|0:1,0:0:0:0:
295,3,48248,5,8,0:0:0:0:
291,32,48337,1,8,0:0:0:0:
278,59,48427,1,8,0:0:0:0:
204,120,48605,1,8,0:3:0:0:
121,70,48784,2,0,P|81:41|2:21,1,120.000004577637,4|14,0:3|0:1,0:0:0:0:
171,260,49498,6,0,P|161:294|162:330,1,71.9999978027344,10|0,0:1|0:0,0:0:0:0:
272,380,49855,2,0,P|281:345|280:309,1,71.9999978027344,10|0,0:0|0:0,0:0:0:0:
165,178,50212,2,0,P|140:238|5:240,1,215.999993408203,10|8,0:1|2:0,0:0:0:0:
61,86,50927,2,0,L|225:62,1,143.999995605469,10|8,0:1|0:0,0:0:0:0:
308,137,51462,1,2,0:0:0:0:
367,82,51641,2,0,P|370:31|347:-16,1,71.9999978027344,2|0,0:0|0:0,0:0:0:0:
225,147,51998,6,0,P|213:196|251:305,1,143.999995605469,10|0,0:1|0:0,0:0:0:0:
324,365,52534,1,8,0:1:0:0:
472,316,52712,2,0,L|395:312,1,71.9999978027344,10|0,0:0|0:0,0:0:0:0:
495,226,53069,2,0,P|522:140|441:28,1,215.999993408203,14|8,0:1|0:0,0:0:0:0:
358,0,53784,5,10,0:1:0:0:
348,149,53962,1,10,0:1:0:0:
348,149,54052,1,10,0:1:0:0:
348,149,54141,1,10,0:0:0:0:
245,93,54319,1,2,0:0:0:0:
189,196,54498,1,2,0:0:0:0:
292,252,54677,1,2,0:0:0:0:
269,173,54855,1,14,0:1:0:0:
81,373,55212,6,0,P|45:373|6:362,1,71.9999978027344,10|0,0:1|0:0,0:0:0:0:
150,306,55569,2,0,P|185:305|220:315,1,71.9999978027344,10|0,0:0|0:0,0:0:0:0:
89,224,55927,2,0,P|76:125|120:3,1,215.999993408203,14|8,0:1|0:0,0:0:0:0:
214,139,56641,2,0,P|253:134|313:134,1,71.9999978027344,10|0,0:1|0:0,0:0:0:0:
294,214,56998,2,0,P|254:218|195:219,1,71.9999978027344,10|0,0:0|0:0,0:0:0:0:
355,65,57355,1,2,0:0:0:0:
355,65,57534,1,2,0:0:0:0:
456,142,57712,6,0,P|442:220|463:296,1,160,14|8,0:1|0:1,0:0:0:0:
512,361,58248,1,2,0:0:0:0:
368,383,58427,2,0,L|271:367,1,80,8|0,0:0|0:0,0:0:0:0:
132,283,58784,2,0,L|314:252,1,160,10|8,0:1|0:1,0:0:0:0:
422,231,59319,1,8,0:0:0:0:
397,98,59498,1,10,0:1:0:0:
193,70,59766,5,8,0:0:0:0:
193,70,59855,1,10,0:1:0:0:
131,198,60034,1,8,0:3:0:0:
0,136,60212,1,4,0:3:0:0:
61,7,60391,1,8,0:0:0:0:
205,167,60569,6,0,P|184:213|235:343,1,176.000005371094,14|8,0:1|0:0,0:0:0:0:
491,161,61105,2,0,P|512:115|461:-15,1,176.000005371094,14|8,0:1|0:0,0:0:0:0:
359,220,61641,2,0,L|386:324,1,88.000002685547,10|0,0:0|0:1,0:0:0:0:
442,366,62712,6,0,L|448:380,11,13.3333333333333,0|0|0|0|0|0|0|0|0|0|0|0,0:0|0:0|0:0|0:0|0:0|0:0|0:0|0:0|0:0|0:0|0:0|0:0,0:0:0:0:
442,366,63427,6,0,B|483:285|396:278|438:180,1,191.999994140625,14|0,2:1|0:0,0:0:0:0:
509,232,63962,1,8,2:1:0:0:
366,320,64141,2,0,P|319:321|275:304,1,95.9999970703126,10|0,0:0|0:0,0:0:0:0:
151,151,64498,1,10,0:1:0:0:
228,187,64677,2,0,P|322:161|318:62,1,191.999994140625,8|8,0:1|0:0,0:0:0:0:
224,0,65212,5,2,0:0:0:0:
125,70,65391,1,8,0:1:0:0:
1,24,65569,1,10,0:0:0:0:
125,70,65748,1,8,0:1:0:0:
0,213,65927,1,2,0:2:0:0:
137,302,66105,1,8,0:1:0:0:
61,357,66284,6,0,P|49:259|65:165,1,191.999994140625,10|0,0:1|0:0,0:0:0:0:
242,384,66819,1,8,0:1:0:0:
308,332,66998,2,0,P|323:237|312:142,1,191.999994140625,10|8,0:0|0:1,0:0:0:0:
94,61,67534,2,0,L|-23:79,2,95.9999970703126,8|2|8,0:1|0:0|0:0,0:0:0:0:
228,2,68069,5,10,0:1:0:0:
203,121,68248,1,8,0:1:0:0:
203,121,68337,1,8,0:1:0:0:
203,121,68427,1,10,0:0:0:0:
272,234,68605,1,2,0:1:0:0:
219,360,68784,1,8,0:0:0:0:
233,28,69141,6,0,L|12:11,1,191.999994140625,14|0,0:1|0:0,0:0:0:0:
140,107,69677,1,8,0:1:0:0:
36,209,69855,2,0,P|32:161|39:113,1,95.9999970703126,10|0,0:0|0:0,0:0:0:0:
205,227,70212,2,0,P|211:274|207:322,1,95.9999970703126,10|8,0:1|0:1,0:0:0:0:
124,384,70569,5,2,0:0:0:0:
300,315,70748,1,8,0:0:0:0:
101,280,70927,1,2,0:0:0:0:
300,315,71105,1,8,0:1:0:0:
215,148,71284,2,0,P|211:95|219:42,1,95.9999970703126,10|0,0:0|0:0,0:0:0:0:
451,207,71641,2,0,P|455:260|446:312,1,95.9999970703126,10|0,0:1|0:0,0:0:0:0:
378,371,71998,6,0,L|164:353,1,191.999994140625,14|0,0:1|0:0,0:0:0:0:
0,219,72534,1,8,0:1:0:0:
128,196,72712,2,0,L|232:179,1,95.9999970703126,14|0,0:0|0:0,0:0:0:0:
400,54,73069,1,10,0:1:0:0:
319,0,73248,1,8,0:0:0:0:
245,99,73427,5,10,0:1:0:0:
373,184,73605,1,10,0:0:0:0:
263,289,73784,1,10,0:1:0:0:
135,203,73962,1,8,0:0:0:0:
135,203,74052,1,8,0:0:0:0:
135,203,74141,1,8,0:0:0:0:
373,184,74319,1,14,2:1:0:0:
263,289,74498,1,2,2:0:0:0:
245,99,74677,1,2,2:0:0:0:
416,194,74855,6,0,L|444:389,1,191.999994140625,14|0,0:1|0:0,0:0:0:0:
443,384,75391,1,8,0:1:0:0:
329,300,75569,2,0,L|231:314,1,95.9999970703126,10|0,0:0|0:0,0:0:0:0:
416,194,75927,1,10,0:1:0:0:
402,116,76105,2,0,L|388:18,2,95.9999970703126,8|2|8,0:1|0:0|0:0,0:0:0:0:
243,6,76641,5,10,0:1:0:0:
178,96,76819,1,10,0:1:0:0:
178,96,76909,1,10,0:1:0:0:
178,96,76998,1,8,0:0:0:0:
301,164,77177,1,2,0:1:0:0:
157,274,77355,1,10,0:1:0:0:
296,367,77534,1,2,0:0:0:0:
139,184,77712,6,0,P|109:260|-11:228,1,191.999994140625,14|0,0:1|0:0,0:0:0:0:
85,40,78248,1,8,0:1:0:0:
200,98,78427,2,0,B|313:65|277:128|387:92,1,191.999994140625,14|0,0:0|0:0,0:0:0:0:
450,39,78962,5,8,0:1:0:0:
400,296,79141,1,14,0:1:0:0:
449,215,79319,1,8,0:0:0:0:
507,379,79498,2,0,P|514:325|498:274,1,95.9999970703126,10|8,0:1|0:1,0:0:0:0:
333,138,79855,2,0,P|326:192|342:243,1,95.9999970703126,10|8,0:0|0:1,0:0:0:0:
459,61,80212,1,10,0:0:0:0:
302,0,80391,1,8,0:0:0:0:
229,58,80569,6,0,P|169:101|45:61,2,191.999994140625,14|8|8,0:1|0:1|0:0,0:0:0:0:
343,363,81641,2,0,P|431:334|512:381,1,191.999994140625,14|0,0:1|0:0,0:0:0:0:
364,256,82177,2,0,L|379:162,1,95.9999970703126,8|10,0:0|0:1,0:0:0:0:
239,329,82534,2,0,L|224:234,1,95.9999970703126,8|10,0:1|0:0,0:0:0:0:
58,9,83069,1,2,3:2:0:0:
58,9,83248,1,0,3:0:0:0:
131,60,83427,6,0,L|352:16,1,191.999994140625,14|0,0:1|0:0,0:0:0:0:
174,136,83962,1,8,0:1:0:0:
295,228,84141,2,0,P|293:152|267:117,1,95.9999970703126,10|0,0:0|0:0,0:0:0:0:
95,203,84498,2,0,P|70:297|106:393,1,191.999994140625,14|0,0:1|0:0,0:0:0:0:
225,301,85034,5,10,0:2:0:0:
342,384,85212,1,10,0:1:0:0:
427,330,85391,1,8,0:1:0:0:
512,363,85569,2,0,P|516:306|511:263,1,95.9999970703126,10|0,0:0|0:0,0:0:0:0:
319,192,85927,2,0,P|314:144|315:92,1,95.9999970703126,10|0,0:1|0:0,0:0:0:0:
314,96,86284,6,0,P|397:111|518:80,2,191.999994140625,14|8|8,0:1|0:1|0:0,0:0:0:0:
197,328,87355,2,0,P|114:313|-7:344,1,191.999994140625,10|8,0:1|0:1,0:0:0:0:
10,335,87891,1,8,0:2:0:0:
162,234,88069,2,0,P|172:187|170:139,1,95.9999970703126,8|0,0:1|0:0,0:0:0:0:
45,0,88427,2,0,P|18:97|22:193,1,191.999994140625,10|8,0:0|0:1,0:0:0:0:
80,236,88962,1,2,0:0:0:0:
198,65,89141,6,0,P|292:73|376:30,1,191.999994140625,14|8,0:1|0:1,0:0:0:0:
512,253,89855,1,10,0:0:0:0:
460,177,90034,1,2,0:0:0:0:
421,261,90212,1,10,0:1:0:0:
334,22,90569,6,0,B|279:52|260:142|279:193|279:193|287:131|256:92,1,287.999991210938,14|2,0:1|0:3,0:0:0:0:
263,102,91998,6,0,P|229:148|172:146,1,120.000004577637,14|0,0:1|0:0,0:0:0:0:
120,94,92534,2,0,L|109:20,1,60.0000022888184,2|0,1:0|0:0,0:0:0:0:
0,321,93069,2,0,P|96:253|214:256,1,240.000009155274,10|8,0:1|0:1,0:0:0:0:
286,311,93962,1,2,0:0:0:0:
286,311,94052,1,2,0:0:0:0:
286,311,94141,2,0,L|291:390,1,60.0000022888184,2|0,1:2|0:0,0:0:0:0:
366,378,94498,2,0,L|361:299,1,60.0000022888184,2|8,0:0|0:1,0:0:0:0:
426,240,94855,6,0,P|469:246|497:175,1,120.000004577637,10|0,0:1|0:0,0:0:0:0:
491,107,95391,2,0,P|485:80|487:46,1,60.0000022888184,2|0,1:0|0:0,0:0:0:0:
281,0,95927,2,0,P|271:50|154:63,1,180.000006866455,10|8,0:1|0:1,0:0:0:0:
4,158,96819,1,2,0:0:0:0:
4,158,96909,1,2,0:0:0:0:
4,158,96998,2,0,P|0:114|11:55,2,90.0000034332277,10|8|8,1:1|0:1|0:1,0:0:0:0:
65,216,97712,6,0,P|127:199|190:200,1,120.000004577637,10|0,0:1|0:0,0:0:0:0:
246,244,98248,2,0,P|238:273|235:318,1,60.0000022888184,2|0,1:0|0:0,0:0:0:0:
429,384,98784,2,0,P|447:260|441:137,1,240.000009155274,10|8,0:1|0:1,0:0:0:0:
385,74,99677,1,2,0:0:0:0:
385,74,99766,1,2,0:0:0:0:
385,74,99855,2,0,P|353:81|305:88,1,60.0000022888184,2|0,1:2|0:0,0:0:0:0:
243,24,100212,2,0,P|275:17|323:10,1,60.0000022888184,2|0,0:0|0:0,0:0:0:0:
196,132,100569,5,8,0:0:0:0:
125,1,100748,1,8,0:1:0:0:
120,16,101105,5,8,0:1:0:0:
113,30,101462,5,8,0:1:0:0:
196,132,101641,1,8,0:0:0:0:
137,188,101819,1,14,0:1:0:0:
125,198,102177,5,8,0:1:0:0:
221,308,102355,1,8,0:0:0:0:
162,377,102534,1,8,0:1:0:0:
89,306,102712,1,8,0:3:0:0:
89,306,102757,2,0,L|134:298,1,45.0000017166138,8|0,0:3|0:0,0:0:0:0:
290,356,103069,2,0,L|349:362,1,60.0000022888184,8|0,0:0|0:0,0:0:0:0:
484,384,103427,6,0,P|495:313|490:242,1,134.399995898438,14|0,0:1|0:0,0:0:0:0:
462,168,103962,1,8,0:1:0:0:
376,147,104141,2,0,P|305:132|222:93,1,134.399995898438,10|8,0:0|0:1,0:0:0:0:
47,2,104855,1,2,0:0:0:0:
120,49,105034,2,0,L|203:32,1,67.1999979492188,8|0,0:1|0:0,0:0:0:0:
314,123,105391,2,0,L|248:109,2,67.1999979492188,10|8|8,0:1|0:0|0:1,0:0:0:0:
175,181,105927,2,0,L|109:194,1,67.1999979492188,2|8,0:0|0:1,0:0:0:0:
26,238,106284,6,0,P|15:309|45:373,1,134.399995898438,10|0,0:1|0:0,0:0:0:0:
124,378,106819,1,8,0:1:0:0:
203,340,106998,2,0,P|214:269|184:205,1,134.399995898438,10|8,0:0|0:1,0:0:0:0:
131,148,107534,1,8,0:1:0:0:
161,64,107712,1,2,0:0:0:0:
246,48,107891,2,0,P|243:80|256:124,1,67.1999979492188,8|0,0:1|0:0,0:0:0:0:
356,193,108248,1,10,0:1:0:0:
410,124,108427,2,0,P|417:91|415:58,1,67.1999979492188,8|8,0:0|0:1,0:0:0:0:
269,197,108784,2,0,P|261:229|263:262,1,67.1999979492188,2|8,0:0|0:1,0:0:0:0:
342,347,109141,6,0,L|505:363,1,134.399995898438,10|0,0:1|0:0,0:0:0:0:
442,270,109677,1,8,0:1:0:0:
501,205,109855,2,0,P|518:147|487:62,1,134.399995898438,10|8,0:0|0:1,0:0:0:0:
286,6,110569,2,0,L|294:81,2,67.1999979492188,2|8|0,0:0|0:1|0:0,0:0:0:0:
192,101,111105,1,10,0:1:0:0:
257,157,111284,2,0,P|290:164|324:163,1,67.1999979492188,8|8,0:0|0:1,0:0:0:0:
192,101,111641,2,0,P|159:94|125:95,1,67.1999979492188,2|8,0:0|0:1,0:0:0:0:
31,152,111998,6,0,P|12:233|32:304,1,134.399995898438,10|0,0:1|0:0,0:0:0:0:
63,359,112534,1,10,0:1:0:0:
160,289,112712,1,8,0:0:0:0:
160,289,113069,2,0,L|314:286,1,134.399995898438,10|0,0:1|0:0,0:0:0:0:
372,325,113605,1,10,0:1:0:0:
422,253,113784,1,2,0:0:0:0:
344,214,113962,1,2,0:0:0:0:
451,134,114141,2,0,P|460:102|460:63,1,67.1999979492188,10|0,0:0|0:0,0:0:0:0:
312,0,114498,2,0,P|303:32|303:71,1,67.1999979492188,10|0,0:0|0:0,0:0:0:0:
183,164,114855,6,0,P|189:100|164:0,1,143.999995605469,10|0,0:0|0:0,0:0:0:0:
15,92,115391,2,0,P|9:156|34:256,1,143.999995605469,10|0,0:0|0:0,0:0:0:0:
103,380,115927,1,14,0:0:0:0:
173,273,116462,5,10,0:1:0:0:
173,273,116641,2,0,L|187:203,1,60.0000022888184,2|8,0:1|0:1,0:0:0:0:
265,208,116998,2,0,L|241:325,1,120.000004577637,10|2,0:0|0:3,0:0:0:0:
241,326,117712,6,0,B|314:314|292:372|362:368,1,134.399995898438,14|0,0:1|0:0,0:0:0:0:
448,353,118248,1,8,0:1:0:0:
491,277,118427,2,0,L|475:202,1,67.1999979492188,10|0,0:0|0:0,0:0:0:0:
335,269,118784,1,8,0:1:0:0:
302,188,118962,2,0,L|318:113,1,67.1999979492188,2|0,0:0|0:0,0:0:0:0:
193,236,119319,2,0,L|207:170,1,67.1999979492188,10|0,0:1|0:0,0:0:0:0:
162,87,119677,2,0,L|176:21,1,67.1999979492188,10|8,0:1|0:0,0:0:0:0:
66,93,120034,2,0,P|23:146|30:216,1,134.399995898438,10|8,0:1|0:1,0:0:0:0:
113,296,120569,6,0,L|253:287,1,134.399995898438,10|0,0:1|0:0,0:0:0:0:
306,351,121105,1,10,0:1:0:0:
404,238,121284,2,0,P|383:300|405:363,2,134.399995898438,8|8|0,0:0|0:1|0:0,0:0:0:0:
487,154,122177,5,8,0:1:0:0:
402,155,122355,1,2,0:0:0:0:
487,154,122534,1,8,0:1:0:0:
400,71,122712,1,10,0:0:0:0:
487,154,122891,1,2,0:0:0:0:
404,238,123069,1,10,0:1:0:0:
317,156,123248,1,10,0:0:0:0:
262,234,123427,6,0,P|265:267|262:300,1,67.1999979492188,10|8,0:3|0:1,0:0:0:0:
12,384,123784,2,0,P|8:350|11:317,1,67.1999979492188,14|0,0:0|0:0,0:0:0:0:
81,148,124141,5,10,0:1:0:0:
171,242,124319,1,8,0:0:0:0:
239,128,124498,1,8,0:3:0:0:
149,33,124677,1,8,0:3:0:0:
0,156,124855,5,10,0:0:0:0:
256,320,125212,1,8,0:0:0:0:
512,156,125569,1,8,0:3:0:0:
512,156,125614,2,0,B|497:193|497:193|507:216|507:216|489:267,1,117.599996411133,8|4,0:3|0:3,0:0:0:0:
256,64,126284,1,14,0:1:0:0:
331,99,126641,6,0,P|367:100|416:99,1,71.9999978027344,10|0,0:1|0:0,0:0:0:0:
190,14,126998,2,0,P|154:13|105:14,1,71.9999978027344,10|0,0:0|0:0,0:0:0:0:
203,127,127355,2,0,P|185:186|174:276,1,143.999995605469,10|8,0:1|0:1,0:0:0:0:
76,351,127891,1,8,0:0:0:0:
152,384,128069,2,0,L|320:364,1,143.999995605469,10|8,0:1|0:0,0:0:0:0:
456,316,128605,2,0,P|469:351|465:387,2,71.9999978027344,2|0|0,0:0|0:0|0:0,0:0:0:0:
419,237,129141,6,0,P|407:188|422:72,1,143.999995605469,10|0,0:1|0:0,0:0:0:0:
306,0,129677,2,0,P|303:32|283:70,1,71.9999978027344,10|8,0:1|0:0,0:0:0:0:
306,0,130034,1,2,0:0:0:0:
222,120,130212,2,0,P|154:146|65:115,1,143.999995605469,14|0,0:1|0:0,0:0:0:0:
0,93,130748,5,10,0:0:0:0:
20,210,130927,1,10,0:1:0:0:
94,138,131105,1,8,0:1:0:0:
94,138,131194,1,8,0:1:0:0:
94,138,131284,1,10,0:0:0:0:
155,251,131462,1,10,0:1:0:0:
207,76,131641,1,2,0:0:0:0:
264,188,131819,1,10,0:0:0:0:
181,164,131998,1,14,0:1:0:0:
436,364,132355,6,0,P|473:360|511:353,1,75.9999979705811,10|0,0:1|0:0,0:0:0:0:
364,289,132712,2,0,P|326:282|288:277,1,75.9999979705811,10|0,0:0|0:0,0:0:0:0:
460,226,133069,2,0,P|473:127|443:19,1,151.999995941162,14|0,0:1|0:0,0:0:0:0:
311,4,133605,1,8,0:0:0:0:
272,123,133784,2,0,P|319:122|363:123,1,75.9999979705811,10|0,0:1|0:0,0:0:0:0:
188,36,134141,5,10,0:0:0:0:
188,36,134319,1,10,0:1:0:0:
111,208,134498,1,10,0:3:0:0:
0,55,134677,1,10,0:3:0:0:
210,128,134855,6,0,P|254:120|298:98,1,88.000002685547,14|8,0:0|0:1,0:0:0:0:
363,48,135212,1,10,0:1:0:0:
512,265,135391,2,0,P|468:257|424:235,1,88.000002685547,14|8,0:0|0:1,0:0:0:0:
359,184,135748,1,10,0:1:0:0:
214,376,135927,2,0,P|258:368|302:346,1,88.000002685547,14|8,0:0|0:1,0:0:0:0:
82,250,136284,2,0,P|42:231|-1:223,1,88.000002685547,10|8,0:0|0:1,0:0:0:0:
165,26,136641,5,10,0:0:0:0:
247,149,136819,1,10,0:1:0:0:
313,17,136998,1,10,0:0:0:0:
99,158,137177,1,10,0:1:0:0:
329,273,137355,1,10,0:3:0:0:
313,17,137534,1,10,0:3:0:0:
393,134,137712,6,0,P|482:146|511:60,1,191.999994140625,14|0,0:1|0:0,0:0:0:0:
512,63,138248,1,8,0:1:0:0:
447,199,138427,2,0,P|440:235|451:300,1,95.9999970703126,10|0,0:0|0:0,0:0:0:0:
292,107,138784,2,0,P|300:70|288:6,1,95.9999970703126,10|8,0:1|0:1,0:0:0:0:
131,173,139141,2,0,P|86:187|32:239,1,95.9999970703126,2|8,0:0|0:0,0:0:0:0:
0,299,139498,5,2,0:0:0:0:
99,377,139677,1,8,0:1:0:0:
203,307,139855,1,10,0:0:0:0:
168,186,140034,1,8,0:1:0:0:
272,115,140212,1,2,0:2:0:0:
371,191,140391,1,8,0:1:0:0:
461,162,140569,6,0,P|509:116|471:5,1,191.999994140625,14|0,0:1|0:0,0:0:0:0:
272,115,141105,1,8,0:1:0:0:
284,210,141284,2,0,P|299:274|414:297,1,191.999994140625,10|8,0:0|0:1,0:0:0:0:
241,25,141819,2,0,L|127:3,2,95.9999970703126,8|2|8,0:1|0:0|0:0,0:0:0:0:
331,0,142355,5,10,0:1:0:0:
280,122,142534,1,8,0:1:0:0:
280,122,142623,1,8,0:1:0:0:
280,122,142712,1,10,0:0:0:0:
338,243,142891,1,8,0:1:0:0:
290,365,143069,1,10,0:0:0:0:
1,222,143427,6,0,B|70:211|70:211|103:227|103:227|202:210,1,191.999994140625,14|0,0:1|0:0,0:0:0:0:
49,291,143962,1,8,0:1:0:0:
115,145,144141,2,0,P|115:97|98:52,1,95.9999970703126,10|0,0:0|0:0,0:0:0:0:
49,291,144498,2,0,P|48:338|65:383,1,95.9999970703126,10|8,0:1|0:1,0:0:0:0:
187,212,144855,5,2,0:1:0:0:
272,274,145034,1,8,0:0:0:0:
346,198,145212,1,10,0:1:0:0:
423,269,145391,1,8,0:1:0:0:
505,203,145569,2,0,P|509:150|499:95,1,95.9999970703126,10|0,0:0|0:0,0:0:0:0:
187,212,145927,2,0,P|183:265|193:320,1,95.9999970703126,10|8,0:1|0:1,0:0:0:0:
364,384,146284,6,0,B|319:304|392:286|345:196,1,191.999994140625,14|0,0:1|0:0,0:0:0:0:
307,103,146819,1,8,0:1:0:0:
186,267,146998,2,0,P|242:264|294:254,1,95.9999970703126,14|0,0:0|0:0,0:0:0:0:
126,125,147355,1,10,0:1:0:0:
75,234,147534,1,10,0:0:0:0:
0,79,147712,5,10,0:1:0:0:
126,125,147891,1,10,0:0:0:0:
238,38,148069,1,8,0:1:0:0:
352,174,148248,1,8,0:0:0:0:
352,174,148337,1,8,0:0:0:0:
352,174,148427,1,8,0:0:0:0:
512,53,148605,2,0,B|464:83|464:83|503:254,1,191.999994140625,14|8,0:1|0:1,0:0:0:0:
512,364,149141,6,0,B|402:310|435:404|323:353,1,191.999994140625,14|0,0:1|0:0,0:0:0:0:
243,293,149677,1,8,0:1:0:0:
380,257,149855,2,0,P|349:221|304:208,1,95.9999970703126,10|0,0:0|0:0,0:0:0:0:
140,287,150212,5,10,0:1:0:0:
106,378,150391,1,8,0:1:0:0:
15,344,150569,1,2,0:0:0:0:
48,253,150748,1,8,0:0:0:0:
198,370,150927,6,0,P|246:362|296:333,1,95.9999970703126,10|8,0:1|0:1,0:0:0:0:
377,234,151284,2,0,P|398:158|342:35,1,191.999994140625,10|8,0:0|0:1,0:0:0:0:
256,0,151819,1,2,0:0:0:0:
140,115,151998,6,0,P|109:184|-10:159,1,191.999994140625,14|0,0:1|0:0,0:0:0:0:
145,30,152534,1,8,0:1:0:0:
262,200,152712,2,0,P|186:207|148:92,1,191.999994140625,14|0,0:0|0:0,0:0:0:0:
145,30,153248,1,2,0:0:0:0:
74,245,153427,1,14,0:1:0:0:
321,384,153784,5,10,0:1:0:0:
512,161,154141,5,10,0:0:0:0:
464,233,154319,1,8,0:1:0:0:
440,113,154498,1,10,0:0:0:0:
392,185,154677,1,8,0:1:0:0:
311,52,154855,6,0,P|399:80|480:33,1,191.999994140625,14|8,0:1|0:1,0:0:0:0:
392,185,155391,2,0,P|363:273|410:354,1,191.999994140625,10|8,0:0|0:1,0:0:0:0:
150,169,155927,2,0,P|178:80|131:0,1,191.999994140625,14|0,0:0|0:0,0:0:0:0:
323,155,156462,5,10,0:0:0:0:
392,185,156641,2,0,L|489:174,1,95.9999970703126,10|8,0:1|0:1,0:0:0:0:
293,278,156998,2,0,L|196:267,1,95.9999970703126,10|8,0:0|0:1,0:0:0:0:
386,381,157355,1,10,0:1:0:0:
386,381,157534,1,0,0:1:0:0:
500,267,157712,6,0,B|443:179|537:175|473:77,1,191.999994140625,14|8,0:1|0:0,0:0:0:0:
372,0,158248,1,8,0:0:0:0:
287,145,158427,2,0,P|335:141|394:139,1,95.9999970703126,2|8,0:1|0:1,0:0:0:0:
190,11,158784,2,0,B|130:101|224:105|168:192,1,191.999994140625,14|8,0:0|0:1,0:0:0:0:
97,241,159319,5,10,0:0:0:0:
208,292,159498,2,0,L|324:278,1,95.9999970703126,10|0,0:1|0:0,0:0:0:0:
123,384,159855,1,10,0:0:0:0:
97,241,160034,1,8,0:1:0:0:
27,318,160212,1,10,0:3:0:0:
0,150,160391,1,8,0:0:0:0:
188,44,160569,6,0,P|102:83|12:56,2,191.999994140625,14|8|8,0:1|0:1|0:0,0:0:0:0:
324,340,161641,2,0,P|409:300|499:327,1,191.999994140625,10|8,0:1|0:1,0:0:0:0:
410,206,162177,1,8,0:0:0:0:
471,132,162355,2,0,P|483:86|479:37,1,95.9999970703126,10|0,0:1|0:0,0:0:0:0:
262,0,162712,2,0,P|235:97|247:200,1,191.999994140625,10|8,0:2|0:1,0:0:0:0:
195,252,163248,1,2,0:0:0:0:
321,372,163427,6,0,L|519:359,1,191.999994140625,14|8,0:1|0:1,0:0:0:0:
345,151,163962,1,2,2:2:0:0:
348,168,164052,1,2,2:2:0:0:
343,185,164141,1,2,2:2:0:0:
333,200,164230,1,2,2:2:0:0:
319,211,164319,1,2,2:2:0:0:
302,217,164409,1,2,2:2:0:0:
285,217,164498,1,2,2:2:0:0:
268,212,164587,1,2,2:2:0:0:
253,201,164677,1,2,2:2:0:0:
243,186,164766,1,2,2:2:0:0:
236,170,164855,6,0,P|243:74|220:11,1,143.999995605469,14|0,0:0|0:0,0:0:0:0:
215,14,165212,1,8,0:0:0:0:
91,112,165391,1,8,0:0:0:0:
91,271,165569,1,8,0:0:0:0:
215,369,165748,1,8,0:0:0:0:
369,334,165927,1,8,0:0:0:0:
438,192,166105,1,8,0:0:0:0:
369,49,166284,6,0,P|337:133|257:120,1,176.000005371094,14|0,0:1|0:0,0:0:0:0:
186,68,166819,1,8,0:1:0:0:
103,188,166998,2,0,P|88:147|94:104,1,88.000002685547,10|0,0:0|0:0,0:0:0:0:
183,242,167355,1,10,0:1:0:0:
137,327,167534,2,0,P|55:328|31:249,1,176.000005371094,8|0,0:1|0:0,0:0:0:0:
94,104,168069,2,0,L|179:67,1,88.000002685547,10|8,0:1|0:1,0:0:0:0:
319,94,168427,5,10,0:0:0:0:
285,0,168605,1,8,0:1:0:0:
179,90,168784,1,2,0:3:0:0:
218,199,168962,1,2,0:3:0:0:
326,297,169141,6,0,B|435:271|386:339|510:305,1,176.000005371094,14|0,0:1|0:0,0:0:0:0:
496,308,169677,1,8,0:1:0:0:
410,205,169855,2,0,P|453:168|499:153,1,88.000002685547,10|0,0:0|0:0,0:0:0:0:
319,154,170212,1,10,0:1:0:0:
369,71,170391,1,8,0:1:0:0:
301,0,170569,2,0,P|253:68|170:57,1,176.000005371094,2|8,0:0|0:1,0:0:0:0:
0,284,171284,5,10,0:0:0:0:
25,166,171462,1,10,0:0:0:0:
118,308,171641,1,10,0:1:0:0:
143,191,171819,1,10,0:1:0:0:
230,350,171998,6,0,P|307:370|389:312,1,176.000005371094,14|0,0:1|0:0,0:0:0:0:
384,320,172534,1,8,0:1:0:0:
512,255,172712,2,0,P|463:253|414:227,1,88.000002685547,10|0,0:0|0:0,0:0:0:0:
512,255,173069,1,10,0:1:0:0:
420,142,173248,2,0,P|398:65|301:41,1,176.000005371094,8|8,0:1|0:1,0:0:0:0:
233,173,173784,2,0,B|197:273|265:247|232:343,1,176.000005371094,10|8,0:1|0:0,0:0:0:0:
232,343,174498,5,2,0:0:0:0:
143,383,174677,1,8,0:1:0:0:
55,342,174855,2,0,P|47:298|66:236,1,88.000002685547,10|0,0:1|0:0,0:0:0:0:
233,173,175212,5,2,0:0:0:0:
319,217,175391,1,8,0:1:0:0:
410,185,175569,2,0,P|418:141|399:79,1,88.000002685547,10|0,0:0|0:0,0:0:0:0:
246,6,175927,5,10,0:1:0:0:
192,86,176105,1,8,0:1:0:0:
233,173,176284,2,0,P|241:217|222:279,1,88.000002685547,2|8,0:0|0:1,0:0:0:0:
31,347,176641,2,0,P|23:303|42:241,1,88.000002685547,10|0,0:0|0:0,0:0:0:0:
192,384,176998,1,8,0:0:0:0:
192,384,177043,1,8,0:0:0:0:
305,105,177355,1,8,0:0:0:0:
346,225,177534,1,8,0:0:0:0:
477,184,177712,6,0,P|505:112|445:-4,2,191.999994140625,14|8|8,0:1|0:1|0:0,0:0:0:0:
156,384,178784,2,0,P|114:299|142:210,1,191.999994140625,14|0,0:1|0:0,0:0:0:0:
221,155,179319,1,8,0:0:0:0:
313,181,179498,1,8,0:1:0:0:
388,120,179677,1,8,0:1:0:0:
488,245,179855,6,0,P|492:197|478:152,1,95.9999970703126,10|8,0:0|0:1,0:0:0:0:
256,282,180212,2,0,P|251:329|266:375,1,95.9999970703126,10|8,0:0|0:1,0:0:0:0:
185,202,180569,6,0,B|76:159|105:241|-6:197,1,191.999994140625,14|0,0:1|0:0,0:0:0:0:
131,13,181105,1,8,0:1:0:0:
131,13,181194,1,8,0:1:0:0:
131,13,181284,2,0,P|126:64|137:117,1,95.9999970703126,8|8,0:0|0:1,0:0:0:0:
339,191,181641,2,0,P|344:140|333:87,1,95.9999970703126,14|0,0:0|0:0,0:0:0:0:
213,290,181998,5,10,0:1:0:0:
282,346,182177,2,0,L|484:360,1,191.999994140625,8|8,0:1|0:1,0:0:0:0:
339,220,182712,2,0,P|387:201|432:171,1,95.9999970703126,10|0,0:0|0:0,0:0:0:0:
211,139,183069,2,0,P|213:48|130:12,1,191.999994140625,10|14,0:1|0:1,0:0:0:0:
0,277,183784,5,10,0:1:0:0:
0,277,183962,1,8,0:1:0:0:
100,219,184141,1,10,0:0:0:0:
160,327,184319,1,8,0:0:0:0:
247,223,184498,1,10,0:3:0:0:
316,346,184677,1,8,0:3:0:0:
432,239,184855,5,14,0:0:0:0:
495,287,185034,2,0,P|524:213|468:93,1,191.999994140625,8|8,0:1|0:1,0:0:0:0:
225,208,185569,2,0,P|196:282|252:402,1,191.999994140625,14|8,0:0|0:1,0:0:0:0:
231,384,186284,6,0,L|334:379,1,95.9999970703126,14|0,0:1|0:0,0:0:0:0:
152,258,186641,2,0,L|49:263,1,95.9999970703126,10|0,0:1|0:0,0:0:0:0:
269,99,186998,5,10,0:0:0:0:
365,225,187177,1,8,0:1:0:0:
492,127,187355,1,8,0:1:0:0:
395,0,187534,1,8,0:0:0:0:
395,0,187623,1,8,0:0:0:0:
395,0,187712,2,0,B|388:39|388:39|392:54|392:54|384:94,1,95.9999970703126,8|8,0:1|0:0,0:0:0:0:
210,248,188069,5,10,2:1:0:0:
210,248,188159,1,2,2:2:0:0:
210,248,188248,1,2,2:2:0:0:
210,248,188337,1,2,2:2:0:0:
210,248,188427,2,0,B|99:203|134:301|19:251,2,191.999994140625,10|8|14,0:0|0:1|0:1,0:0:0:0:
210,248,189498,5,8,0:0:0:0:
210,248,189543,1,8,0:0:0:0:
321,369,189677,2,0,L|312:264,1,80,8|8,0:3|0:1,0:0:0:0:
159,82,190034,5,4,0:3:0:0:
159,82,190078,1,4,0:3:0:0:
36,186,190212,2,0,L|53:54,1,120.000004577637,8|14,0:0|0:1,0:0:0:0:
256,192,190659,12,0,191998,0:0:0:0:
0,326,197712,6,0,B|140:273|95:388|227:341,1,240,2|0,0:0|0:0,0:0:0:0:
282,253,199141,2,0,P|271:195|329:19,1,240,2|0,0:0|0:0,0:0:0:0:
417,105,200569,2,0,P|428:163|370:339,1,240,2|0,0:0|0:0,0:0:0:0:
283,379,201998,1,2,0:0:0:0:
207,305,202355,1,2,0:0:0:0:
110,370,202712,1,2,0:2:0:0:
39,276,203069,1,2,0:3:0:0:
39,276,203427,6,0,P|65:153|26:55,1,223.999993164063,14|0,0:1|1:0,0:0:0:0:
31,63,204498,2,0,P|33:90|42:117,1,55.9999982910157,2|8,0:0|0:1,0:0:0:0:
96,179,204855,1,10,0:1:0:0:
96,179,205034,2,0,P|125:170|153:166,1,55.9999982910157,2|8,0:0|0:1,0:0:0:0:
222,177,205391,2,0,P|251:186|279:190,1,55.9999982910157,2|0,0:0|1:0,0:0:0:0:
346,170,205748,2,0,P|375:161|403:157,1,55.9999982910157,2|0,0:0|0:0,0:0:0:0:
507,210,206105,5,2,0:0:0:0:
507,210,206194,1,2,0:0:0:0:
507,210,206284,2,0,B|495:253|495:253|499:272|499:272|486:321,1,111.999996582031,8|0,0:1|0:0,0:0:0:0:
486,318,206819,1,0,0:0:0:0:
433,376,206998,2,0,P|402:360|376:356,1,55.9999982910157,2|0,1:0|0:0,0:0:0:0:
303,347,207355,2,0,P|272:363|246:367,1,55.9999982910157,2|8,0:0|0:1,0:0:0:0:
150,321,207712,5,10,0:1:0:0:
196,257,207891,2,0,P|207:229|207:194,1,55.9999982910157,2|8,0:0|0:1,0:0:0:0:
109,148,208248,2,0,P|98:120|98:85,1,55.9999982910157,2|8,0:0|0:0,0:0:0:0:
228,54,208605,2,0,P|239:26|239:-9,1,55.9999982910157,10|8,0:1|0:3,0:0:0:0:
240,0,209141,6,0,P|213:55|237:143,1,143.999995605469,14|8,0:1|0:1,0:0:0:0:
465,318,209855,2,0,P|492:263|468:175,1,143.999995605469,10|0,0:0|0:0,0:0:0:0:
401,114,210391,1,8,0:1:0:0:
285,213,210569,2,0,L|356:205,1,71.9999978027344,8|0,0:0|0:0,0:0:0:0:
242,40,210927,2,0,L|313:48,1,71.9999978027344,2|8,0:0|0:1,0:0:0:0:
173,126,211284,5,10,0:0:0:0:
125,31,211462,1,2,0:0:0:0:
58,112,211641,1,10,0:1:0:0:
105,207,211819,1,2,0:0:0:0:
274,149,211998,6,0,P|290:96|255:-5,1,160,14|8,0:1|0:0,0:0:0:0:
255,164,212534,1,8,0:0:0:0:
369,188,212712,2,0,P|420:177|460:154,1,80,2|8,0:1|0:1,0:0:0:0:
241,178,213069,5,14,0:0:0:0:
305,355,213248,1,8,0:1:0:0:
227,192,213427,5,10,0:1:0:0:
155,384,213605,1,8,0:0:0:0:
126,158,213784,6,0,L|109:60,1,80,10|2,0:1|0:0,0:0:0:0:
112,79,214052,1,8,0:0:0:0:
112,79,214141,1,8,0:0:0:0:
112,79,214230,1,8,0:0:0:0:
112,79,214319,1,8,0:3:0:0:
112,79,214409,1,8,0:3:0:0:
112,79,214498,1,8,0:3:0:0:
112,79,214587,1,4,0:3:0:0:
112,79,214677,1,4,0:3:0:0:
112,79,214766,1,4,0:3:0:0:
314,295,215927,6,0,P|327:295|342:287,1,30.0000011444092,2|2,0:0|0:0,0:0:0:0:
456,169,216105,2,0,P|444:161|426:154,1,30.0000011444092,2|2,0:0|0:0,0:0:0:0:
305,214,216284,6,0,B|407:181|390:274|484:248,1,191.999994140625,14|10,0:1|0:0,0:0:0:0:
395,18,216819,1,10,0:0:0:0:
164,106,216998,1,10,0:0:0:0:
252,336,217177,1,10,0:0:0:0:
483,248,217355,2,0,L|490:207,6,23.9999992675781,10|0|0|0|0|0|0,0:0|0:0|0:0|0:0|0:0|0:0|0:0,0:0:0:0:
487,224,217712,6,0,P|497:171|477:117,1,103.999995239258,14|0,0:1|0:0,0:0:0:0:
246,236,218069,2,0,P|236:289|256:343,1,103.999995239258,2|8,0:1|0:1,0:0:0:0:
351,374,218427,2,0,B|392:368|392:368|408:374|408:374|464:365,1,103.999995239258,10|8,0:0|0:1,0:0:0:0:
309,137,218784,5,14,0:0:0:0:
246,236,218962,1,8,0:1:0:0:
147,173,219141,1,10,0:1:0:0:
210,74,219319,1,8,0:0:0:0:
324,151,219498,6,0,P|383:157|439:122,1,103.999995239258,10|8,0:1|0:1,0:0:0:0:
206,53,219855,2,0,P|158:33|107:40,1,103.999995239258,10|8,0:0|0:1,0:0:0:0:
0,178,220212,1,8,0:0:0:0:
141,268,220391,1,8,0:0:0:0:
62,310,220569,6,0,P|35:212|64:113,1,207.999990478516,14|0,0:1|0:0,0:0:0:0:
118,29,221105,1,8,0:1:0:0:
249,119,221284,2,0,P|256:70|222:2,1,103.999995239258,10|0,0:0|0:0,0:0:0:0:
129,168,221641,2,0,P|122:217|156:285,1,103.999995239258,10|0,0:1|0:0,0:0:0:0:
196,335,221998,5,10,0:1:0:0:
312,290,222177,1,8,0:0:0:0:
429,342,222355,1,10,0:1:0:0:
429,342,222534,1,8,0:1:0:0:
505,243,222712,2,0,P|512:194|486:121,1,103.999995239258,8|8,0:0|0:0,0:0:0:0:
470,118,222980,1,8,0:0:0:0:
435,107,223069,2,0,L|315:95,1,103.999995239258,8|8,0:0|0:2,0:0:0:0:
199,222,223427,6,0,B|157:117|249:130|202:14,1,207.999990478516,14|8,0:1|0:1,0:0:0:0:
116,73,223962,1,8,0:1:0:0:
285,180,224141,2,0,L|389:190,1,103.999995239258,14|0,0:0|0:0,0:0:0:0:
208,231,224498,1,8,2:0:0:0:
208,231,224587,1,8,2:0:0:0:
208,231,224677,1,8,2:0:0:0:
480,364,225034,5,8,0:0:0:0:
480,364,225123,1,8,0:0:0:0:
480,364,225212,1,10,0:1:0:0:
509,221,225391,1,2,0:0:0:0:
485,77,225569,1,10,0:0:0:0:
341,52,225748,1,14,0:1:0:0:
392,188,225927,1,2,0:0:0:0:
360,329,226105,1,2,0:0:0:0:
224,367,226284,6,0,B|100:321|133:418|7:369,1,207.999990478516,14|8,0:1|0:1,0:0:0:0:
24,375,226819,1,8,0:1:0:0:
135,234,226998,2,0,P|90:222|52:177,1,103.999995239258,10|0,0:0|0:0,0:0:0:0:
228,98,227355,2,0,P|240:142|220:198,1,103.999995239258,10|8,0:1|0:1,0:0:0:0:
64,86,227712,2,0,P|96:53|154:42,1,103.999995239258,2|8,0:0|0:0,0:0:0:0:
328,147,228069,5,10,0:1:0:0:
222,196,228248,1,8,0:1:0:0:
328,147,228427,1,8,0:0:0:0:
423,215,228606,1,2,0:0:0:0:
328,147,228784,1,8,0:1:0:0:
339,30,228963,1,8,0:1:0:0:
328,147,229141,6,0,P|420:170|458:83,1,207.999990478516,14|8,0:1|0:1,0:0:0:0:
334,0,229677,1,8,0:1:0:0:
238,108,229855,2,0,P|228:142|262:224,1,103.999995239258,14|0,0:0|0:0,0:0:0:0:
292,291,230212,1,10,0:1:0:0:
152,382,230391,1,8,0:0:0:0:
11,293,230569,1,10,0:1:0:0:
26,196,230748,5,8,0:1:0:0:
26,196,230837,1,8,0:1:0:0:
26,196,230927,2,0,B|36:158|36:158|29:135|29:135|38:95,1,103.999995239258,14|0,0:0|0:0,0:0:0:0:
136,2,231284,1,10,0:1:0:0:
230,97,231462,1,8,0:0:0:0:
250,113,231552,1,8,0:0:0:0:
273,123,231641,1,8,0:3:0:0:
299,128,231730,1,8,0:3:0:0:
325,127,231819,1,4,0:3:0:0:
350,120,231909,1,4,0:3:0:0:
372,107,231998,6,0,P|388:33|516:26,1,207.999990478516,14|8,0:1|0:1,0:0:0:0:
361,208,232534,2,0,P|288:231|218:123,1,207.999990478516,10|8,0:0|0:1,0:0:0:0:
454,168,233069,2,0,P|510:218|476:326,1,155.999992858887,14|0,0:0|0:0,0:0:0:0:
499,314,233427,1,10,0:1:0:0:
401,384,233605,1,8,0:2:0:0:
287,310,233784,5,2,0:0:0:0:
293,289,233873,1,2,0:0:0:0:
293,267,233962,1,2,0:0:0:0:
289,246,234051,1,2,0:0:0:0:
280,225,234141,2,0,P|273:174|271:122,1,103.999995239258,10|8,0:0|0:1,0:0:0:0:
460,26,234498,2,0,P|466:77|468:129,1,103.999995239258,10|8,0:0|0:1,0:0:0:0:
408,192,234855,5,14,0:0:0:0:
297,33,235034,1,8,0:1:0:0:
271,121,235212,2,0,L|261:177,2,51.999997619629,10|10|14,0:1|0:1|0:1,0:0:0:0:
195,38,235569,2,0,L|205:-18,2,51.999997619629,10|2|10,0:1|0:1|0:1,0:0:0:0:
101,90,235927,1,10,0:0:0:0:
101,90,236016,1,2,0:1:0:0:
101,90,236105,2,0,P|46:101|-3:65,1,103.999995239258,2|8,0:1|0:1,0:0:0:0:
164,188,236462,5,8,0:0:0:0:
181,226,236552,1,8,0:0:0:0:
182,267,236641,1,8,0:0:0:0:
163,304,236730,1,8,0:0:0:0:
134,334,236819,2,0,P|95:296|96:238,1,103.999995239258,8|10,0:0|0:1,0:0:0:0:
266,144,237177,5,8,0:0:0:0:
276,187,237266,1,8,0:0:0:0:
303,222,237355,1,8,0:0:0:0:
343,241,237444,1,8,0:0:0:0:
388,241,237534,1,8,0:0:0:0:
428,222,237623,1,8,0:0:0:0:
457,188,237712,6,0,P|471:124|450:56,1,111.999996582031,14|0,0:1|0:0,0:0:0:0:
279,13,238069,2,0,L|124:2,1,111.999996582031,10|0,0:1|0:0,0:0:0:0:
41,140,238427,2,0,P|7:269|37:360,1,223.999993164063,14|8,0:0|0:1,0:0:0:0:
160,310,238962,1,8,0:1:0:0:
256,384,239141,1,8,0:0:0:0:
352,310,239319,1,8,0:1:0:0:
504,383,239498,6,0,P|517:319|489:267,1,111.999996582031,2|8,0:0|0:1,0:0:0:0:
404,161,239855,2,0,L|149:136,1,223.999993164063,10|8,0:2|0:0,0:0:0:0:
172,218,240391,1,10,0:1:0:0:
16,308,240569,2,0,P|3:244|31:192,1,111.999996582031,14|8,0:1|0:1,0:0:0:0:
181,139,240927,5,8,0:0:0:0:
199,141,241016,1,8,0:0:0:0:
217,138,241105,1,8,0:0:0:0:
234,130,241194,1,8,0:0:0:0:
247,117,241284,1,8,0:0:0:0:
256,101,241373,1,8,0:0:0:0:
260,82,241462,1,8,0:3:0:0:
259,64,241551,1,8,0:3:0:0:
252,47,241641,1,8,0:3:0:0:
240,32,241730,1,8,0:3:0:0:
225,22,241819,1,4,0:3:0:0:
207,17,241909,1,4,0:3:0:0:
188,17,241998,1,14,0:1:0:0:
0,248,242355,5,8,0:0:0:0:
112,171,242534,1,8,0:0:0:0:
102,327,242712,1,8,0:0:0:0:
252,139,242891,1,8,0:0:0:0:
266,379,243069,1,8,0:0:0:0:
396,123,243248,1,8,0:0:0:0:
498,384,244855,6,0,P|512:336|482:212,1,176.000005371094,14|0,0:1|0:0,0:0:0:0:
429,158,245390,1,8,0:1:0:0:
321,283,245568,2,0,L|416:288,1,88.000002685547,10|0,0:0|0:0,0:0:0:0:
266,97,245926,2,0,L|361:92,1,88.000002685547,10|8,0:1|0:1,0:0:0:0:
233,217,246283,5,2,0:0:0:0:
125,173,246461,1,8,0:0:0:0:
115,304,246640,1,10,0:1:0:0:
115,304,246819,1,8,0:1:0:0:
16,208,246997,2,0,P|15:169|28:111,2,88.000002685547,10|8|0,0:0|0:1|0:0,0:0:0:0:
122,311,247533,5,2,0:0:0:0:
122,311,247622,1,2,0:0:0:0:
122,311,247712,2,0,P|201:293|317:287,1,176.000005371094,10|0,0:1|0:0,0:0:0:0:
295,286,248247,1,8,0:1:0:0:
415,384,248426,2,0,P|402:348|403:284,1,88.000002685547,10|0,0:0|0:0,0:0:0:0:
479,176,248783,2,0,P|493:134|493:90,1,88.000002685547,10|8,0:1|0:1,0:0:0:0:
369,0,249140,5,10,0:1:0:0:
329,134,249318,1,8,0:0:0:0:
256,44,249497,1,10,0:1:0:0:
256,44,249676,1,8,0:1:0:0:
329,134,249854,2,0,P|338:176|342:220,1,88.000002685547,10|8,0:0|0:1,0:0:0:0:
140,384,250212,2,0,P|130:341|120:253,1,107.999996704102,10|0,0:0|0:0,0:0:0:0:
121,277,250569,6,0,B|223:239|190:320|291:284,1,176.000005371094,14|0,0:1|0:0,0:0:0:0:
191,175,251104,1,8,0:1:0:0:
254,105,251283,2,0,P|260:61|257:17,1,88.000002685547,10|0,0:0|0:0,0:0:0:0:
77,114,251640,2,0,P|70:157|73:201,1,88.000002685547,10|8,0:1|0:1,0:0:0:0:
121,277,251997,5,2,0:0:0:0:
191,175,252175,1,8,0:0:0:0:
287,220,252355,1,10,0:1:0:0:
217,322,252533,1,8,0:1:0:0:
310,370,252711,2,0,P|349:378|403:367,1,88.000002685547,10|0,0:0|0:0,0:0:0:0:
512,235,253068,5,2,0:0:0:0:
378,172,253247,1,10,0:1:0:0:
499,87,253426,1,10,0:0:0:0:
243,0,253783,5,2,0:0:0:0:
259,86,253962,1,8,0:1:0:0:
241,171,254140,1,10,0:0:0:0:
267,254,254318,1,8,0:1:0:0:
251,340,254497,1,2,0:0:0:0:
116,358,254676,5,8,0:1:0:0:
116,358,254765,1,8,0:1:0:0:
116,358,254855,2,0,L|14:350,1,88.000002685547,14|8,0:0|0:1,0:0:0:0:
267,254,255212,2,0,L|369:246,1,88.000002685547,10|8,0:0|0:1,0:0:0:0:
174,73,255569,1,10,0:0:0:0:
129,171,255747,1,14,0:1:0:0:
303,19,256105,5,8,0:3:0:0:
303,19,256194,1,8,0:3:0:0:
303,19,256283,2,0,P|326:100|396:91,1,160,14|0,0:1|0:0,0:0:0:0:
389,96,256819,1,8,0:1:0:0:
460,221,256997,2,0,P|469:178|462:125,1,80,10|0,0:0|0:0,0:0:0:0:
364,289,257355,2,0,P|361:328|370:367,1,80,10|8,0:1|0:1,0:0:0:0:
262,198,257712,5,2,0:0:0:0:
151,265,257890,1,8,0:0:0:0:
161,132,258069,1,10,0:1:0:0:
151,265,258247,1,8,0:1:0:0:
37,196,258426,2,0,P|26:157|27:104,1,80,10|8,0:0|0:1,0:0:0:0:
139,17,258783,2,0,L|252:27,1,80,2|0,0:0|0:0,0:0:0:0:
229,41,259051,1,8,0:0:0:0:
241,56,259140,6,0,P|324:60|366:0,1,160,10|0,0:1|0:0,0:0:0:0:
308,145,259676,1,8,0:1:0:0:
407,209,259854,2,0,P|443:222|495:214,1,80,10|0,0:0|0:0,0:0:0:0:
300,337,260212,2,0,P|264:324|212:332,1,80,10|8,0:1|0:1,0:0:0:0:
114,384,260569,5,2,0:0:0:0:
131,249,260747,1,8,0:0:0:0:
69,181,260926,1,10,0:1:0:0:
69,181,261105,1,8,0:1:0:0:
134,63,261283,1,10,0:0:0:0:
134,63,261462,1,8,0:1:0:0:
200,181,261640,1,10,0:0:0:0:
446,67,261997,6,0,P|371:18|304:37,1,160,14|0,0:1|0:0,0:0:0:0:
307,34,262533,1,8,0:1:0:0:
411,173,262712,2,0,L|503:162,1,80,10|0,0:0|0:0,0:0:0:0:
291,230,263069,2,0,L|199:219,1,80,2|8,0:0|0:1,0:0:0:0:
378,376,263426,5,10,0:0:0:0:
378,376,263605,1,8,0:1:0:0:
424,287,263783,2,0,P|432:228|411:173,1,120,10|8,0:0|0:0,0:0:0:0:
366,112,264140,5,8,0:0:0:0:
322,142,264259,5,8,0:0:0:0:
268,138,264378,5,8,0:3:0:0:
228,101,264497,5,8,0:3:0:0:
214,49,264616,5,4,0:3:0:0:
165,27,264735,5,4,0:3:0:0:
112,38,264855,6,0,B|37:125|40:304|113:355|113:355|170:274|230:248|309:262|333:363|333:363|234:389|171:359|131:203|164:100|217:41|326:26|326:26|274:112|300:186|300:186|364:210|392:262|392:262|377:159|379:72|455:41|455:41|494:102|468:161,1,1840,14|0,0:1|0:0,0:0:0:0:
