osu file format v14

[General]
AudioFilename: audio.mp3
AudioLeadIn: 0
PreviewTime: 44148
Countdown: 0
SampleSet: Normal
StackLeniency: 0.7
Mode: 0
LetterboxInBreaks: 0
WidescreenStoryboard: 1

[Editor]
Bookmarks: 24763
DistanceSpacing: 1
BeatDivisor: 4
GridSize: 4
TimelineZoom: 1.4

[Metadata]
Title:Love and Madness Circulate
TitleUnicode:Love and Madness Circulate
Artist:Kurumi Tokisaki
ArtistUnicode:Kurumi Tokisaki
Creator:AlexTroIIPsy
Version:Hard
Source:
Tags:
BeatmapID:1031361
BeatmapSetID:456713

[Difficulty]
HPDrainRate:5
CircleSize:3
OverallDifficulty:7
ApproachRate:8
SliderMultiplier:2.1
SliderTickRate:1

[Events]
//Background and Video events
0,0,"Kurumi Bg 4.jpg",0,0
//Break Periods
2,61656,68321
2,116841,135303
//Storyboard Layer 0 (Background)
//Storyboard Layer 1 (Fail)
//Storyboard Layer 2 (Pass)
//Storyboard Layer 3 (Foreground)
//Storyboard Sound Samples

[TimingPoints]
2609.51570361599,461.543704842429,4,1,0,39,1,0
17148,461.543704842429,4,1,0,39,1,0
45533,-200,4,1,0,39,0,0
46686,-66.6666666666667,4,1,0,56,0,1
61456,-100,4,1,0,39,0,0
92841,-66.6666666666667,4,1,0,56,0,1
108072,-133.333333333333,4,1,0,56,0,1
116379,-133.333333333333,4,1,0,39,0,0
124226,-133.333333333333,4,2,0,39,0,0
131726,-133.333333333333,4,1,0,55,0,0
131957,-133.333333333333,4,2,0,39,0,0
153764,-66.6666666666667,4,1,0,56,0,1
168996,-133.333333333333,4,1,0,56,0,1
180072,-100,4,1,0,39,0,0

[Colours]
Combo1 : 255,140,60
Combo2 : 200,20,20
Combo3 : 39,39,39
Combo4 : 215,215,175

[HitObjects]
88,136,24763,5,0,0:0:0:0:
136,116,24878,1,0,0:0:0:0:
188,116,24994,1,0,0:0:0:0:
240,128,25109,1,0,0:0:0:0:
288,152,25225,1,0,0:0:0:0:
380,100,25455,1,8,0:0:0:0:
432,192,25686,1,0,0:0:0:0:
344,248,25917,1,8,0:0:0:0:
380,100,26148,1,0,0:0:0:0:
256,56,26379,5,12,0:0:0:0:
104,64,26609,5,0,0:0:0:0:
136,108,26725,1,0,0:0:0:0:
112,156,26840,1,0,0:0:0:0:
144,196,26955,1,0,0:0:0:0:
132,248,27071,1,0,0:0:0:0:
232,216,27302,1,8,0:0:0:0:
268,316,27532,1,0,0:0:0:0:
168,344,27763,1,8,0:0:0:0:
232,216,27994,1,0,0:0:0:0:
464,152,28225,5,12,0:0:0:0:
376,100,28455,6,0,L|296:100,1,52.5
188,152,28686,2,0,L|252:152,1,52.5
312,216,28917,2,0,L|408:216,1,52.5
160,276,29148,1,8,0:0:0:0:
152,160,29379,1,0,0:0:0:0:
36,160,29609,1,8,0:0:0:0:
160,276,29840,1,0,0:0:0:0:
284,260,30071,6,8,P|332:232|360:176,1,105
368,48,30532,2,8,P|320:80|292:136,1,105
192,160,30994,2,8,B|120:128|120:128|148:48|64:20|20:32,1,210
304,84,31917,5,12,0:0:0:0:
156,116,32148,6,0,L|156:192,1,52.5
236,256,32379,2,0,L|236:188,1,52.5
256,156,32609,1,0,0:0:0:0:
300,124,32725,1,0,0:0:0:0:
352,120,32840,1,8,0:0:0:0:
344,268,33071,1,0,0:0:0:0:
232,144,33302,1,8,0:0:0:0:
352,184,33532,1,0,0:0:0:0:
180,80,33763,5,12,0:0:0:0:
48,104,33994,6,0,L|48:168,1,52.5
120,192,34225,2,0,L|120:252,1,52.5
48,284,34456,2,0,L|48:344,1,52.5
124,340,34686,1,8,0:0:0:0:
248,284,34917,1,0,0:0:0:0:
160,244,35148,1,8,0:0:0:0:
292,188,35379,1,0,0:0:0:0:
120,100,35609,5,12,0:0:0:0:
248,72,35840,6,0,P|280:120|280:144,1,52.5
232,152,36071,2,0,P|252:196|288:212,1,52.5
220,248,36302,2,0,P|268:272|300:272,1,52.5
320,264,36532,1,8,0:0:0:0:
236,200,36763,1,0,0:0:0:0:
324,132,36994,1,8,0:0:0:0:
252,56,37225,1,0,0:0:0:0:
112,68,37456,5,8,0:0:0:0:
216,172,37686,1,0,0:0:0:0:
76,212,37917,1,8,0:0:0:0:
180,72,38148,1,0,0:0:0:0:
256,212,38379,5,12,0:0:0:0:
308,212,38494,1,0,0:0:0:0:
352,184,38609,1,8,0:0:0:0:
380,140,38725,1,0,0:0:0:0:
376,88,38840,1,8,0:0:0:0:
336,52,38956,1,0,0:0:0:0:
284,40,39071,1,8,0:0:0:0:
236,56,39186,1,0,0:0:0:0:
192,80,39302,6,8,P|128:88|84:72,1,105
72,124,39648,1,8,0:0:0:0:
92,172,39763,2,8,P|152:176|208:204,2,105
204,84,40456,5,8,0:0:0:0:
252,212,40686,1,0,0:0:0:0:
328,100,40917,1,8,0:0:0:0:
204,156,41148,1,0,0:0:0:0:
332,208,41379,1,8,0:0:0:0:
412,96,41609,1,0,0:0:0:0:
288,152,41840,1,8,0:0:0:0:
420,188,42071,1,0,0:0:0:0:
320,280,42302,1,8,0:0:0:0:
324,144,42533,1,0,0:0:0:0:
196,96,42763,5,8,0:0:0:0:
196,96,42879,1,0,0:0:0:0:
196,96,42994,2,8,P|136:92|96:56,1,105
68,104,43340,1,8,0:0:0:0:
48,152,43456,2,8,P|104:180|152:176,2,105,8|8|12,0:0|0:0|0:0,0:0:0:0:
128,80,44148,5,8,0:0:0:0:
232,68,44379,1,0,0:0:0:0:
232,172,44609,1,8,0:0:0:0:
336,148,44840,1,0,0:0:0:0:
364,248,45071,1,8,0:0:0:0:
464,224,45302,1,0,0:0:0:0:
360,184,45533,6,8,P|376:128|368:64,1,105
356,60,46110,1,0,0:0:0:0:
336,44,46225,1,0,0:0:0:0:
236,108,46456,1,8,0:0:0:0:
248,140,46571,1,0,0:0:0:0:
256,168,46686,6,8,P|252:256|196:320,1,157.500006008148
336,304,47148,2,8,P|356:220|432:160,1,157.500006008148
408,64,47610,2,8,P|320:84|236:56,1,157.500006008148
184,96,47956,2,0,L|92:84,1,78.7500030040742
92,164,48186,2,0,L|184:180,2,78.7500030040742
88,244,48533,5,8,0:0:0:0:
292,256,48763,1,8,0:0:0:0:
96,200,48994,1,8,0:0:0:0:
300,208,49225,1,8,0:0:0:0:
104,144,49456,1,8,0:0:0:0:
308,144,49686,6,0,P|376:100|392:52,1,78.7500030040742
276,64,49917,2,0,P|212:88|180:136,1,78.7500030040742
244,188,50148,2,0,P|228:272|200:300,1,78.7500030040742
132,244,50379,1,8,0:0:0:0:
148,40,50610,1,8,0:0:0:0:
276,200,50840,1,8,0:0:0:0:
84,128,51071,1,8,0:0:0:0:
284,88,51302,1,8,0:0:0:0:
424,240,51533,6,0,L|448:152,1,78.7500030040742
344,188,51763,2,0,L|368:96,1,78.7500030040742
264,140,51994,2,0,L|288:56,1,78.7500030040742
184,84,52225,1,0,0:0:0:0:
224,284,52456,1,8,0:0:0:0:
52,172,52687,1,8,0:0:0:0:
256,176,52917,1,8,0:0:0:0:
104,316,53148,1,8,0:0:0:0:
116,112,53379,6,0,L|228:116,1,78.7500030040742
260,196,53610,2,0,L|160:196,1,78.7500030040742
116,276,53840,2,0,L|220:276,1,78.7500030040742
284,328,54071,5,4,0:0:0:0:
16,16,54533,1,4,0:0:0:0:
424,12,54994,1,4,0:0:0:0:
180,340,55456,1,4,0:0:0:0:
68,228,55917,5,4,0:0:0:0:
456,92,56379,1,4,0:0:0:0:
48,124,56840,1,4,0:0:0:0:
452,180,57302,1,4,0:0:0:0:
256,16,57763,5,4,0:0:0:0:
8,340,58225,1,4,0:0:0:0:
88,40,58687,1,4,0:0:0:0:
340,360,59148,1,4,0:0:0:0:
468,48,59610,5,4,0:0:0:0:
68,132,60071,1,4,0:0:0:0:
464,32,60533,1,4,0:0:0:0:
92,200,60994,1,4,0:0:0:0:
256,192,61456,5,12,0:0:0:0:
368,56,69071,5,0,0:0:0:0:
316,72,69187,1,0,0:0:0:0:
276,108,69302,1,0,0:0:0:0:
252,152,69417,1,0,0:0:0:0:
232,200,69533,1,0,0:0:0:0:
208,248,69648,1,0,0:0:0:0:
192,296,69764,1,8,0:0:0:0:
112,228,69994,1,0,0:0:0:0:
188,152,70225,1,8,0:0:0:0:
120,72,70456,1,0,0:0:0:0:
360,280,70687,5,12,0:0:0:0:
256,64,70917,6,0,L|256:148,1,52.5
344,224,71148,2,0,L|344:160,2,52.5
396,224,71494,1,0,0:0:0:0:
444,200,71610,1,8,0:0:0:0:
332,84,71841,1,0,0:0:0:0:
244,232,72071,1,8,0:0:0:0:
452,96,72302,1,0,0:0:0:0:
104,152,72533,5,12,0:0:0:0:
120,284,72764,6,0,L|200:268,1,52.5
108,196,72994,2,0,L|136:144,1,52.5
40,120,73225,2,0,L|40:68,1,52.5
176,28,73456,1,8,0:0:0:0:
304,84,73687,1,0,0:0:0:0:
408,40,73918,1,8,0:0:0:0:
508,80,74148,1,0,0:0:0:0:
328,240,74379,6,8,P|256:248|184:228,1,105
104,148,74841,2,8,P|176:140|248:160,1,105
304,32,75302,2,8,B|364:80|364:80|332:120|392:176|392:176|376:208,1,210
212,136,75994,5,8,0:0:0:0:
212,136,76110,1,0,0:0:0:0:
212,136,76225,2,8,P|164:100|96:88,1,105
48,236,76687,1,0,0:0:0:0:
188,224,76918,1,8,0:0:0:0:
192,52,77148,2,8,B|268:68|268:68|276:120|344:192,1,210
384,200,77725,1,0,0:0:0:0:
424,236,77841,1,8,0:0:0:0:
436,288,77956,1,0,0:0:0:0:
464,332,78071,6,8,B|420:340|420:340|320:296,1,105
280,184,78533,1,8,0:0:0:0:
216,296,78764,1,0,0:0:0:0:
88,244,78994,2,8,B|152:200|152:200|112:92|176:72,1,210
212,88,79571,1,0,0:0:0:0:
264,96,79687,6,8,P|344:92|376:68,1,105
228,16,80148,1,8,0:0:0:0:
320,160,80379,1,8,0:0:0:0:
152,200,80610,1,0,0:0:0:0:
432,256,80841,2,8,P|420:192|440:140,1,105
316,276,81302,2,8,P|304:336|264:364,1,105
396,328,81764,1,0,0:0:0:0:
176,232,81995,1,8,0:0:0:0:
68,176,82225,2,8,P|88:120|140:80,1,105
228,48,82687,5,0,0:0:0:0:
276,68,82802,1,0,0:0:0:0:
324,92,82918,1,0,0:0:0:0:
364,128,83033,1,0,0:0:0:0:
400,168,83148,1,0,0:0:0:0:
424,216,83264,1,0,0:0:0:0:
440,264,83379,1,0,0:0:0:0:
432,316,83495,1,0,0:0:0:0:
404,360,83610,1,12,0:0:0:0:
56,248,84764,5,8,0:0:0:0:
328,144,84995,1,0,0:0:0:0:
128,152,85225,1,8,0:0:0:0:
344,232,85456,1,0,0:0:0:0:
224,96,85687,1,8,0:0:0:0:
456,288,85918,1,0,0:0:0:0:
392,148,86148,1,8,0:0:0:0:
392,344,86379,1,0,0:0:0:0:
480,168,86610,1,8,0:0:0:0:
284,328,86841,1,0,0:0:0:0:
148,244,87072,5,8,0:0:0:0:
148,244,87187,1,0,0:0:0:0:
148,244,87302,2,8,P|160:172|204:128,1,105
232,144,87648,1,8,0:0:0:0:
284,132,87764,2,8,P|344:104|376:72,2,105
440,184,88456,5,8,0:0:0:0:
348,256,88687,1,0,0:0:0:0:
236,284,88918,1,8,0:0:0:0:
116,296,89148,5,4,0:0:0:0:
400,56,89610,1,4,0:0:0:0:
28,116,90072,1,4,0:0:0:0:
424,312,90533,1,4,0:0:0:0:
156,156,90995,5,4,0:0:0:0:
252,112,91225,1,4,0:0:0:0:
224,236,91456,1,4,0:0:0:0:
208,44,91687,1,4,0:0:0:0:
316,240,91917,1,4,0:0:0:0:
376,132,92148,5,0,0:0:0:0:
376,132,92264,1,0,0:0:0:0:
376,132,92379,1,0,0:0:0:0:
448,236,92610,5,0,0:0:0:0:
448,236,92726,1,0,0:0:0:0:
448,236,92841,2,8,P|360:268|284:260,1,157.500006008148
300,352,93302,2,8,P|204:332|132:252,1,157.500006008148
80,352,93764,2,8,P|32:272|36:188,1,157.500006008148
76,144,94110,2,0,L|20:72,1,78.7500030040742
104,56,94341,2,0,L|168:140,2,78.7500030040742
180,36,94687,6,8,P|328:40|368:64,1,157.500006008148
440,160,95149,2,8,P|292:156|252:132,1,157.500006008148
132,120,95610,2,8,P|36:128|0:184,1,157.500006008148
124,272,95956,2,0,L|96:348,2,78.7500030040742
188,224,96302,1,0,0:0:0:0:
276,308,96533,6,8,P|356:264|392:192,1,157.500006008148
232,224,96995,2,8,P|292:156|300:76,1,157.500006008148
160,164,97456,2,8,P|196:84|176:16,1,157.500006008148
104,40,97802,2,0,L|40:92,1,78.7500030040742
48,168,98033,2,0,L|120:112,1,78.7500030040742
192,256,98379,5,8,0:0:0:0:
300,140,98610,1,8,0:0:0:0:
152,188,98841,1,8,0:0:0:0:
308,212,99072,1,8,0:0:0:0:
196,104,99302,1,8,0:0:0:0:
220,260,99533,5,0,0:0:0:0:
220,260,99649,1,0,0:0:0:0:
220,260,99764,1,0,0:0:0:0:
220,260,99879,1,0,0:0:0:0:
220,260,99995,1,0,0:0:0:0:
220,260,100110,1,0,0:0:0:0:
220,260,100226,5,4,0:0:0:0:
4,32,100687,1,4,0:0:0:0:
320,40,101149,1,4,0:0:0:0:
104,268,101610,1,4,0:0:0:0:
464,192,102072,5,4,0:0:0:0:
148,192,102533,1,4,0:0:0:0:
304,192,102995,1,4,0:0:0:0:
72,192,103456,1,4,0:0:0:0:
396,48,103918,5,4,0:0:0:0:
88,108,104379,1,4,0:0:0:0:
404,128,104841,1,4,0:0:0:0:
112,240,105302,1,4,0:0:0:0:
260,36,105764,5,4,0:0:0:0:
148,332,106226,1,4,0:0:0:0:
424,180,106687,1,4,0:0:0:0:
116,116,107149,1,4,0:0:0:0:
376,292,107610,5,12,0:0:0:0:
72,272,108072,6,8,P|68:208|92:168,1,78.7500030040742
188,248,108533,1,0,0:0:0:0:
220,140,108764,1,8,0:0:0:0:
352,128,108995,2,8,P|336:84|304:48,2,78.7500030040742
228,112,109687,1,8,0:0:0:0:
284,220,109918,1,0,0:0:0:0:
112,236,110149,6,8,P|68:188|56:148,1,78.7500030040742
208,192,110610,2,0,P|244:220|260:260,1,78.7500030040742
176,324,111072,1,8,0:0:0:0:
140,140,111303,1,8,0:0:0:0:
224,64,111533,6,8,P|280:60|328:72,2,78.7500030040742
284,168,112226,2,8,P|232:172|176:152,1,78.7500030040742
80,104,112687,1,0,0:0:0:0:
128,252,112918,1,8,0:0:0:0:
260,312,113149,6,8,P|316:288|348:196,1,157.500006008148
336,60,114072,2,8,P|280:84|248:176,1,157.500006008148
184,80,114764,5,0,0:0:0:0:
156,108,114880,1,0,0:0:0:0:
140,144,114995,1,8,0:0:0:0:
140,184,115110,1,0,0:0:0:0:
152,224,115226,1,0,0:0:0:0:
184,248,115341,1,0,0:0:0:0:
224,248,115456,1,0,0:0:0:0:
260,236,115572,1,0,0:0:0:0:
300,232,115687,1,0,0:0:0:0:
340,236,115803,1,0,0:0:0:0:
376,244,115918,2,0,L|408:232,8,19.6875007510186
256,192,137149,12,0,138533,0:0:0:0:
120,208,138995,6,0,P|120:144|144:104,2,78.7500030040742
196,232,139687,1,0,0:0:0:0:
328,144,140149,6,0,P|368:96|400:80,2,78.7500030040742
256,172,140841,1,0,0:0:0:0:
204,112,141072,1,0,0:0:0:0:
132,80,141303,2,0,P|64:64|32:72,1,78.7500030040742
252,232,141995,6,0,P|276:188|328:168,1,78.7500030040742
376,264,142457,1,0,0:0:0:0:
244,100,142688,2,0,P|184:80|136:84,2,78.7500030040742
132,240,143380,1,0,0:0:0:0:
316,192,143611,2,0,P|392:160|416:164,2,78.7500030040742
128,128,144303,1,0,0:0:0:0:
176,192,144534,1,0,0:0:0:0:
236,244,144764,1,0,0:0:0:0:
304,280,144995,1,0,0:0:0:0:
380,296,145226,1,0,0:0:0:0:
112,112,145457,5,12,0:0:0:0:
444,144,145764,1,12,0:0:0:0:
228,352,146072,1,12,0:0:0:0:
68,220,146380,6,0,P|112:176|112:144,1,78.7500030040742
136,64,146841,1,0,0:0:0:0:
224,144,147072,2,0,P|272:116|324:116,1,78.7500030040742
300,216,147534,2,0,P|244:256|208:256,1,78.7500030040742
100,220,147995,1,0,0:0:0:0:
244,144,148226,1,0,0:0:0:0:
104,80,148457,1,0,0:0:0:0:
168,280,148688,1,0,0:0:0:0:
204,64,148918,2,0,P|244:60|288:72,2,78.7500030040742
200,176,149611,5,0,0:0:0:0:
368,176,149841,1,0,0:0:0:0:
200,176,150072,1,4,0:0:0:0:
444,180,150303,5,4,0:0:0:0:
32,172,150765,1,4,0:0:0:0:
456,40,151226,1,4,0:0:0:0:
152,324,151688,1,4,0:0:0:0:
472,328,152149,1,4,0:0:0:0:
80,88,152611,1,4,0:0:0:0:
368,100,153072,5,0,0:0:0:0:
368,100,153188,1,0,0:0:0:0:
368,100,153303,1,0,0:0:0:0:
452,144,153534,5,0,0:0:0:0:
452,144,153650,1,0,0:0:0:0:
452,144,153765,2,8,P|408:216|332:248,1,157.500006008148
344,340,154226,2,8,P|260:336|184:288,1,157.500006008148
104,348,154688,2,8,P|76:268|88:172,1,157.500006008148
100,80,155034,2,0,L|164:144,1,78.7500030040742
288,132,155265,2,0,L|224:72,2,78.7500030040742
148,144,155611,6,8,P|152:228|220:300,1,157.500006008148
248,184,156072,2,8,P|256:100|220:28,1,157.500006008148
344,64,156534,2,8,P|436:80|504:132,1,157.500006008148
432,200,156880,2,0,L|440:288,1,78.7500030040742
344,216,157111,2,0,L|336:128,2,78.7500030040742
288,304,157457,6,8,P|176:272|136:224,1,157.500006008148
224,192,157918,2,8,P|304:164|356:104,1,157.500006008148
208,112,158380,2,8,P|132:76|88:8,1,157.500006008148
40,92,158726,2,0,L|36:184,1,78.7500030040742
104,188,158957,2,0,L|120:284,2,78.7500030040742
160,144,159303,5,8,0:0:0:0:
372,88,159534,1,8,0:0:0:0:
312,252,159765,1,8,0:0:0:0:
224,68,159995,1,8,0:0:0:0:
388,176,160226,1,8,0:0:0:0:
184,232,160457,5,0,0:0:0:0:
188,236,160572,1,0,0:0:0:0:
192,240,160688,1,0,0:0:0:0:
200,248,160803,1,0,0:0:0:0:
200,248,160919,1,0,0:0:0:0:
204,252,161034,1,0,0:0:0:0:
208,256,161149,5,4,0:0:0:0:
259,96,161380,1,0,0:0:0:0:
124,36,161611,1,4,0:0:0:0:
259,96,161841,1,0,0:0:0:0:
388,36,162072,1,4,0:0:0:0:
256,352,162534,1,4,0:0:0:0:
108,232,162995,5,4,0:0:0:0:
133,92,163226,1,0,0:0:0:0:
255,17,163457,1,4,0:0:0:0:
133,92,163688,1,0,0:0:0:0:
246,184,163919,1,4,0:0:0:0:
52,26,164380,1,4,0:0:0:0:
350,82,164841,5,4,0:0:0:0:
256,136,165072,1,0,0:0:0:0:
162,82,165303,1,4,0:0:0:0:
256,248,165534,1,0,0:0:0:0:
456,220,165765,1,4,0:0:0:0:
56,220,166226,1,4,0:0:0:0:
400,16,166688,5,4,0:0:0:0:
68,304,167149,1,4,0:0:0:0:
292,24,167611,1,4,0:0:0:0:
160,312,168072,1,4,0:0:0:0:
256,192,168534,5,12,0:0:0:0:
232,28,168996,6,8,P|239:66|231:104,1,78.7500030040742
348,128,169457,1,0,0:0:0:0:
272,224,169688,1,8,0:0:0:0:
388,240,169919,2,8,P|400:277|423:308,2,78.7500030040742
284,272,170611,1,8,0:0:0:0:
228,164,170842,1,0,0:0:0:0:
288,64,171073,6,8,P|317:89|337:123,1,78.7500030040742
228,116,171534,2,0,P|196:93|178:58,1,78.7500030040742
248,200,171996,1,8,0:0:0:0:
356,252,172227,1,8,0:0:0:0:
288,319,172457,6,8,P|260:328|224:320,2,39.3750015020371
140,232,172919,2,8,P|178:227|217:233,1,78.7500030040742
264,144,173380,1,0,0:0:0:0:
368,212,173611,1,8,0:0:0:0:
320,116,173842,1,0,0:0:0:0:
188,136,174073,6,0,P|112:104|72:52,1,118.125004506111,8|0,0:0|0:0,0:0:0:0:
132,52,174534,2,0,P|200:40|280:48,1,118.125004506111,8|0,0:0|0:0,0:0:0:0:
232,112,174996,2,0,P|296:136|356:132,1,118.125004506111,8|0,0:0|0:0,0:0:0:0:
352,88,175457,2,0,P|408:124|416:220,1,157.500006008148,8|8,0:0|0:0,0:0:0:0:
336,244,176149,1,0,0:0:0:0:
256,176,176380,1,8,0:0:0:0:
124,188,176611,6,8,P|116:128|96:80,1,78.7500030040742
40,228,177073,2,0,P|48:296|64:336,1,78.7500030040742,0|8,0:0|0:0,0:0:0:0:
152,240,177534,1,0,0:0:0:0:
272,228,177765,2,0,P|348:260|388:312,1,118.125004506111,8|0,0:0|0:0,0:0:0:0:
304,320,178226,2,0,P|236:332|156:324,1,118.125004506111,8|0,0:0|0:0,0:0:0:0:
192,256,178688,2,0,P|128:232|68:236,1,118.125004506111,8|0,0:0|0:0,0:0:0:0:
100,160,179149,2,8,P|44:124|36:28,1,157.500006008148
120,72,179841,1,8,0:0:0:0:
212,184,180072,1,4,0:0:0:0:
256,192,180188,12,0,183303,0:0:0:0:
256,192,183534,12,0,186996,0:0:0:0:
