osu file format v14

[General]
AudioFilename: audio.mp3
AudioLeadIn: 0
PreviewTime: 63600
Countdown: 0
SampleSet: Soft
StackLeniency: 0.7
Mode: 0
LetterboxInBreaks: 0
WidescreenStoryboard: 1

[Editor]
DistanceSpacing: 0.9
BeatDivisor: 2
GridSize: 32
TimelineZoom: 1.3

[Metadata]
Title:Rain
TitleUnicode:Rain
Artist:Kurubukko
ArtistUnicode:Kurubukko
Creator:Gibune
Version:Normal
Source:Dynamix
Tags:instrumental electronic くるぶっこちゃん kurubukkochan kurubukko-chan mappers' guild mpg featured artist fa
BeatmapID:3298855
BeatmapSetID:1578257

[Difficulty]
HPDrainRate:3
CircleSize:3.2
OverallDifficulty:4
ApproachRate:5.5
SliderMultiplier:1.1
SliderTickRate:1

[Events]
//Background and Video events
0,0,"bg.jpg",0,0
//Break Periods
2,20600,24075
2,63800,81675
//Storyboard Layer 0 (Background)
//Storyboard Layer 1 (Fail)
//Storyboard Layer 2 (Pass)
//Storyboard Layer 3 (Foreground)
//Storyboard Layer 4 (Overlay)
//Storyboard Sound Samples

[TimingPoints]
1200,300,4,2,1,55,1,0
10800,-111.111111111111,4,2,1,55,0,0
15600,-111.111111111111,4,2,1,60,0,0
20100,-111.111111111111,4,2,1,30,0,0
25200,-111.111111111111,4,2,1,55,0,0
44400,-111.111111111111,4,2,1,60,0,0
82800,-111.111111111111,4,2,1,40,0,0
84000,-111.111111111111,4,2,1,50,0,0
85200,-111.111111111111,4,2,1,60,0,0
86400,-111.111111111111,4,2,1,70,0,0
87600,-100,4,2,1,80,0,0
106800,-100,4,2,1,70,0,0

[Colours]
Combo1 : 17,254,176
Combo2 : 173,255,95
Combo3 : 255,88,100
Combo4 : 255,94,55

[HitObjects]
74,54,10800,6,0,P|123:55|180:86,1,98.9999969787599,4|0,1:0|1:0,0:0:0:0:
236,133,11400,2,0,P|295:113|348:110,1,98.9999969787599,0|0,1:0|1:0,0:0:0:0:
409,66,12000,1,0,1:0:0:0:
483,114,12300,1,0,1:0:0:0:
437,190,12600,2,0,L|445:246,1,49.4999984893799,0|0,1:0|0:0,0:0:0:0:
457,281,12900,2,0,L|445:340,1,49.4999984893799,0|0,1:0|0:0,0:0:0:0:
412,357,13200,6,0,P|342:340|304:330,1,98.9999969787599,0|0,1:0|1:0,0:0:0:0:
239,288,13800,2,0,L|130:313,1,98.9999969787599,0|0,1:0|1:0,0:0:0:0:
72,255,14400,1,0,1:0:0:0:
92,168,14700,1,0,1:0:0:0:
52,88,15000,2,0,P|94:77|164:63,1,98.9999969787599,0|0,1:0|1:0,0:0:0:0:
181,35,15450,1,0,0:0:0:0:
225,40,15600,6,0,P|237:90|224:152,1,98.9999969787599,8|8,0:0|0:0,0:0:0:0:
194,218,16200,2,0,P|206:268|201:329,1,98.9999969787599,8|8,0:0|0:0,0:0:0:0:
289,342,16800,2,0,P|354:326|398:317,1,98.9999969787599,8|8,0:0|0:0,0:0:0:0:
424,297,17250,1,0,1:0:0:0:
442,256,17400,2,0,P|437:222|431:140,1,98.9999969787599,8|8,0:0|0:0,0:0:0:0:
381,83,18000,6,0,P|341:85|319:87,1,49.4999984893799,8|8,0:0|0:0,0:0:0:0:
289,100,18300,2,0,L|236:93,1,49.4999984893799,8|8,0:0|0:0,0:0:0:0:
195,100,18600,1,8,0:0:0:0:
153,116,18750,2,0,P|164:176|171:219,1,98.9999969787599,8|8,0:0|0:0,0:0:0:0:
150,253,19200,1,2,0:1:0:0:
199,326,19500,2,0,P|270:317|316:314,1,98.9999969787599,0|8,3:0|0:0,0:0:0:0:
377,275,20100,2,2,P|360:233|357:168,1,98.9999969787599,2|0,0:1|1:0,0:1:0:0:
401,100,25200,6,0,P|357:83|290:74,1,98.9999969787599,0|8,1:0|0:0,0:0:0:0:
267,97,25650,1,0,1:0:0:0:
159,176,26100,2,0,L|110:166,1,49.4999984893799,0|8,1:0|0:0,0:0:0:0:
45,227,26550,1,0,1:0:0:0:
45,227,26700,2,0,L|52:288,1,49.4999984893799,8|0,0:0|1:0,0:0:0:0:
105,346,27150,5,2,1:3:0:0:
191,323,27450,2,0,L|255:338,2,49.4999984893799,8|0|0,0:0|1:0|1:0,0:0:0:0:
186,278,27900,2,0,L|201:227,1,49.4999984893799,10|0,0:1|1:0,0:0:0:0:
161,107,28500,1,0,1:0:0:0:
161,107,28650,1,8,0:0:0:0:
220,41,28950,6,0,L|281:21,2,49.4999984893799,0|8|0,1:0|0:0|1:0,0:0:0:0:
257,64,29400,1,0,1:0:0:0:
331,112,29700,2,0,L|338:181,1,49.4999984893799,0|8,1:0|0:0,0:0:0:0:
358,199,30000,6,2,L|241:214,1,98.9999969787599,0|8,1:0|0:0,0:1:0:0:
240,251,30450,1,2,1:0:0:0:
334,345,30900,2,0,L|395:340,1,49.4999984893799,0|8,1:0|0:0,0:0:0:0:
459,294,31350,2,0,L|469:239,1,49.4999984893799,0|8,1:0|0:0,0:0:0:0:
457,202,31650,1,0,1:0:0:0:
501,124,31950,1,2,1:3:0:0:
456,46,32250,6,0,L|394:38,1,49.4999984893799,8|0,0:0|1:0,0:0:0:0:
366,59,32550,2,0,L|359:119,2,49.4999984893799,0|10|0,1:0|0:1|1:0,0:0:0:0:
236,67,33300,1,0,1:0:0:0:
236,67,33450,1,8,0:0:0:0:
264,151,33750,2,0,L|256:214,1,49.4999984893799,0|8,1:0|0:0,0:0:0:0:
249,244,34050,1,0,1:0:0:0:
226,282,34200,2,0,P|187:287|66:291,1,148.49999546814,0|8,1:0|0:0,0:0:0:0:
42,264,34800,5,4,1:0:0:0:
18,178,35100,2,0,L|27:112,1,49.4999984893799,8|2,0:0|1:0,0:0:0:0:
86,65,35550,2,0,P|123:54|154:44,1,49.4999984893799,0|0,0:0|1:0,0:0:0:0:
162,16,35850,1,8,0:0:0:0:
229,74,36150,2,0,L|214:137,2,49.4999984893799,0|8|0,1:0|0:0|1:0,0:0:0:0:
304,26,36750,1,2,1:3:0:0:
379,83,37050,5,8,0:0:0:0:
379,83,37200,2,0,L|383:144,2,49.4999984893799,0|0|10,1:0|1:0|0:1,0:0:0:0:
417,104,37650,1,0,1:0:0:0:
462,180,37950,1,0,1:0:0:0:
409,251,38250,1,8,0:0:0:0:
327,229,38550,1,0,1:0:0:0:
327,229,38700,2,0,L|254:231,2,49.4999984893799,8|0|0,0:0|1:0|1:0,0:0:0:0:
304,315,39300,2,0,L|236:317,1,49.4999984893799,0|8,1:0|0:0,0:0:0:0:
215,294,39600,6,2,P|131:306|90:369,1,148.49999546814,2|0,1:0|1:0,0:1:0:0:
90,223,40500,1,0,1:0:0:0:
90,223,40650,1,8,0:0:0:0:
22,164,40950,2,0,L|14:101,2,49.4999984893799,0|8|0,1:0|0:0|1:0,0:0:0:0:
102,124,41550,1,2,1:3:0:0:
89,40,41850,1,8,0:0:0:0:
89,40,42000,6,0,L|249:56,1,148.49999546814,0|0,1:0|1:0,0:0:0:0:
322,78,42750,1,0,1:0:0:0:
266,148,43050,1,8,0:0:0:0:
266,148,43200,2,0,P|251:218|242:314,1,148.49999546814,2|0,0:1|1:0,0:0:0:0:
255,337,43800,2,0,P|323:328|396:325,1,98.9999969787599,0|0,1:0|0:0,0:0:0:0:
394,309,44250,1,8,0:0:0:0:
426,339,44400,5,4,1:0:0:0:
489,276,44700,1,10,0:1:0:0:
425,212,45000,1,2,1:0:0:0:
474,138,45300,1,8,0:0:0:0:
413,72,45600,2,0,P|337:62|258:48,1,148.49999546814,2|2,1:0|0:1,0:0:0:0:
222,56,46200,1,0,1:0:0:0:
165,124,46500,1,8,0:0:0:0:
235,178,46800,1,0,1:0:0:0:
181,249,47100,6,0,L|160:383,2,98.9999969787599,10|2|8,0:1|1:0|0:0,0:0:0:0:
97,217,48000,2,0,P|30:187|23:113,1,148.49999546814,2|2,1:0|0:1,0:0:0:0:
27,74,48600,1,0,1:0:0:0:
100,23,48900,1,0,1:0:0:0:
173,73,49200,6,0,L|164:142,1,49.4999984893799,0|0,1:0|1:0,0:0:0:0:
206,141,49500,2,0,P|291:156|305:78,1,148.49999546814,10|2,0:1|0:1,0:0:0:0:
315,66,50100,1,8,0:0:0:0:
398,35,50400,1,2,1:0:0:0:
465,93,50700,1,8,0:0:0:0:
415,166,51000,2,0,P|403:229|392:288,1,98.9999969787599,0|10,1:0|0:1,0:0:0:0:
332,325,51600,6,0,B|247:290|261:365|167:323,1,148.49999546814,0|0,1:0|1:0,0:0:0:0:
147,314,52200,1,8,0:0:0:0:
69,269,52500,1,0,1:0:0:0:
131,205,52800,2,0,L|101:33,2,148.49999546814,2|10|0,1:0|0:1|1:0,0:0:0:0:
166,231,53850,1,0,1:0:0:0:
209,222,54000,6,0,L|337:198,1,98.9999969787599,4|2,1:0|0:1,0:0:0:0:
322,116,54600,2,0,L|197:127,1,98.9999969787599,10|2,0:1|0:1,0:0:0:0:
183,45,55200,2,0,L|365:23,1,148.49999546814,0|2,1:0|0:1,0:0:0:0:
374,32,55800,1,8,0:0:0:0:
412,55,55950,2,0,L|401:120,2,49.4999984893799,2|2|2,3:0|3:0|1:0,0:0:0:0:
487,102,56550,5,2,3:0:0:0:
475,190,56850,1,0,1:0:0:0:
384,200,57150,1,2,0:0:0:0:
332,272,57450,2,0,P|363:314|400:369,2,98.9999969787599,2|2|2,0:1|3:0|3:1,0:0:0:0:
259,220,58350,1,0,1:0:0:0:
175,252,58650,1,10,0:1:0:0:
175,252,58800,6,0,P|69:244|48:206,1,148.49999546814,2|2,1:0|0:1,0:0:0:0:
17,134,59550,2,0,P|57:103|92:68,1,98.9999969787599,2|0,1:0|0:0,0:0:0:0:
132,52,60000,2,0,P|128:110|128:166,1,98.9999969787599,0|0,1:0|1:0,0:0:0:0:
192,207,60600,1,2,0:1:0:0:
273,171,60900,1,0,0:0:0:0:
266,82,61200,6,0,L|208:98,2,49.4999984893799,2|0|8,1:0|1:0|0:0,0:0:0:0:
288,43,61650,2,0,B|336:72|336:72|420:55,1,98.9999969787599,0|0,1:0|1:0,0:0:0:0:
467,94,62250,1,0,1:0:0:0:
467,94,62400,2,0,L|457:157,1,49.4999984893799,8|8,0:0|0:0,0:0:0:0:
444,185,62700,1,2,0:1:0:0:
355,190,63000,1,8,0:0:0:0:
307,265,63300,1,0,1:0:0:0:
345,345,63600,5,8,0:0:0:0:
372,339,82800,5,0,1:0:0:0:
417,262,83100,1,0,1:0:0:0:
372,184,83400,2,0,L|389:82,1,98.9999969787599,0|0,1:0|1:0,0:0:0:0:
317,32,84000,2,0,P|267:47|216:61,1,98.9999969787599,0|0,1:0|1:0,0:0:0:0:
141,19,84600,1,0,1:0:0:0:
76,80,84900,1,0,1:0:0:0:
110,162,85200,6,0,L|89:263,1,98.9999969787599,0|0,1:0|1:0,0:0:0:0:
37,331,85800,1,0,1:0:0:0:
112,378,86100,1,0,1:0:0:0:
181,322,86400,2,0,L|261:308,1,49.4999984893799,2|0,1:0|1:0,0:0:0:0:
268,290,86700,2,0,L|316:298,1,49.4999984893799,0|2,1:0|1:0,0:0:0:0:
353,324,87000,2,0,P|355:262|357:210,1,98.9999969787599,10|2,0:1|0:1,0:0:0:0:
326,130,87600,6,0,P|390:118|450:105,1,110,4|8,1:0|0:0,0:0:0:0:
473,138,88050,1,2,1:0:0:0:
448,234,88350,2,0,L|464:315,2,55,0|10|0,0:1|0:1|1:0,0:0:0:0:
404,258,88800,2,0,L|319:277,1,55,2|0,0:1|1:0,0:0:0:0:
303,254,89100,1,10,0:1:0:0:
256,237,89250,2,0,P|196:235|124:332,1,165,2|10,1:0|0:1,0:0:0:0:
44,250,90000,6,0,L|32:189,2,55,0|0|8,1:0|1:0|0:0,0:0:0:0:
77,213,90450,2,0,P|96:144|113:96,1,110,2|2,1:0|1:0,0:0:0:0:
99,59,90900,1,8,0:1:0:0:
190,21,91200,1,0,1:0:0:0:
190,21,91350,2,0,P|255:27|311:36,1,110,10|2,0:1|1:0,0:0:0:0:
340,6,91800,1,8,0:0:0:0:
397,86,92100,2,0,L|376:151,1,55,2|8,1:0|0:0,0:0:0:0:
336,161,92400,5,0,1:0:0:0:
377,250,92700,2,0,P|363:311|347:363,1,110,10|0,0:1|0:0,0:0:0:0:
396,370,93150,2,0,L|469:358,1,55,2|8,1:0|0:0,0:0:0:0:
507,280,93600,2,0,L|499:219,1,55,2|0,1:0|1:0,0:0:0:0:
465,189,93900,1,8,0:0:0:0:
465,189,94050,2,0,P|475:130|480:79,1,110,2|2,3:1|1:3,0:0:0:0:
510,40,94500,1,8,0:0:0:0:
416,6,94800,6,2,L|347:19,1,55,0|10,1:0|0:1,0:1:0:0:
312,9,95100,1,0,1:0:0:0:
258,92,95400,2,0,L|269:154,1,55,8|2,0:0|0:1,0:0:0:0:
299,184,95700,2,0,L|279:241,1,55,0|8,1:0|0:0,0:0:0:0:
289,284,96000,1,2,1:0:0:0:
289,284,96150,2,0,P|217:295|165:305,1,110,0|10,1:0|0:1,0:0:0:0:
98,357,96750,2,0,L|31:349,2,55,0|8|0,1:0|0:0|1:0,0:0:0:0:
77,311,97200,5,2,1:0:0:0:
38,219,97500,1,4,1:0:0:0:
38,219,97650,2,0,P|30:153|20:108,1,110,0|0,1:0|0:0,0:0:0:0:
53,73,98100,2,0,L|51:14,1,55,8|0,0:0|1:0,0:0:0:0:
100,16,98400,2,0,L|166:3,2,55,2|0|8,0:1|1:0|0:0,0:0:0:0:
132,52,98850,2,0,P|150:108|159:182,1,110,2|2,1:0|3:0,0:0:0:0:
137,203,99300,1,10,0:1:0:0:
196,282,99600,6,0,P|201:313|205:356,2,55,0|0|8,0:0|1:0|0:0,0:0:0:0:
234,250,100050,2,0,P|306:267|378:283,1,110,2|0,1:1|1:0,0:0:0:0:
380,304,100500,1,10,0:1:0:0:
457,242,100800,2,0,P|482:191|430:93,1,165,2|2,1:0|1:0,0:0:0:0:
446,49,101400,1,8,0:0:0:0:
351,20,101700,2,0,L|289:47,1,55,2|8,1:3|0:0,0:0:0:0:
255,21,102000,5,0,1:0:0:0:
203,105,102300,2,0,P|207:166|208:256,1,110,10|0,0:1|0:0,0:0:0:0:
228,260,102750,1,2,1:0:0:0:
211,306,102900,1,8,0:0:0:0:
124,353,103200,2,0,L|60:344,1,55,2|0,1:0|1:0,0:0:0:0:
40,304,103500,1,8,0:0:0:0:
40,304,103650,2,0,P|28:233|17:157,1,110,2|2,3:1|1:3,0:0:0:0:
41,149,104100,1,10,0:1:0:0:
111,78,104400,6,0,L|170:94,1,55,0|8,1:0|0:0,0:0:0:0:
205,65,104700,1,0,1:0:0:0:
265,143,105000,2,0,L|256:204,2,55,8|2|0,0:0|0:1|1:0,0:0:0:0:
306,116,105450,1,8,0:0:0:0:
352,98,105600,2,0,L|408:93,2,55,2|0|0,3:0|1:0|1:0,0:0:0:0:
379,138,106050,2,0,P|389:194|396:266,1,110,0|8,1:0|0:0,0:0:0:0:
431,280,106500,2,0,L|415:353,1,55,8|4,0:0|1:3,0:0:0:0:
379,363,106800,5,4,1:0:0:0:
283,336,107100,2,0,P|242:298|184:286,1,110,8|0,0:0|1:0,0:0:0:0:
154,251,107550,1,2,3:1:0:0:
154,251,107700,1,2,1:3:0:0:
184,156,108000,2,0,P|204:104|194:36,1,110,0|8,1:0|0:0,0:0:0:0:
231,12,108450,1,2,0:1:0:0:
231,12,108600,1,0,1:0:0:0:
323,47,108900,2,2,L|392:42,1,55,8|2,0:0|0:1,0:1:0:0:
424,25,109200,6,0,L|419:141,1,110,0|10,1:0|0:1,0:0:0:0:
479,213,109800,2,0,L|467:291,1,55,0|2,1:0|3:1,0:0:0:0:
492,311,110100,1,8,0:0:0:0:
409,366,110400,1,0,1:0:0:0:
327,309,110700,1,8,0:0:0:0:
237,350,111000,2,0,L|171:356,1,55,0|2,1:0|0:1,0:0:0:0:
135,339,111300,2,0,L|74:323,1,55,0|10,1:0|0:1,0:0:0:0:
32,332,111600,6,0,P|17:273|21:208,1,110,0|8,0:0|0:0,0:0:0:0:
71,140,112200,2,0,L|66:82,1,55,0|0,1:0|0:0,0:0:0:0:
45,40,112500,1,8,0:0:0:0:
136,2,112800,1,0,1:0:0:0:
211,65,113100,2,0,P|270:73|318:58,1,110,8|0,0:0|1:0,0:0:0:0:
408,10,113700,2,0,L|424:80,1,55,8|2,0:0|0:1,0:0:0:0:
398,109,114000,6,0,L|376:224,1,110,0|0,1:0|0:0,0:0:0:0:
397,262,114450,1,0,1:0:0:0:
397,262,114600,1,8,0:0:0:0:
318,321,114900,2,0,L|252:309,1,55,2|2,3:0|1:0,0:0:0:0:
236,270,115200,2,0,B|233:194|231:130|230:129,1,110,2|0,1:0|0:0,0:0:0:0:
214,118,115650,1,0,1:0:0:0:
214,118,115800,1,8,0:0:0:0:
262,31,116100,2,0,L|317:47,1,55,0|8,1:0|0:0,0:0:0:0:
357,72,116400,6,0,L|409:55,1,55,4|0,1:0|1:0,0:0:0:0:
436,13,116700,1,10,0:1:0:0:
502,86,117000,2,0,L|493:141,1,55,0|0,0:0|1:0,0:0:0:0:
509,187,117300,1,8,0:1:0:0:
441,259,117600,2,0,P|361:271|288:279,1,110,4|8,1:0|0:0,0:0:0:0:
264,347,118200,1,2,1:0:0:0:
154,246,118650,1,0,1:0:0:0:
154,246,118800,6,0,P|161:189|159:132,1,110,4|8,1:0|0:0,0:0:0:0:
67,174,119400,2,0,P|60:231|62:288,1,110,0|10,1:0|0:1,0:0:0:0:
136,348,120000,1,2,1:0:0:0:
210,282,120300,1,8,0:0:0:0:
281,350,120600,1,0,1:0:0:0:
359,289,120900,2,0,L|425:311,1,55,0|10,1:0|0:1,0:0:0:0:
461,307,121200,6,0,L|475:250,1,55,0|0,1:0|1:0,0:0:0:0:
511,220,121500,1,8,0:0:0:0:
460,134,121800,2,0,P|403:123|345:111,1,110,0|8,1:0|0:0,0:0:0:0:
266,63,122400,2,0,L|254:0,2,55,2|0|10,1:0|1:0|0:1,0:0:0:0:
229,96,122850,1,0,1:0:0:0:
229,96,123000,2,0,L|216:168,2,55,0|2|10,1:0|1:0|0:1,0:0:0:0:
130,105,123600,6,0,P|74:114|26:150,1,110,0|0,1:0|1:0,0:0:0:0:
18,191,124050,1,0,1:0:0:0:
25,239,124200,2,0,P|56:284|68:343,1,110,8|0,0:0|1:0,0:0:0:0:
163,308,124800,2,0,P|234:303|291:320,1,110,8|0,0:0|0:0,0:0:0:0:
313,337,125250,1,0,1:0:0:0:
358,358,125400,2,0,P|381:304|375:248,1,110,8|0,0:0|1:0,0:0:0:0:
342,217,125850,1,8,0:0:0:0:
342,217,126000,1,0,1:0:0:0:
