osu file format v14

[General]
AudioFilename: audio.mp3
AudioLeadIn: 0
PreviewTime: 63600
Countdown: 0
SampleSet: Soft
StackLeniency: 0.7
Mode: 0
LetterboxInBreaks: 0
WidescreenStoryboard: 1

[Editor]
DistanceSpacing: 0.4
BeatDivisor: 4
GridSize: 32
TimelineZoom: 1.3

[Metadata]
Title:Rain
TitleUnicode:Rain
Artist:Kurubukko
ArtistUnicode:Kurubukko
Creator:Gibune
Version:Hard
Source:Dynamix
Tags:instrumental electronic くるぶっこちゃん kurubukkochan kurubukko-chan mappers' guild mpg featured artist fa
BeatmapID:3289682
BeatmapSetID:1578257

[Difficulty]
HPDrainRate:5
CircleSize:3.5
OverallDifficulty:6
ApproachRate:8
SliderMultiplier:1.4
SliderTickRate:1

[Events]
//Background and Video events
0,0,"bg.jpg",0,0
//Break Periods
2,20600,24450
2,63800,82050
//Storyboard Layer 0 (Background)
//Storyboard Layer 1 (Fail)
//Storyboard Layer 2 (Pass)
//Storyboard Layer 3 (Foreground)
//Storyboard Layer 4 (Overlay)
//Storyboard Sound Samples

[TimingPoints]
1200,300,4,2,1,55,1,0
10800,-111.111111111111,4,2,1,55,0,0
15600,-100,4,2,1,60,0,0
20100,-100,4,2,1,30,0,0
25200,-111.111111111111,4,2,1,55,0,0
44400,-100,4,2,1,60,0,0
63000,-100,4,2,1,60,0,0
82800,-111.111111111111,4,2,1,40,0,0
84000,-111.111111111111,4,2,1,50,0,0
85200,-111.111111111111,4,2,1,60,0,0
86400,-111.111111111111,4,2,1,70,0,0
87300,-200,4,2,1,70,0,0
87600,-90.9090909090909,4,2,1,80,0,0
97650,-90.9090909090909,4,2,1,80,0,0
106800,-90.9090909090909,4,2,1,70,0,0
117600,-90.9090909090909,4,2,1,70,0,0
118800,-90.9090909090909,4,2,1,70,0,0
124800,-111.111111111111,4,2,1,70,0,0

[Colours]
Combo1 : 17,254,176
Combo2 : 173,255,95
Combo3 : 255,88,100
Combo4 : 255,94,55

[HitObjects]
381,269,10800,6,0,P|336:263|305:262,1,62.9999980773926,4|0,1:0|0:0,0:0:0:0:
318,262,11025,1,0,0:0:0:0:
318,262,11100,1,0,1:0:0:0:
264,314,11250,1,2,0:1:0:0:
152,255,11550,1,2,0:1:0:0:
42,317,11850,1,2,0:1:0:0:
13,194,12150,6,0,L|6:151,2,31.4999990386963,2|2|0,0:0|0:0|1:0,0:0:0:0:
85,173,12450,1,0,0:0:0:0:
118,51,12750,1,0,0:0:0:0:
186,17,12900,2,0,L|225:27,3,31.4999990386963,0|0|0|0,1:0|0:0|0:0|0:0,0:0:0:0:
230,40,13200,6,0,P|236:83|237:117,1,62.9999980773926,0|0,1:0|0:0,0:0:0:0:
236,102,13425,1,0,0:0:0:0:
236,102,13500,1,0,1:0:0:0:
204,170,13650,1,2,0:1:0:0:
297,254,13950,1,2,0:1:0:0:
223,356,14250,1,2,0:1:0:0:
348,348,14550,6,0,L|383:358,2,31.4999990386963,0|0|0,0:0|0:0|1:0,0:0:0:0:
328,274,14850,1,0,0:0:0:0:
384,223,15000,2,0,L|379:187,3,31.4999990386963,0|0|0|0,1:0|0:0|0:0|0:0,0:0:0:0:
366,177,15300,2,0,L|371:141,3,31.4999990386963,0|0|0|0,1:0|0:0|0:0|0:0,0:0:0:0:
386,132,15600,6,0,L|379:62,1,70,8|0,0:0|1:0,0:0:0:0:
297,8,15900,2,0,L|290:78,1,70,8|0,0:0|1:0,0:0:0:0:
212,127,16200,2,0,L|227:219,1,70,8|0,0:0|1:0,0:0:0:0:
298,236,16500,2,0,L|291:306,1,70,8|0,0:0|1:0,0:0:0:0:
220,361,16800,5,8,0:0:0:0:
158,312,16950,1,0,1:0:0:0:
158,312,17025,1,0,0:0:0:0:
158,312,17100,2,0,L|80:327,1,70,8|0,0:0|1:0,0:0:0:0:
23,283,17400,1,8,0:0:0:0:
65,216,17550,1,0,1:0:0:0:
16,156,17700,1,8,0:0:0:0:
18,142,17775,1,0,0:0:0:0:
20,128,17850,1,0,1:0:0:0:
21,114,17925,1,0,0:0:0:0:
23,100,18000,6,0,L|19:61,3,35,8|0|8|0,0:0|0:0|0:0|0:0,0:0:0:0:
36,51,18300,2,0,L|40:12,3,35,8|0|8|0,0:0|0:0|0:0|0:0,0:0:0:0:
60,9,18600,2,0,L|99:5,3,35,8|8|8|8,0:0|0:0|0:0|0:0,0:0:0:0:
107,22,18900,2,0,L|146:26,3,35,8|8|8|8,0:0|0:0|0:0|0:0,0:0:0:0:
163,11,19200,1,2,0:1:0:0:
324,78,19500,6,0,P|321:118|322:225,1,140,0|8,3:0|0:0,0:0:0:0:
321,232,19875,1,0,3:0:0:0:
327,244,19950,1,4,0:3:0:0:
372,315,20100,1,2,0:1:0:0:
230,359,20400,1,0,1:0:0:0:
346,222,25200,6,0,P|359:172|365:133,2,62.9999980773926,0|0|8,1:0|0:0|0:0,0:0:0:0:
394,284,25650,2,0,P|344:271|266:252,1,125.999996154785,0|0,1:0|0:0,0:0:0:0:
202,278,26100,1,0,1:0:0:0:
202,278,26250,1,8,0:0:0:0:
90,187,26550,6,0,P|84:152|71:112,1,62.9999980773926,0|8,1:0|0:0,0:0:0:0:
119,60,26850,1,0,1:0:0:0:
119,60,27150,2,0,P|169:53|206:51,1,62.9999980773926,2|0,1:3|0:0,0:0:0:0:
251,93,27450,6,0,P|257:62|269:24,2,62.9999980773926,8|0|0,0:0|1:0|1:0,0:0:0:0:
191,143,27900,1,10,0:1:0:0:
191,143,28050,1,0,1:0:0:0:
415,246,28500,5,0,1:0:0:0:
464,184,28650,2,0,P|470:147|474:113,1,62.9999980773926,8|0,0:0|0:0,0:0:0:0:
403,62,28950,2,0,P|397:99|393:133,1,62.9999980773926,0|8,1:0|0:0,0:0:0:0:
328,161,29250,1,0,1:0:0:0:
328,161,29400,1,0,1:0:0:0:
236,276,29700,2,0,P|241:320|245:352,1,62.9999980773926,0|8,1:0|0:0,0:0:0:0:
163,357,30000,6,2,P|133:322|50:295,1,125.999996154785,0|8,1:0|0:0,0:1:0:0:
11,237,30450,1,2,1:0:0:0:
108,35,30900,5,0,1:0:0:0:
187,4,31050,2,0,P|185:42|183:78,1,62.9999980773926,8|0,0:0|0:0,0:0:0:0:
226,134,31350,1,0,1:0:0:0:
181,199,31501,2,0,P|186:230|188:261,1,62.9999980773926,8|0,0:0|1:0,0:0:0:0:
323,347,31950,2,0,P|363:342|404:337,1,62.9999980773926,2|0,1:3|0:0,0:0:0:0:
469,305,32250,1,8,0:0:0:0:
469,305,32400,6,0,P|473:261|476:222,2,62.9999980773926,0|0|10,1:0|1:0|0:1,0:0:0:0:
394,261,32850,1,0,1:0:0:0:
315,34,33300,1,0,1:0:0:0:
315,34,33450,2,0,P|273:29|245:23,1,62.9999980773926,8|0,0:0|0:0,0:0:0:0:
181,54,33750,2,0,P|184:85|189:125,1,62.9999980773926,0|8,1:0|0:0,0:0:0:0:
252,160,34050,1,0,1:0:0:0:
208,223,34200,2,0,P|204:256|196:327,2,94.499997116089,0|0|8,1:0|1:0|0:0,0:0:0:0:
140,190,34800,6,0,P|101:180|15:146,1,125.999996154785,4|8,1:0|0:0,0:0:0:0:
5,75,35250,1,2,1:0:0:0:
205,12,35700,1,0,1:0:0:0:
277,39,35850,2,0,P|276:75|272:116,1,62.9999980773926,8|0,0:0|0:0,0:0:0:0:
320,166,36150,6,0,L|325:200,2,31.4999990386963,0|0|8,1:0|0:0|0:0,0:0:0:0:
370,109,36450,1,0,1:0:0:0:
429,238,36750,2,0,P|422:273|415:316,1,62.9999980773926,2|0,1:3|3:0,0:0:0:0:
351,350,37050,5,8,0:0:0:0:
283,303,37200,2,0,P|251:307|207:310,1,62.9999980773926,0|0,1:0|1:0,0:0:0:0:
163,358,37500,1,10,0:1:0:0:
114,304,37650,1,0,1:0:0:0:
21,145,38100,5,0,1:0:0:0:
93,107,38250,2,0,P|126:114|159:119,1,62.9999980773926,8|0,0:0|0:0,0:0:0:0:
223,84,38550,2,0,L|227:49,2,31.4999990386963,0|0|8,1:0|0:0|0:0,0:0:0:0:
282,142,38850,1,0,1:0:0:0:
282,142,39000,2,0,P|277:187|276:210,1,62.9999980773926,0|0,1:0|3:0,0:0:0:0:
353,239,39300,2,0,P|354:207|358:176,1,62.9999980773926,0|8,1:0|0:0,0:0:0:0:
427,134,39600,6,2,P|438:101|436:7,1,125.999996154785,2|8,1:0|0:0,0:1:0:0:
360,31,40050,1,0,1:0:0:0:
136,12,40500,1,0,1:0:0:0:
80,60,40650,2,0,P|86:96|85:135,1,62.9999980773926,8|0,0:0|0:0,0:0:0:0:
37,185,40950,6,0,L|34:222,2,31.4999990386963,0|0|8,1:0|0:0|0:0,0:0:0:0:
113,213,41250,1,0,1:0:0:0:
65,349,41550,1,2,1:3:0:0:
139,373,41700,2,0,L|172:368,2,31.4999990386963,0|0|8,3:0|3:0|0:0,0:0:0:0:
148,293,42000,6,0,P|143:246|142:203,2,62.9999980773926,0|0|8,1:0|1:0|0:0,0:0:0:0:
224,267,42450,1,0,1:0:0:0:
382,360,42900,1,0,1:0:0:0:
443,309,43050,2,0,P|441:267|443:230,1,62.9999980773926,8|2,0:0|0:1,0:0:0:0:
485,180,43350,6,0,L|489:142,2,31.4999990386963,0|0|8,1:0|3:0|0:0,0:0:0:0:
410,162,43650,1,0,1:0:0:0:
410,162,43800,2,0,P|400:127|388:57,2,94.499997116089,0|0|8,1:0|1:0|0:0,0:0:0:0:
351,225,44400,6,0,P|307:227|272:229,1,70,4|0,1:0|0:0,0:0:0:0:
216,267,44700,2,0,P|211:303|206:340,1,70,10|0,0:1|0:0,0:0:0:0:
131,368,45000,1,2,1:0:0:0:
73,317,45150,1,2,0:1:0:0:
5,357,45300,1,8,0:0:0:0:
54,196,45600,6,0,P|65:157|80:47,1,140,2|8,1:0|0:0,0:0:0:0:
146,20,46050,1,2,0:1:0:0:
146,20,46200,2,0,P|191:22|225:24,1,70,0|0,1:0|0:0,0:0:0:0:
279,71,46500,1,8,0:0:0:0:
422,5,46800,5,0,1:0:0:0:
361,136,47100,2,0,P|359:181|357:283,1,140,10|2,0:1|1:0,0:0:0:0:
415,328,47550,1,2,0:1:0:0:
347,372,47700,2,0,P|311:363|271:353,1,70,8|0,0:0|0:0,0:0:0:0:
226,292,48000,6,0,P|179:303|63:311,1,140,2|8,1:0|0:0,0:0:0:0:
19,270,48450,1,2,0:1:0:0:
19,270,48600,1,0,1:0:0:0:
87,119,48900,2,0,P|82:72|79:35,1,70,0|8,1:0|0:0,0:0:0:0:
147,8,49200,5,0,1:0:0:0:
208,56,49350,1,0,1:0:0:0:
275,19,49500,2,0,P|319:27|363:36,1,70,10|0,0:1|0:0,0:0:0:0:
412,80,49800,2,0,P|420:41|427:-2,2,70,2|2|8,1:0|0:1|0:0,0:0:0:0:
316,219,50400,6,0,P|234:205|171:203,1,140,2|8,1:0|0:0,0:0:0:0:
115,159,50850,1,0,0:0:0:0:
58,208,51000,2,0,P|52:246|45:287,2,70,0|2|10,1:0|3:0|0:1,0:0:0:0:
135,358,51600,5,0,1:0:0:0:
266,292,51900,2,0,P|267:250|271:217,1,70,2|0,1:0|1:0,0:0:0:0:
348,189,52200,2,0,P|344:154|343:119,1,70,8|2,0:0|0:1,0:0:0:0:
403,61,52500,1,0,1:0:0:0:
245,23,52800,6,0,P|200:16|157:14,2,70,2|0|0,1:0|0:0|3:0,0:0:0:0:
216,99,53250,2,0,P|190:147|144:232,1,140,10|0,0:1|1:0,0:0:0:0:
153,298,53700,1,0,1:0:0:0:
157,311,53775,1,0,1:0:0:0:
161,324,53850,1,0,1:0:0:0:
164,337,53925,1,0,1:0:0:0:
168,350,54000,6,0,P|212:343|286:278,1,140,4|2,1:0|0:1,0:0:0:0:
361,276,54450,1,0,1:0:0:0:
299,132,54750,1,0,0:1:0:0:
421,29,55050,1,2,0:1:0:0:
266,7,55350,6,0,L|229:0,2,35,0|0|0,3:0|3:0|1:0,0:0:0:0:
223,78,55650,1,2,0:1:0:0:
298,203,55950,2,0,L|288:250,2,35,2|0|2,3:0|0:0|3:0,0:0:0:0:
220,203,56250,1,2,1:0:0:0:
160,253,56400,1,0,1:0:0:0:
93,216,56550,6,0,P|75:209|56:207,2,35,2|0|2,3:0|0:0|3:0,0:0:0:0:
86,296,56850,1,0,1:0:0:0:
141,151,57150,1,2,0:0:0:0:
261,247,57450,1,2,0:1:0:0:
384,167,57750,6,0,P|390:128|395:102,2,35,2|0|0,3:0|0:0|1:0,0:0:0:0:
430,237,58050,1,2,3:1:0:0:
330,351,58350,2,0,L|319:390,2,35,0|0|0,1:0|3:0|3:0,0:0:0:0:
303,282,58650,1,10,0:1:0:0:
228,273,58800,6,0,P|191:273|142:278,1,70,2|0,1:0|3:0,0:0:0:0:
95,238,59100,1,0,1:0:0:0:
151,181,59250,1,2,0:1:0:0:
102,121,59400,2,0,P|98:76|93:41,2,70,0|2|0,0:0|1:0|0:0,0:0:0:0:
236,31,60000,6,0,P|272:25|313:23,1,70,0|0,1:0|0:0,0:0:0:0:
252,110,60300,2,0,P|216:104|175:102,1,70,0|0,1:0|0:0,0:0:0:0:
132,162,60600,1,2,0:1:0:0:
185,222,60750,2,0,P|174:272|156:381,1,140,2|0,1:3|1:0,0:0:0:0:
246,347,61200,6,0,P|287:354|317:363,2,70,2|0|8,1:0|1:0|0:0,0:0:0:0:
262,274,61650,1,0,1:0:0:0:
407,342,61950,1,0,1:0:0:0:
475,197,62250,1,0,1:0:0:0:
408,152,62400,2,0,L|370:140,2,35,8|8|8,0:0|0:0|0:0,0:0:0:0:
480,122,62700,5,2,0:1:0:0:
336,218,63000,1,8,0:0:0:0:
322,222,63075,1,0,1:0:0:0:
308,226,63150,1,0,1:0:0:0:
294,230,63225,1,0,1:0:0:0:
280,234,63300,1,0,1:0:0:0:
213,187,63450,2,0,L|206:146,2,35,0|0|8,1:0|0:0|0:0,0:0:0:0:
369,37,82800,5,0,1:0:0:0:
243,25,83100,1,0,1:0:0:0:
124,69,83400,1,0,1:0:0:0:
56,175,83700,1,0,1:0:0:0:
127,279,84000,5,0,1:0:0:0:
246,317,84300,1,0,1:0:0:0:
369,341,84600,1,0,1:0:0:0:
473,269,84900,1,0,1:0:0:0:
435,148,85200,6,0,P|384:132|349:128,1,62.9999980773926,0|0,1:0|1:0,0:0:0:0:
331,65,85500,2,0,P|291:72|257:76,1,62.9999980773926,0|0,1:0|1:0,0:0:0:0:
233,141,85800,2,0,P|239:174|243:208,1,62.9999980773926,0|0,1:0|1:0,0:0:0:0:
301,254,86100,2,0,P|296:289|291:322,1,62.9999980773926,0|0,1:0|1:0,0:0:0:0:
227,356,86400,6,0,L|193:344,3,31.4999990386963,2|0|0|0,1:0|1:0|1:0|1:0,0:0:0:0:
179,325,86700,2,0,L|146:334,3,31.4999990386963,0|0|2|0,1:0|1:0|1:0|1:0,0:0:0:0:
127,346,87000,2,0,L|89:333,3,31.4999990386963,10|8|8|8,0:1|0:0|0:0|0:0,0:0:0:0:
79,320,87300,1,2,0:1:0:0:
6,156,87600,6,0,P|64:139|171:161,1,154.000004699707,4|8,1:0|0:0,0:0:0:0:
232,205,88050,2,0,P|239:155|257:31,1,154.000004699707,2|0,1:0|0:1,0:0:0:0:
335,12,88500,2,0,P|343:56|349:92,1,77.0000023498536,10|0,0:1|1:0,0:0:0:0:
415,147,88800,6,0,P|462:132|490:125,2,77.0000023498536,2|0|10,0:1|1:0|0:1,0:0:0:0:
371,215,89250,1,2,1:0:0:0:
424,273,89400,1,0,3:0:0:0:
426,288,89475,1,0,3:0:0:0:
428,303,89550,1,0,3:0:0:0:
367,359,89700,2,0,P|319:349|268:344,1,77.0000023498536,10|0,0:1|0:0,0:0:0:0:
225,275,90000,6,0,P|213:314|198:357,2,77.0000023498536,0|0|8,1:0|1:0|0:0,0:0:0:0:
176,205,90450,1,2,1:0:0:0:
284,67,90750,1,2,1:0:0:0:
222,16,90900,2,0,B|176:21|127:26|128:26,1,77.0000023498536,8|2,0:1|0:1,0:0:0:0:
65,2,91200,5,0,1:0:0:0:
37,80,91350,2,0,L|30:117,2,38.5000011749268,10|0|0,0:1|1:0|3:0,0:0:0:0:
111,125,91650,1,2,1:0:0:0:
64,195,91800,1,8,0:0:0:0:
66,210,91875,1,0,3:0:0:0:
68,225,91950,1,0,3:0:0:0:
18,305,92100,2,0,P|62:315|105:325,1,77.0000023498536,2|8,1:0|0:0,0:0:0:0:
143,379,92400,5,0,1:0:0:0:
297,269,92700,1,10,0:1:0:0:
246,209,92850,2,0,P|256:159|267:44,1,154.000004699707,0|2,1:0|1:0,0:0:0:0:
320,0,93300,1,8,0:0:0:0:
454,107,93600,6,0,P|457:151|462:198,1,77.0000023498536,2|0,1:0|1:0,0:0:0:0:
409,243,93900,1,8,0:0:0:0:
413,257,93975,1,0,1:0:0:0:
417,271,94050,1,2,3:1:0:0:
366,339,94200,2,0,P|326:331|286:318,1,77.0000023498536,0|2,0:1|1:3,0:0:0:0:
216,363,94500,2,0,P|208:326|196:283,1,77.0000023498536,8|2,0:0|0:1,0:0:0:0:
240,221,94800,6,2,B|246:175|250:126|250:123,2,77.0000023498536,0|10|0,1:0|0:1|1:0,0:1:0:0:
156,224,95250,2,0,B|110:230|61:234|58:234,2,77.0000023498536,0|8|2,0:1|0:0|0:1,0:0:0:0:
162,136,95700,2,0,P|156:94|149:57,1,77.0000023498536,0|8,1:0|0:0,0:0:0:0:
207,12,96000,6,0,P|250:22|288:30,2,77.0000023498536,2|0|0,1:0|1:0|0:0,0:0:0:0:
121,42,96450,1,10,0:1:0:0:
13,164,96750,1,0,1:0:0:0:
63,227,96900,1,8,0:0:0:0:
58,241,96975,1,0,1:0:0:0:
53,255,97050,1,0,1:0:0:0:
94,321,97200,1,2,1:0:0:0:
235,223,97500,5,4,1:0:0:0:
311,246,97650,2,0,P|349:231|465:242,1,154.000004699707,0|0,1:0|0:0,0:0:0:0:
502,175,98100,2,0,P|501:136|510:93,1,77.0000023498536,8|0,0:0|1:0,0:0:0:0:
425,57,98400,6,0,P|425:113|417:139,1,77.0000023498536,2|0,0:1|1:0,0:0:0:0:
341,138,98700,1,8,0:0:0:0:
283,88,98850,1,2,1:0:0:0:
227,143,99000,1,0,3:0:0:0:
230,157,99075,1,0,3:0:0:0:
233,171,99150,1,2,3:0:0:0:
190,237,99300,2,0,P|182:281|174:315,1,77.0000023498536,10|0,0:1|0:0,0:0:0:0:
104,356,99600,6,0,P|64:363|26:369,2,77.0000023498536,0|0|8,0:0|1:0|0:0,0:0:0:0:
107,282,100050,1,2,1:1:0:0:
273,347,100350,1,0,1:0:0:0:
331,288,100500,2,0,P|329:245|327:204,1,77.0000023498536,10|0,0:1|0:0,0:0:0:0:
370,147,100800,5,2,1:0:0:0:
317,93,100950,1,8,0:0:0:0:
319,77,101025,1,0,1:0:0:0:
321,61,101100,1,0,3:0:0:0:
262,16,101250,1,2,1:0:0:0:
192,40,101400,2,0,L|137:24,2,38.5000011749268,8|0|0,0:0|3:0|3:0,0:0:0:0:
177,116,101700,2,0,P|187:162|189:202,1,77.0000023498536,2|8,1:3|0:0,0:0:0:0:
252,243,102000,5,0,1:0:0:0:
110,337,102300,2,0,P|74:285|7:214,1,154.000004699707,10|0,0:1|0:0,0:0:0:0:
30,142,102750,1,2,1:0:0:0:
105,123,102900,1,8,0:0:0:0:
272,176,103200,6,0,P|285:122|296:79,1,77.0000023498536,2|0,1:0|1:0,0:0:0:0:
354,60,103500,2,0,L|351:19,2,38.5000011749268,8|0|2,0:0|1:0|3:1,0:0:0:0:
421,100,103800,2,0,P|416:138|411:180,1,77.0000023498536,0|2,0:1|1:3,0:0:0:0:
470,224,104100,2,0,P|479:273|484:299,1,77.0000023498536,10|2,0:1|0:1,0:0:0:0:
432,362,104400,5,0,1:0:0:0:
370,314,104550,1,8,0:0:0:0:
318,371,104700,1,0,1:0:0:0:
221,225,105000,1,8,0:0:0:0:
275,172,105150,2,0,P|281:130|289:91,2,77.0000023498536,2|0|8,0:1|1:0|0:0,0:0:0:0:
344,219,105600,5,2,3:0:0:0:
402,167,105750,1,0,1:0:0:0:
461,215,105900,1,0,1:0:0:0:
503,150,106050,1,0,1:0:0:0:
444,100,106200,2,0,P|443:54|437:15,1,77.0000023498536,0|8,1:0|0:0,0:0:0:0:
366,66,106500,2,0,P|367:112|373:151,1,77.0000023498536,8|4,0:0|1:3,0:0:0:0:
326,211,106800,6,0,P|316:254|309:372,1,154.000004699707,4|8,1:0|0:0,0:0:0:0:
226,338,107250,1,2,0:1:0:0:
137,173,107550,2,0,L|133:121,2,38.5000011749268,2|0|2,3:1|3:0|1:3,0:0:0:0:
80,237,107850,6,0,P|72:284|69:331,1,77.0000023498536,2|0,0:1|1:0,0:0:0:0:
139,367,108150,2,0,P|147:320|150:273,1,77.0000023498536,0|8,0:0|0:0,0:0:0:0:
223,244,108450,2,0,P|259:232|385:253,1,154.000004699707,2|2,0:1|3:0,0:0:0:0:
451,208,108900,2,2,P|455:162|463:121,1,77.0000023498536,8|2,0:0|0:1,0:1:0:0:
508,69,109200,5,0,1:0:0:0:
449,15,109350,2,0,P|410:25|367:31,1,77.0000023498536,0|10,0:0|0:1,0:0:0:0:
298,4,109650,1,0,0:0:0:0:
236,153,109950,2,0,L|242:199,2,38.5000011749268,2|0|8,3:1|3:0|0:0,0:0:0:0:
326,167,110250,6,0,P|367:171|409:177,1,77.0000023498536,2|0,0:1|1:0,0:0:0:0:
377,253,110550,2,0,P|367:292|363:331,1,77.0000023498536,2|8,0:1|0:0,0:0:0:0:
426,377,110850,1,0,0:1:0:0:
249,354,111150,1,2,0:1:0:0:
193,287,111300,2,0,P|196:247|195:203,1,77.0000023498536,0|10,1:0|0:1,0:0:0:0:
144,148,111600,5,0,0:0:0:0:
261,9,111900,1,8,0:0:0:0:
329,53,112050,2,0,P|326:91|324:134,1,77.0000023498536,2|0,0:1|1:0,0:0:0:0:
387,192,112350,2,0,L|429:199,2,38.5000011749268,0|0|8,0:0|0:0|0:0,0:0:0:0:
317,241,112650,6,0,P|262:244|133:257,1,154.000004699707,2|0,0:1|0:0,0:0:0:0:
95,300,113100,1,8,0:0:0:0:
36,244,113250,2,0,P|29:161|21:69,1,154.000004699707,2|2,0:1|3:0,0:0:0:0:
84,28,113700,2,0,P|129:37|168:44,1,77.0000023498536,8|2,0:0|0:1,0:0:0:0:
220,102,114000,5,0,1:0:0:0:
363,21,114300,2,0,P|401:21|442:32,2,77.0000023498536,0|0|8,0:0|1:0|0:0,0:0:0:0:
319,94,114750,1,2,0:1:0:0:
366,162,114900,1,2,3:0:0:0:
329,232,115050,2,0,B|337:271|339:320,1,77.0000023498536,2|2,1:0|1:0,0:0:0:0:
492,361,115500,6,0,P|494:321|502:276,1,77.0000023498536,0|0,0:0|1:0,0:0:0:0:
461,213,115800,1,8,0:0:0:0:
501,144,115950,2,0,L|496:105,2,38.5000011749268,0|0|0,3:0|3:0|1:0,0:0:0:0:
413,131,116250,1,8,0:0:0:0:
339,177,116400,6,0,P|333:220|331:262,1,77.0000023498536,4|0,1:0|1:0,0:0:0:0:
363,326,116700,1,10,0:1:0:0:
191,269,117000,2,0,P|148:249|116:243,1,77.0000023498536,0|0,0:0|1:0,0:0:0:0:
66,185,117300,1,8,0:1:0:0:
181,41,117600,6,0,P|186:81|192:120,1,77.0000023498536,4|0,1:0|0:0,0:0:0:0:
271,95,117900,1,8,0:0:0:0:
391,8,118200,1,2,1:0:0:0:
502,243,118650,1,0,1:0:0:0:
441,304,118800,6,0,P|391:300|329:295,1,77.0000023498536,4|0,1:0|0:0,0:0:0:0:
283,347,119100,2,0,P|280:298|273:257,1,77.0000023498536,8|0,0:0|0:0,0:0:0:0:
335,206,119400,2,0,P|344:166|355:116,2,77.0000023498536,0|0|10,1:0|0:0|0:1,0:0:0:0:
168,138,120000,6,2,P|123:133|86:125,1,77.0000023498536,2|0,1:0|0:0,0:1:0:0:
9,132,120300,2,0,P|16:169|20:210,1,77.0000023498536,8|0,0:0|0:0,0:0:0:0:
99,246,120600,2,2,P|84:296|79:330,1,77.0000023498536,0|2,1:0|0:1,0:1:0:0:
151,369,120900,2,0,P|189:360|228:360,1,77.0000023498536,0|10,1:0|0:1,0:0:0:0:
297,321,121200,5,0,1:0:0:0:
266,250,121350,1,0,1:0:0:0:
329,205,121500,1,8,0:0:0:0:
272,44,121800,2,0,P|298:42|380:28,1,77.0000023498536,0|2,1:0|0:1,0:0:0:0:
435,4,122100,2,0,P|431:57|429:83,1,77.0000023498536,8|0,0:0|0:0,0:0:0:0:
484,153,122400,6,0,P|491:201|497:235,2,77.0000023498536,2|0|10,1:0|1:0|0:1,0:0:0:0:
397,162,122850,2,0,P|351:169|229:174,1,154.000004699707,0|2,1:0|1:0,0:0:0:0:
190,237,123300,1,10,0:1:0:0:
229,305,123450,1,0,1:0:0:0:
164,353,123600,5,0,1:0:0:0:
150,345,123675,1,0,1:0:0:0:
137,336,123750,1,0,1:0:0:0:
124,326,123825,1,0,1:0:0:0:
111,316,123900,2,0,L|69:323,3,38.5000011749268,0|0|0|0,1:0|1:0|1:0|1:0,0:0:0:0:
56,312,124200,2,0,L|46:272,3,38.5000011749268,8|0|0|0,0:0|1:0|1:0|1:0,0:0:0:0:
55,253,124500,2,0,L|62:214,3,38.5000011749268,0|0|0|0,1:0|1:0|1:0|1:0,0:0:0:0:
50,189,124800,6,0,P|51:148|41:46,1,125.999996154785,8|0,0:0|0:0,0:0:0:0:
100,3,125250,1,0,1:0:0:0:
171,44,125400,2,0,P|229:51|310:60,1,125.999996154785,8|0,0:0|1:0,0:0:0:0:
367,12,125850,1,8,0:0:0:0:
416,78,126000,1,0,1:0:0:0:
