osu file format v14

[General]
AudioFilename: audio.mp3
AudioLeadIn: 0
PreviewTime: 63600
Countdown: 0
SampleSet: Soft
StackLeniency: 0.7
Mode: 0
LetterboxInBreaks: 0
WidescreenStoryboard: 0

[Editor]
DistanceSpacing: 0.6
BeatDivisor: 4
GridSize: 32
TimelineZoom: 1.3

[Metadata]
Title:Rain
TitleUnicode:Rain
Artist:Kurubukko
ArtistUnicode:Kurubukko
Creator:Gibune
Version:Expert
Source:Dynamix
Tags:instrumental electronic くるぶっこちゃん kurubukkochan kurubukko-chan mappers' guild mpg featured artist fa
BeatmapID:3222697
BeatmapSetID:1578257

[Difficulty]
HPDrainRate:6
CircleSize:4.2
OverallDifficulty:9
ApproachRate:9.2
SliderMultiplier:1.8
SliderTickRate:1

[Events]
//Background and Video events
0,0,"bg.jpg",0,0
//Break Periods
2,63800,81600
//Storyboard Layer 0 (Background)
//Storyboard Layer 1 (Fail)
//Storyboard Layer 2 (Pass)
//Storyboard Layer 3 (Foreground)
//Storyboard Layer 4 (Overlay)
//Storyboard Sound Samples

[TimingPoints]
1200,300,4,2,1,55,1,0
10800,-111.111111111111,4,2,1,55,0,0
15600,-100,4,2,1,60,0,0
20100,-400,4,2,1,30,0,0
25200,-111.111111111111,4,2,1,55,0,0
44400,-100,4,2,1,60,0,0
62700,-400,4,2,1,60,0,0
63000,-100,4,2,1,60,0,0
82800,-111.111111111111,4,2,1,40,0,0
84000,-111.111111111111,4,2,1,50,0,0
85200,-111.111111111111,4,2,1,60,0,0
86400,-111.111111111111,4,2,1,70,0,0
87300,-200,4,2,1,70,0,0
87600,-86.9565217391304,4,2,1,80,0,0
97200,-200,4,2,1,80,0,0
97650,-86.9565217391304,4,2,1,80,0,0
106800,-86.9565217391304,4,2,1,70,0,0
117300,-200,4,2,1,70,0,0
117600,-86.9565217391304,4,2,1,70,0,0
118200,-200,4,2,1,70,0,0
118800,-86.9565217391304,4,2,1,70,0,0
124800,-133.333333333333,4,2,1,70,0,0

[Colours]
Combo1 : 17,254,176
Combo2 : 173,255,95
Combo3 : 255,88,100
Combo4 : 255,94,55

[HitObjects]
96,59,10500,5,2,0:0:0:0:
113,63,10575,1,2,0:0:0:0:
130,67,10650,1,2,0:0:0:0:
147,71,10725,1,2,0:0:0:0:
162,74,10800,2,0,L|247:63,1,80.9999975280763,4|0,1:0|0:0,0:0:0:0:
242,63,11025,1,0,0:0:0:0:
242,63,11100,1,0,1:0:0:0:
180,244,11250,1,2,0:1:0:0:
281,291,11550,5,2,0:1:0:0:
139,339,11850,1,2,0:1:0:0:
352,368,12150,5,2,0:0:0:0:
352,368,12225,1,2,0:0:0:0:
352,368,12300,2,0,P|363:321|376:284,1,80.9999975280763,0|0,1:0|0:0,0:0:0:0:
454,254,12600,1,0,1:0:0:0:
500,330,12750,1,0,0:0:0:0:
378,214,12900,1,0,1:0:0:0:
366,188,12975,1,0,0:0:0:0:
359,160,13050,1,0,0:0:0:0:
360,131,13125,1,0,0:0:0:0:
370,104,13200,6,0,P|385:62|384:20,1,80.9999975280763,0|0,1:0|0:0,0:0:0:0:
384,25,13425,1,0,0:0:0:0:
384,25,13500,1,0,0:0:0:0:
192,117,13650,1,2,0:1:0:0:
237,39,13950,5,2,0:1:0:0:
271,193,14250,1,2,0:1:0:0:
147,44,14550,5,0,0:0:0:0:
147,44,14625,1,0,0:0:0:0:
147,44,14700,2,0,P|103:33|51:28,1,80.9999975280763,0|0,1:0|0:0,0:0:0:0:
20,128,15000,1,0,1:0:0:0:
27,159,15075,1,0,0:0:0:0:
39,189,15150,1,0,0:0:0:0:
60,213,15225,1,0,0:0:0:0:
76,240,15300,1,0,1:0:0:0:
84,271,15375,1,0,0:0:0:0:
84,303,15450,1,0,0:0:0:0:
75,334,15525,1,0,0:0:0:0:
52,362,15600,5,8,0:0:0:0:
226,270,15750,1,0,1:0:0:0:
226,270,15825,1,0,0:0:0:0:
226,270,15900,1,8,0:0:0:0:
162,202,16050,1,0,1:0:0:0:
299,61,16200,5,8,0:0:0:0:
276,162,16350,1,0,1:0:0:0:
468,191,16500,5,8,0:0:0:0:
491,90,16650,1,0,1:0:0:0:
384,125,16800,5,8,0:0:0:0:
434,313,16950,1,0,1:0:0:0:
434,313,17025,1,0,0:0:0:0:
434,313,17100,1,8,0:0:0:0:
192,309,17250,6,0,L|279:274,1,90,0|8,1:0|0:0,0:0:0:0:
331,359,17550,1,0,1:0:0:0:
195,212,17700,1,8,0:0:0:0:
161,199,17775,1,0,0:0:0:0:
125,192,17850,1,0,1:0:0:0:
89,189,17925,1,0,0:0:0:0:
53,196,18000,5,8,0:0:0:0:
94,178,18075,1,0,0:0:0:0:
135,160,18150,1,8,0:0:0:0:
176,142,18225,1,0,0:0:0:0:
217,124,18300,6,0,B|228:98|230:65,1,45,8|0,0:0|0:0,0:0:0:0:
144,20,18450,1,8,0:0:0:0:
144,20,18525,1,0,0:0:0:0:
144,20,18600,2,0,L|152:72,1,45,8|8,0:0|0:0,0:0:0:0:
307,150,18750,2,0,L|315:98,1,45,8|8,0:0|0:0,0:0:0:0:
202,147,18900,5,8,0:0:0:0:
209,191,18975,1,8,0:0:0:0:
216,235,19050,1,8,0:0:0:0:
224,279,19125,1,8,0:0:0:0:
232,323,19200,1,2,0:1:0:0:
232,323,19500,5,0,3:0:0:0:
311,366,19650,1,0,1:0:0:0:
311,366,19725,1,0,1:0:0:0:
311,366,19800,1,8,0:0:0:0:
371,311,19950,1,4,0:3:0:0:
434,361,20100,2,2,L|398:350,1,33.75,2|0,0:1|0:0,0:1:0:0:
371,311,20400,5,0,1:0:0:0:
371,311,21600,1,2,0:0:0:0:
371,311,22500,1,0,0:0:0:0:
371,311,23700,1,0,0:0:0:0:
371,311,24300,1,2,0:0:0:0:
371,311,25200,5,0,1:0:0:0:
448,268,25350,1,0,0:0:0:0:
376,214,25500,1,8,0:0:0:0:
298,257,25650,2,0,P|244:264|125:283,1,161.999995056153,0|0,1:0|0:0,0:0:0:0:
79,335,26100,1,0,1:0:0:0:
13,191,26250,6,0,P|54:203|100:217,1,80.9999975280763,8|0,0:0|0:0,0:0:0:0:
192,170,26550,1,0,1:0:0:0:
214,250,26700,1,8,0:0:0:0:
111,189,26850,1,0,1:0:0:0:
360,10,27150,5,2,1:3:0:0:
394,92,27300,1,0,0:0:0:0:
445,24,27450,5,8,0:0:0:0:
312,76,27600,1,0,1:0:0:0:
337,162,27750,1,0,1:0:0:0:
435,117,27900,1,10,0:1:0:0:
210,107,28050,1,0,1:0:0:0:
210,107,28500,5,0,1:0:0:0:
58,213,28650,2,0,P|149:237|217:264,1,161.999995056153,8|0,0:0|1:0,0:0:0:0:
310,229,29100,1,8,0:0:0:0:
266,352,29250,1,0,1:0:0:0:
193,269,29400,1,0,1:0:0:0:
456,368,29700,5,0,1:0:0:0:
507,312,29850,1,8,0:0:0:0:
335,241,30000,6,2,B|349:266|341:290|341:290|353:312|353:312|348:334|359:358,1,121.499996292114,0|0,1:0|0:0,0:1:0:0:
358,356,30300,1,8,0:0:0:0:
419,211,30450,1,2,1:0:0:0:
256,184,30600,1,0,0:0:0:0:
246,259,30750,1,0,0:0:0:0:
338,218,30900,1,0,1:0:0:0:
284,69,31050,1,8,0:0:0:0:
284,69,31350,5,0,1:0:0:0:
176,180,31500,1,8,0:0:0:0:
260,160,31650,1,0,1:0:0:0:
260,160,31950,2,0,L|295:246,1,80.9999975280763,2|0,1:3|0:0,0:0:0:0:
143,288,32250,1,8,0:0:0:0:
143,288,32400,1,0,1:0:0:0:
271,372,32550,5,0,1:0:0:0:
220,268,32700,1,10,0:1:0:0:
168,366,32850,1,0,1:0:0:0:
324,314,33000,1,0,0:0:0:0:
324,314,33300,5,0,1:0:0:0:
168,135,33450,2,0,B|153:175|153:175|164:222,1,80.9999975280763,8|0,0:0|0:0,0:0:0:0:
239,180,33750,1,0,1:0:0:0:
82,109,33900,1,8,0:0:0:0:
19,157,34050,1,0,1:0:0:0:
48,3,34200,5,0,1:0:0:0:
70,15,34425,1,0,1:0:0:0:
94,30,34650,1,8,0:0:0:0:
196,8,34800,6,0,P|202:52|206:95,1,80.9999975280763,4|0,1:0|0:0,0:0:0:0:
205,88,35025,1,0,0:0:0:0:
205,88,35100,1,8,0:0:0:0:
95,251,35250,2,0,P|114:199|221:186,1,161.999995056153,2|0,1:0|0:0,0:0:0:0:
286,136,35700,1,0,1:0:0:0:
380,278,35850,1,8,0:0:0:0:
380,278,36150,5,0,1:0:0:0:
466,233,36300,2,0,L|423:217,1,40.4999987640381,8|0,0:0|0:0,0:0:0:0:
296,278,36450,1,0,1:0:0:0:
296,278,36750,5,2,1:3:0:0:
349,192,36900,1,0,3:0:0:0:
352,176,36975,1,0,3:0:0:0:
354,160,37050,1,8,0:0:0:0:
357,144,37125,1,0,3:0:0:0:
359,127,37200,1,0,1:0:0:0:
272,160,37350,1,0,1:0:0:0:
478,143,37500,2,0,L|427:123,1,40.4999987640381,10|0,0:1|0:0,0:0:0:0:
347,48,37650,1,0,1:0:0:0:
347,48,37950,5,0,1:0:0:0:
185,105,38100,1,0,1:0:0:0:
232,184,38250,1,8,0:0:0:0:
100,5,38550,5,0,1:0:0:0:
102,29,38625,1,0,0:0:0:0:
93,51,38700,1,8,0:0:0:0:
13,113,38850,1,0,1:0:0:0:
71,198,39000,1,0,1:0:0:0:
74,222,39075,1,0,3:0:0:0:
77,246,39150,1,0,3:0:0:0:
80,270,39225,1,0,3:0:0:0:
83,294,39300,2,0,L|101:253,1,40.4999987640381,0|0,1:0|3:0,0:0:0:0:
29,366,39450,2,0,L|11:325,1,40.4999987640381,8|0,0:0|3:0,0:0:0:0:
154,358,39600,6,2,B|179:344|203:352|203:352|225:340|225:340|247:345|271:334,1,121.499996292114,2|0,1:0|0:0,0:1:0:0:
269,334,39900,1,8,0:0:0:0:
211,185,40050,1,0,1:0:0:0:
211,185,40350,2,0,L|201:228,1,40.4999987640381,0|0,3:0|0:0,0:0:0:0:
281,251,40500,1,0,1:0:0:0:
232,100,40650,2,0,L|221:15,1,80.9999975280763,8|0,0:0|0:0,0:0:0:0:
300,157,40950,5,0,1:0:0:0:
326,166,41025,1,0,0:0:0:0:
354,167,41100,1,8,0:0:0:0:
435,227,41250,1,0,1:0:0:0:
435,227,41550,6,0,L|446:181,1,40.4999987640381,2|0,1:3|0:0,0:0:0:0:
496,300,41700,1,0,3:0:0:0:
468,305,41775,1,0,3:0:0:0:
442,328,41850,1,8,0:0:0:0:
285,268,42000,5,0,1:0:0:0:
356,233,42150,1,0,1:0:0:0:
356,233,42225,1,0,0:0:0:0:
356,233,42300,1,8,0:0:0:0:
324,365,42450,1,0,1:0:0:0:
324,365,42750,5,0,1:0:0:0:
263,304,42900,1,0,1:0:0:0:
185,375,43050,1,8,0:0:0:0:
169,216,43200,6,0,B|185:254|185:254|181:299,1,80.9999975280763,2|0,0:1|1:0,0:0:0:0:
181,293,43425,1,0,3:0:0:0:
181,293,43500,1,8,0:0:0:0:
84,214,43650,1,0,1:0:0:0:
193,77,43800,5,0,1:0:0:0:
214,92,44025,1,0,1:0:0:0:
233,113,44250,1,8,0:0:0:0:
106,121,44400,6,0,P|97:74|99:29,1,90,4|0,1:0|0:0,0:0:0:0:
333,122,44700,2,0,P|342:169|340:214,1,90,10|0,0:1|0:0,0:0:0:0:
274,271,45000,1,2,1:0:0:0:
493,340,45150,1,2,0:1:0:0:
413,275,45300,2,0,L|403:370,1,90,8|0,0:0|0:0,0:0:0:0:
489,232,45600,6,0,B|459:133|513:154|479:54,1,180,2|8,1:0|0:0,0:0:0:0:
353,112,46050,1,2,0:1:0:0:
353,112,46200,2,0,P|303:98|261:94,1,90,0|0,1:0|0:0,0:0:0:0:
135,0,46500,2,0,L|148:100,1,90,8|0,0:0|0:0,0:0:0:0:
193,274,46800,5,0,1:0:0:0:
193,274,47100,2,0,B|207:231|207:231|195:182,1,90,10|0,0:1|0:0,0:0:0:0:
114,221,47400,1,2,1:0:0:0:
267,353,47550,1,2,0:1:0:0:
331,304,47700,2,0,B|373:294|373:294|425:318,1,90,8|0,0:0|0:0,0:0:0:0:
178,355,48000,6,0,L|12:323,1,135,2|0,1:0|0:0,0:0:0:0:
45,329,48300,1,8,0:0:0:0:
107,168,48450,1,2,0:1:0:0:
107,168,48600,2,0,B|117:214|117:214|103:261,1,90,0|0,1:0|0:0,0:0:0:0:
294,159,48900,1,0,1:0:0:0:
205,129,49050,1,8,0:0:0:0:
217,229,49200,5,0,1:0:0:0:
300,71,49350,1,0,1:0:0:0:
168,15,49500,2,0,L|205:128,1,90,10|0,0:1|0:0,0:0:0:0:
362,201,49800,1,2,1:0:0:0:
465,90,49950,2,0,L|365:118,1,90,2|8,0:1|0:0,0:0:0:0:
277,149,50250,1,0,0:0:0:0:
363,353,50400,6,0,P|437:344|453:222,1,180,2|8,1:0|0:0,0:0:0:0:
378,114,50850,1,0,0:0:0:0:
362,201,51000,1,0,1:0:0:0:
498,169,51150,2,0,L|446:150,1,45,2|0,3:0|0:0,0:0:0:0:
288,57,51300,2,0,L|307:166,1,90,10|0,0:1|0:0,0:0:0:0:
290,251,51600,5,0,1:0:0:0:
31,230,51900,2,0,P|27:183|19:139,1,90,2|0,1:0|1:0,0:0:0:0:
77,83,52200,1,8,0:0:0:0:
160,208,52350,2,0,P|152:252|148:297,1,90,2|0,0:1|1:0,0:0:0:0:
57,321,52650,1,0,0:0:0:0:
247,288,52800,6,0,P|292:293|353:366,1,135,2|0,1:0|0:0,0:0:0:0:
350,355,53100,1,0,3:0:0:0:
271,185,53250,1,10,0:1:0:0:
323,97,53400,1,0,1:0:0:0:
361,174,53550,1,0,1:0:0:0:
160,67,53700,1,0,1:0:0:0:
124,69,53775,1,0,1:0:0:0:
90,81,53850,1,0,1:0:0:0:
64,106,53925,1,0,1:0:0:0:
50,139,54000,6,0,P|61:192|66:246,1,90,4|0,1:0|0:0,0:0:0:0:
241,263,54300,1,2,0:1:0:0:
159,291,54450,2,2,P|148:344|143:398,1,90,0|10,1:0|0:1,0:1:0:0:
322,227,54750,2,0,P|373:240|419:257,1,90,0|2,0:1|0:1,0:0:0:0:
206,181,55050,2,0,P|200:134|204:85,1,90,2|0,0:1|1:0,0:0:0:0:
438,19,55350,5,0,3:0:0:0:
431,45,55425,1,0,3:0:0:0:
438,70,55500,1,0,1:0:0:0:
287,109,55650,2,0,P|336:116|388:132,1,90,2|8,0:1|0:0,0:0:0:0:
441,195,55950,1,2,3:0:0:0:
447,221,56025,1,0,0:0:0:0:
442,247,56100,1,2,3:0:0:0:
511,139,56250,1,2,1:0:0:0:
346,215,56400,5,0,1:0:0:0:
460,335,56550,1,2,3:0:0:0:
486,337,56625,1,0,0:0:0:0:
510,347,56700,1,2,3:0:0:0:
314,369,56850,2,2,B|300:327|300:327|309:278,1,90,0|10,1:0|0:1,0:1:0:0:
215,129,57150,2,0,B|229:171|229:171|220:220,1,90,2|2,0:0|3:1,0:0:0:0:
47,268,57450,2,0,B|94:257|94:257|140:268,1,90,2|0,0:1|3:0,0:0:0:0:
310,147,57750,5,2,3:0:0:0:
317,121,57825,1,0,0:0:0:0:
307,95,57900,1,0,1:0:0:0:
114,8,58050,2,0,L|124:101,1,90,2|8,3:1|0:0,0:0:0:0:
213,190,58350,1,0,1:0:0:0:
220,215,58425,1,0,3:0:0:0:
221,241,58500,1,0,3:0:0:0:
134,266,58650,1,10,0:1:0:0:
342,362,58800,5,2,1:0:0:0:
472,294,58950,1,0,3:0:0:0:
472,294,59025,1,0,3:0:0:0:
472,294,59100,1,0,1:0:0:0:
344,114,59250,2,2,B|340:214|381:198|379:306,1,180,2|2,0:1|1:0,0:1:0:0:
512,186,59700,2,0,P|467:171|404:164,1,90
274,208,60000,6,0,L|257:321,1,90,0|0,1:0|0:0,0:0:0:0:
203,154,60300,2,0,L|189:65,1,90,0|0,1:0|0:0,0:0:0:0:
171,248,60600,1,2,0:1:0:0:
301,122,60750,1,2,1:3:0:0:
301,122,61050,1,0,1:0:0:0:
100,29,61200,5,2,1:0:0:0:
107,117,61350,1,0,1:0:0:0:
189,65,61500,1,8,0:0:0:0:
22,82,61650,2,0,L|13:189,1,90,0|0,1:0|0:0,0:0:0:0:
201,338,61950,2,0,L|193:248,1,90,0|0,1:0|0:0,0:0:0:0:
92,216,62250,2,0,L|100:272,1,45,0|0,1:0|0:0,0:0:0:0:
288,273,62400,5,8,0:0:0:0:
308,232,62475,1,8,0:0:0:0:
299,187,62550,1,8,0:0:0:0:
201,91,62700,2,2,L|194:122,1,22.5,2|0,0:1|1:0,0:1:0:0:
315,65,63000,1,8,0:0:0:0:
341,61,63075,1,0,1:0:0:0:
367,65,63150,1,0,1:0:0:0:
390,79,63225,1,0,1:0:0:0:
406,100,63300,1,0,1:0:0:0:
485,246,63450,1,0,1:0:0:0:
492,229,63525,1,0,0:0:0:0:
487,211,63600,1,8,0:0:0:0:
336,126,82800,5,0,1:0:0:0:
265,85,83100,1,0,1:0:0:0:
184,82,83400,1,0,1:0:0:0:
133,18,83700,1,0,1:0:0:0:
56,43,84000,5,0,1:0:0:0:
63,123,84300,1,0,1:0:0:0:
122,177,84600,1,0,1:0:0:0:
83,248,84900,1,0,1:0:0:0:
136,308,85200,5,0,1:0:0:0:
216,297,85350,1,0,1:0:0:0:
265,232,85500,1,0,1:0:0:0:
342,209,85650,1,0,1:0:0:0:
428,231,85800,1,0,1:0:0:0:
428,231,85875,1,0,1:0:0:0:
428,231,85950,1,0,1:0:0:0:
483,172,86100,1,0,1:0:0:0:
468,92,86250,1,0,1:0:0:0:
390,68,86400,5,2,1:0:0:0:
370,74,86475,1,0,1:0:0:0:
350,80,86550,1,0,1:0:0:0:
331,87,86625,1,0,1:0:0:0:
311,93,86700,1,0,1:0:0:0:
292,100,86775,1,0,1:0:0:0:
273,107,86850,1,2,1:0:0:0:
254,114,86925,1,0,1:0:0:0:
235,121,87000,5,10,0:1:0:0:
266,95,87075,1,8,0:0:0:0:
297,70,87150,1,8,0:0:0:0:
329,45,87225,1,8,0:0:0:0:
361,20,87300,2,2,L|300:34,1,45,2|0,0:1|0:0,0:1:0:0:
355,184,87600,6,0,P|371:242|375:288,1,103.500001974106,4|0,1:0|0:0,0:0:0:0:
440,339,87900,1,8,0:0:0:0:
229,280,88050,2,0,P|179:267|123:260,1,103.500001974106,2|0,1:0|0:0,0:0:0:0:
53,308,88350,1,0,0:1:0:0:
151,90,88500,1,10,0:1:0:0:
171,166,88650,1,0,1:0:0:0:
71,89,88800,5,2,0:1:0:0:
223,57,88950,1,0,1:0:0:0:
255,209,89100,1,10,0:1:0:0:
103,241,89250,1,2,1:0:0:0:
131,14,89400,1,0,3:0:0:0:
131,14,89475,1,0,3:0:0:0:
131,14,89550,1,0,3:0:0:0:
373,129,89700,2,0,B|325:111|325:111|259:131,1,103.500001974106,10|0,0:1|0:0,0:0:0:0:
436,244,90000,5,0,1:0:0:0:
512,117,90150,1,0,1:0:0:0:
438,79,90300,1,8,0:0:0:0:
310,17,90450,2,0,L|336:230,1,207.000003948212,2|2,1:0|1:0,0:0:0:0:
448,346,90900,2,0,L|435:243,1,103.500001974106,8|2,0:1|0:1,0:0:0:0:
301,337,91200,5,0,1:0:0:0:
189,281,91350,1,10,0:1:0:0:
189,281,91425,1,0,1:0:0:0:
189,281,91500,1,0,3:0:0:0:
353,198,91650,1,2,1:0:0:0:
465,254,91800,1,8,0:0:0:0:
465,254,91875,1,0,3:0:0:0:
465,254,91950,1,0,3:0:0:0:
327,268,92100,1,2,1:0:0:0:
235,142,92250,1,8,0:0:0:0:
393,8,92400,6,0,L|373:118,1,103.500001974106,0|0,1:0|0:0,0:0:0:0:
236,225,92700,1,10,0:1:0:0:
157,179,92850,2,0,B|83:164|83:164|1:227,1,155.250002961159,0|0,1:0|0:0,0:0:0:0:
19,212,93150,1,2,1:0:0:0:
149,319,93300,2,0,B|223:304|223:304|286:352,1,155.250002961159,8|0,0:0|0:0,0:0:0:0:
286,352,93600,5,2,1:0:0:0:
410,235,93750,1,0,1:0:0:0:
297,128,93900,1,8,0:0:0:0:
304,158,93975,1,0,1:0:0:0:
302,189,94050,1,2,3:1:0:0:
334,269,94200,1,0,0:1:0:0:
493,224,94350,1,2,1:3:0:0:
394,211,94500,1,8,0:0:0:0:
353,356,94650,1,2,0:1:0:0:
251,254,94800,6,2,B|202:235|202:235|145:248,1,103.500001974106,0|10,1:0|0:1,0:1:0:0:
394,211,95100,2,0,B|409:160|409:160|393:109,1,103.500001974106,0|0,1:0|0:1,0:0:0:0:
458,65,95400,1,8,0:0:0:0:
254,26,95550,2,0,L|270:140,1,103.500001974106,2|0,0:1|1:0,0:0:0:0:
283,278,95850,1,8,0:0:0:0:
70,166,96000,5,2,1:0:0:0:
137,90,96150,1,0,1:0:0:0:
165,189,96300,1,0,0:0:0:0:
47,132,96450,2,0,L|72:15,1,103.500001974106,10|0,0:1|3:0,0:0:0:0:
70,25,96675,1,0,3:0:0:0:
72,20,96750,1,0,1:0:0:0:
210,120,96900,1,8,0:0:0:0:
120,258,97050,1,0,1:0:0:0:
259,218,97200,6,2,L|190:200,1,67.5,2|0,1:0|0:0,0:1:0:0:
165,189,97500,5,4,1:0:0:0:
338,369,97650,2,0,B|322:318|322:318|339:265,1,103.500001974106,0|0,1:0|0:0,0:0:0:0:
469,222,97950,1,0,0:0:0:0:
484,303,98100,1,8,0:0:0:0:
354,182,98250,1,0,1:0:0:0:
434,12,98400,5,2,0:1:0:0:
507,70,98550,1,0,1:0:0:0:
416,106,98700,1,8,0:0:0:0:
246,36,98850,2,0,B|299:20|299:20|348:36,1,103.500001974106,2|0,1:0|3:0,0:0:0:0:
344,34,99075,1,0,3:0:0:0:
344,34,99150,1,2,3:0:0:0:
481,207,99300,2,0,B|428:191|428:191|379:207,1,103.500001974106,10|0,0:1|0:0,0:0:0:0:
281,152,99600,5,0,0:0:0:0:
183,208,99750,1,0,1:0:0:0:
286,256,99900,1,8,0:0:0:0:
190,98,100050,2,0,B|118:74|118:74|35:112,1,155.250002961159,2|0,1:1|0:0,0:0:0:0:
45,107,100350,1,0,1:0:0:0:
263,27,100500,2,0,L|278:145,1,103.500001974106,10|0,0:1|0:0,0:0:0:0:
382,205,100800,5,2,1:0:0:0:
221,320,100950,1,8,0:0:0:0:
190,312,101025,1,0,1:0:0:0:
158,312,101100,1,0,3:0:0:0:
107,232,101250,5,2,1:0:0:0:
300,370,101400,1,8,0:0:0:0:
331,362,101475,1,0,3:0:0:0:
363,362,101550,1,0,3:0:0:0:
467,276,101700,1,2,1:3:0:0:
298,205,101850,1,8,0:0:0:0:
424,95,102000,6,0,L|402:203,1,103.500001974106,0|0,1:0|0:0,0:0:0:0:
212,293,102300,2,0,L|174:105,1,155.250002961159,10|0,0:1|0:0,0:0:0:0:
181,140,102600,1,0,0:0:0:0:
385,14,102750,1,2,1:0:0:0:
326,71,102900,2,0,B|276:57|276:57|214:84,1,103.500001974106,8|0,0:0|0:1,0:0:0:0:
88,162,103200,5,2,1:0:0:0:
42,82,103350,1,0,1:0:0:0:
176,24,103500,1,8,0:0:0:0:
176,24,103575,1,0,1:0:0:0:
176,24,103650,1,2,3:1:0:0:
237,216,103800,5,0,0:1:0:0:
134,242,103950,1,2,1:3:0:0:
287,300,104100,5,10,0:1:0:0:
315,154,104250,1,2,0:1:0:0:
235,127,104400,5,0,1:0:0:0:
391,270,104550,1,8,0:0:0:0:
501,193,104700,2,0,B|450:173|450:173|379:195,1,103.500001974106,0|0,1:0|0:0,0:0:0:0:
341,85,105000,1,8,0:0:0:0:
429,0,105150,2,0,B|408:50|408:50|424:101,1,103.500001974106,2|0,0:1|1:0,0:0:0:0:
306,283,105450,1,8,0:0:0:0:
399,228,105600,5,2,3:0:0:0:
251,185,105750,1,0,1:0:0:0:
208,333,105900,1,0,1:0:0:0:
269,167,106050,5,0,1:0:0:0:
417,211,106200,1,0,1:0:0:0:
374,359,106350,1,8,0:0:0:0:
171,249,106500,5,8,0:0:0:0:
158,204,106575,1,0,1:0:0:0:
146,158,106650,1,4,1:3:0:0:
133,113,106725,1,0,1:0:0:0:
121,67,106800,6,0,L|102:185,1,103.500001974106,4|0,1:0|0:0,0:0:0:0:
263,25,107100,1,8,0:0:0:0:
318,80,107250,2,0,B|371:64|371:64|421:83,1,103.500001974106,2|0,0:1|1:0,0:0:0:0:
495,234,107550,1,2,3:1:0:0:
495,197,107625,1,0,3:0:0:0:
505,162,107700,1,2,1:3:0:0:
362,220,107850,6,0,L|388:321,1,103.500001974106,2|0,0:1|1:0,0:0:0:0:
455,365,108150,1,0,0:0:0:0:
282,284,108300,1,8,0:0:0:0:
350,137,108450,1,2,0:1:0:0:
396,237,108600,1,0,1:0:0:0:
174,162,108750,1,2,3:0:0:0:
273,94,108900,2,2,B|256:144|256:144|280:206,1,103.500001974106,8|2,0:0|0:1,0:1:0:0:
122,295,109200,5,0,1:0:0:0:
115,371,109350,1,0,0:0:0:0:
201,340,109500,2,0,L|206:226,1,103.500001974106,10|0,0:1|0:0,0:0:0:0:
57,77,109800,1,0,1:0:0:0:
89,166,109950,1,2,3:1:0:0:
64,193,110025,1,0,3:0:0:0:
56,229,110100,1,8,0:0:0:0:
189,112,110250,6,0,B|204:62|204:62|189:7,1,103.500001974106,2|0,0:1|1:0,0:0:0:0:
295,114,110550,2,0,B|281:163|281:163|296:213,1,103.500001974106,2|8,0:1|0:0,0:0:0:0:
509,126,110850,1,0,0:1:0:0:
361,62,111000,1,0,1:0:0:0:
456,36,111150,1,2,0:1:0:0:
411,153,111300,1,0,1:0:0:0:
446,64,111450,1,10,0:1:0:0:
377,238,111600,5,0,0:0:0:0:
491,328,111750,1,0,1:0:0:0:
467,242,111900,1,8,0:0:0:0:
408,318,112050,2,0,L|301:349,1,103.500001974106,2|0,0:1|1:0,0:0:0:0:
157,223,112350,1,0,0:0:0:0:
157,223,112425,1,0,0:0:0:0:
157,223,112500,1,8,0:0:0:0:
239,161,112650,6,0,L|255:271,2,103.500001974106,2|0|0,0:1|1:0|0:0,0:0:0:0:
48,48,113100,1,8,0:0:0:0:
98,113,113250,2,0,B|144:90|144:90|206:101,1,103.500001974106,2|0,0:1|1:0,0:0:0:0:
394,189,113550,1,2,3:0:0:0:
451,125,113700,1,8,0:0:0:0:
272,174,113850,1,2,0:1:0:0:
174,216,114000,6,0,L|192:378,1,155.250002961159,0|0,1:0|0:0,0:0:0:0:
191,370,114300,1,0,0:0:0:0:
271,299,114450,1,0,1:0:0:0:
101,286,114600,2,2,L|-5:263,1,103.500001974106,8|2,0:0|0:1,0:1:0:0:
257,196,114900,2,0,L|358:174,1,103.500001974106,2|2,3:0|1:0,0:0:0:0:
178,249,115200,6,0,B|164:186|164:186|176:124|176:124|156:37,1,207.000003948212,2|0,1:0|0:0,0:0:0:0:
92,122,115650,1,0,1:0:0:0:
258,89,115800,1,8,0:0:0:0:
275,229,115950,1,0,3:0:0:0:
266,264,116025,1,0,3:0:0:0:
271,299,116100,1,0,1:0:0:0:
357,261,116250,1,8,0:0:0:0:
194,174,116400,5,4,1:0:0:0:
76,237,116550,1,0,1:0:0:0:
183,191,116700,2,0,L|162:313,1,103.500001974106,10|0,0:1|0:0,0:0:0:0:
341,367,117000,1,0,0:0:0:0:
341,367,117150,1,0,1:0:0:0:
420,278,117300,2,2,L|370:288,1,45,8|2,0:1|1:0,0:1:0:0:
457,355,117600,6,0,L|472:188,1,155.250002961159,4|0,1:0|0:0,0:0:0:0:
470,200,117900,1,8,0:0:0:0:
411,31,118050,1,0,0:0:0:0:
323,87,118200,2,0,L|369:97,1,45,2|0,1:0|0:0,0:0:0:0:
366,96,118650,1,0,1:0:0:0:
160,215,118800,6,0,B|111:201|111:201|42:225,1,103.500001974106,4|0,1:0|0:0,0:0:0:0:
158,31,119100,2,0,L|174:145,1,103.500001974106,8|0,0:0|0:0,0:0:0:0:
259,211,119400,1,0,1:0:0:0:
199,295,119550,1,0,0:0:0:0:
357,384,119700,2,0,L|339:281,1,103.500001974106,10|0,0:1|0:0,0:0:0:0:
498,172,120000,6,2,B|450:153|450:153|377:170,1,103.500001974106,2|0,1:0|0:0,0:1:0:0:
247,89,120300,1,8,0:0:0:0:
292,194,120450,1,0,0:0:0:0:
339,98,120600,2,2,B|355:48|355:48|338:-3,1,103.500001974106,0|2,1:0|0:1,0:1:0:0:
200,177,120900,1,0,1:0:0:0:
233,320,121050,1,10,0:1:0:0:
292,194,121200,5,0,1:0:0:0:
156,272,121350,1,0,1:0:0:0:
92,133,121500,2,0,L|113:15,1,103.500001974106,8|0,0:0|0:0,0:0:0:0:
35,1,121800,1,0,1:0:0:0:
190,85,121950,2,0,L|292:71,2,103.500001974106,2|8|0,0:1|0:0|0:0,0:0:0:0:
49,202,122400,5,2,1:0:0:0:
80,336,122550,1,0,1:0:0:0:
264,265,122700,5,10,0:1:0:0:
130,234,122850,1,0,1:0:0:0:
250,115,123000,5,0,1:0:0:0:
216,197,123150,1,2,1:0:0:0:
379,323,123300,5,10,0:1:0:0:
345,241,123450,1,0,1:0:0:0:
469,73,123600,5,0,1:0:0:0:
465,98,123675,1,0,1:0:0:0:
461,123,123750,1,0,1:0:0:0:
458,148,123825,1,0,1:0:0:0:
454,173,123900,1,0,1:0:0:0:
449,198,123975,1,0,1:0:0:0:
444,223,124050,1,0,1:0:0:0:
438,248,124125,1,0,1:0:0:0:
445,284,124200,5,8,0:0:0:0:
428,246,124275,1,0,1:0:0:0:
413,207,124350,1,0,1:0:0:0:
399,167,124425,1,0,1:0:0:0:
384,128,124500,5,0,1:0:0:0:
333,115,124575,1,0,1:0:0:0:
282,105,124650,1,0,1:0:0:0:
231,94,124725,1,0,1:0:0:0:
179,85,124800,6,0,P|162:143|165:232,1,135.000005149842,8|0,0:0|0:0,0:0:0:0:
246,257,125250,1,0,1:0:0:0:
94,364,125400,2,0,P|77:306|80:217,1,135.000005149842,8|0,0:0|1:0,0:0:0:0:
20,170,125850,1,8,0:0:0:0:
164,303,126000,5,0,1:0:0:0:
