osu file format v14

[General]
AudioFilename: 03. sktkut.mp3
AudioLeadIn: 0
PreviewTime: 177100
Countdown: 0
SampleSet: Normal
StackLeniency: 0.7
Mode: 1
LetterboxInBreaks: 0
WidescreenStoryboard: 0

[Editor]
DistanceSpacing: 1.5
BeatDivisor: 4
GridSize: 32
TimelineZoom: 0.9400002

[Metadata]
Title:Shiki Toki Uta
TitleUnicode:四季刻歌
Artist:Kurousagi Uru
ArtistUnicode:黒兎ウル
Creator:toara_fict
Version:Nardo's Futsuu
Source:
Tags:pop jpop j-pop japanese cover vocaloid ボーカロイド ia four seasons song tom106 kinema106 キネマ106 black vox -sapphire- c97 amamitou 甘味党 c86 wataame 綿飴 Nardoxyribonucleic Julie Lundlerol
BeatmapID:862682
BeatmapSetID:395324

[Difficulty]
HPDrainRate:6.5
CircleSize:6
OverallDifficulty:4
ApproachRate:10
SliderMultiplier:1.4
SliderTickRate:1

[Events]
//Background and Video events
0,0,"54117028_p0.jpg",0,80
//Break Periods
//Storyboard Layer 0 (Background)
//Storyboard Layer 1 (Fail)
//Storyboard Layer 2 (Pass)
//Storyboard Layer 3 (Foreground)
//Storyboard Layer 4 (Overlay)
//Storyboard Sound Samples

[TimingPoints]
9845,451.127819548872,4,1,0,80,1,0
24281,-100,4,1,0,70,0,0
38717,-100,4,1,0,80,0,0
51348,-100,4,1,0,90,0,0
53153,-100,4,1,0,100,0,1
67589,-100,4,1,0,80,0,0
89243,-100,4,1,0,70,0,0
103679,-100,4,1,0,80,0,0
116311,-100,4,1,0,90,0,0
118115,-100,4,1,0,100,0,1
132551,-100,4,1,0,60,0,0
133002,-100,4,1,0,65,0,0
133454,-100,4,1,0,70,0,0
133905,-100,4,1,0,75,0,0
134356,-100,4,1,0,80,0,0
148792,-100,4,1,0,70,0,0
163228,-100,4,1,0,60,0,0
170446,-100,4,1,0,75,0,0
174055,-100,4,1,0,90,0,0
177664,-100,4,1,0,100,0,1
192100,-100,4,1,0,80,0,0
206536,-100,4,1,0,70,0,0
208341,-100,4,1,0,80,0,0

[HitObjects]
256,192,9844,5,4,0:0:0:0:
256,192,10296,1,8,0:0:0:0:
256,192,10521,1,8,0:0:0:0:
256,192,10747,1,0,0:0:0:0:
256,192,11198,1,8,0:0:0:0:
256,192,11649,1,0,0:0:0:0:
256,192,12100,1,8,0:0:0:0:
256,192,12326,1,0,0:0:0:0:
256,192,12551,1,8,0:0:0:0:
256,192,13454,1,4,0:0:0:0:
256,192,13905,1,8,0:0:0:0:
256,192,14356,1,0,0:0:0:0:
256,192,14581,1,0,0:0:0:0:
256,192,14807,1,8,0:0:0:0:
256,192,15258,1,8,0:0:0:0:
256,192,15709,1,0,0:0:0:0:
256,192,15935,1,8,0:0:0:0:
256,192,16160,1,0,0:0:0:0:
256,192,17063,1,4,0:0:0:0:
256,192,17514,1,8,0:0:0:0:
256,192,17739,1,8,0:0:0:0:
256,192,17965,1,0,0:0:0:0:
256,192,18416,1,8,0:0:0:0:
256,192,18867,1,0,0:0:0:0:
256,192,19318,1,8,0:0:0:0:
256,192,19544,1,0,0:0:0:0:
256,192,19769,1,8,0:0:0:0:
256,192,20672,1,4,0:0:0:0:
256,192,21123,1,8,0:0:0:0:
256,192,21574,1,0,0:0:0:0:
256,192,21799,1,0,0:0:0:0:
256,192,22025,1,8,0:0:0:0:
256,192,22476,1,8,0:0:0:0:
256,192,22927,1,8,0:0:0:0:
256,192,23153,1,0,0:0:0:0:
256,192,23378,1,0,0:0:0:0:
256,192,24281,1,0,0:0:0:0:
256,192,24732,1,8,0:0:0:0:
256,192,25183,1,0,0:0:0:0:
256,192,26085,1,8,0:0:0:0:
256,192,26536,1,0,0:0:0:0:
256,192,26987,1,8,0:0:0:0:
256,192,27890,1,0,0:0:0:0:
256,192,28341,1,0,0:0:0:0:
256,192,28792,1,8,0:0:0:0:
256,192,29694,1,8,0:0:0:0:
256,192,30145,1,8,0:0:0:0:
256,192,30596,1,0,0:0:0:0:
256,192,31499,1,0,0:0:0:0:
256,192,32175,1,8,0:0:0:0:
256,192,32401,1,0,0:0:0:0:
256,192,32852,1,8,0:0:0:0:
256,192,33303,1,0,0:0:0:0:
256,192,33980,1,0,0:0:0:0:
256,192,34205,1,0,0:0:0:0:
256,192,34657,1,8,0:0:0:0:
256,192,35108,1,0,0:0:0:0:
256,192,35784,1,0,0:0:0:0:
256,192,36010,1,8,0:0:0:0:
256,192,36461,1,8,0:0:0:0:
256,192,36912,1,0,0:0:0:0:
256,192,37589,1,0,0:0:0:0:
256,192,37814,1,0,0:0:0:0:
256,192,38266,1,8,0:0:0:0:
256,192,38717,1,4,0:0:0:0:
256,192,39619,1,0,0:0:0:0:
256,192,40070,1,8,0:0:0:0:
256,192,40296,1,8,0:0:0:0:
256,192,40521,1,0,0:0:0:0:
256,192,40972,1,8,0:0:0:0:
256,192,41423,1,0,0:0:0:0:
256,192,42326,1,8,0:0:0:0:
256,192,42777,1,0,0:0:0:0:
256,192,43002,1,0,0:0:0:0:
256,192,43228,1,8,0:0:0:0:
256,192,43679,1,8,0:0:0:0:
256,192,44130,1,0,0:0:0:0:
256,192,44581,1,8,0:0:0:0:
256,192,45032,1,0,0:0:0:0:
256,192,45935,1,4,0:0:0:0:
256,192,46837,1,0,0:0:0:0:
256,192,47288,1,8,0:0:0:0:
256,192,47514,1,8,0:0:0:0:
256,192,47739,1,0,0:0:0:0:
256,192,48190,1,8,0:0:0:0:
256,192,48641,1,0,0:0:0:0:
256,192,49544,1,8,0:0:0:0:
256,192,49995,1,8,0:0:0:0:
256,192,50220,1,0,0:0:0:0:
256,192,50446,1,8,0:0:0:0:
256,192,50897,1,0,0:0:0:0:
256,192,51348,1,8,0:0:0:0:
256,192,51687,1,0,0:0:0:0:
256,192,52025,1,0,0:0:0:0:
256,192,52251,1,8,0:0:0:0:
256,192,53153,1,4,0:0:0:0:
256,192,53604,1,8,0:0:0:0:
256,192,53829,1,0,0:0:0:0:
256,192,54055,1,8,0:0:0:0:
256,192,54506,1,0,0:0:0:0:
256,192,54957,1,8,0:0:0:0:
256,192,55408,1,8,0:0:0:0:
256,192,55634,1,0,0:0:0:0:
256,192,55860,1,0,0:0:0:0:
256,192,56311,1,8,0:0:0:0:
256,192,56762,1,4,0:0:0:0:
256,192,57213,1,8,0:0:0:0:
256,192,57438,1,0,0:0:0:0:
256,192,57664,1,8,0:0:0:0:
256,192,58115,1,0,0:0:0:0:
256,192,58566,1,8,0:0:0:0:
256,192,59017,1,0,0:0:0:0:
256,192,59243,1,0,0:0:0:0:
256,192,59469,1,8,0:0:0:0:
256,192,60371,1,4,0:0:0:0:
256,192,60822,1,8,0:0:0:0:
256,192,61048,1,0,0:0:0:0:
256,192,61273,1,8,0:0:0:0:
256,192,61724,1,0,0:0:0:0:
256,192,62175,1,8,0:0:0:0:
256,192,62626,1,8,0:0:0:0:
256,192,62852,1,0,0:0:0:0:
256,192,63078,1,0,0:0:0:0:
256,192,63529,1,8,0:0:0:0:
256,192,63980,1,4,0:0:0:0:
256,192,64431,1,8,0:0:0:0:
256,192,64657,1,0,0:0:0:0:
256,192,64882,1,8,0:0:0:0:
256,192,65333,1,0,0:0:0:0:
256,192,65784,1,8,0:0:0:0:
256,192,66235,1,0,0:0:0:0:
256,192,66461,1,8,0:0:0:0:
256,192,66687,1,8,0:0:0:0:
256,192,67589,1,8,0:0:0:0:
256,192,68491,1,8,0:0:0:0:
256,192,69393,1,0,0:0:0:0:
256,192,69844,1,0,0:0:0:0:
256,192,70070,1,0,0:0:0:0:
256,192,70296,1,8,0:0:0:0:
256,192,71198,1,8,0:0:0:0:
256,192,72100,1,0,0:0:0:0:
256,192,73002,1,0,0:0:0:0:
256,192,73341,1,0,0:0:0:0:
256,192,73679,1,0,0:0:0:0:
256,192,73905,1,8,0:0:0:0:
256,192,74807,1,4,0:0:0:0:
256,192,75258,1,8,0:0:0:0:
256,192,75484,1,8,0:0:0:0:
256,192,75709,1,0,0:0:0:0:
256,192,76160,1,8,0:0:0:0:
256,192,76611,1,0,0:0:0:0:
256,192,77063,1,8,0:0:0:0:
256,192,77288,1,0,0:0:0:0:
256,192,77514,1,8,0:0:0:0:
256,192,78416,1,4,0:0:0:0:
256,192,78867,1,8,0:0:0:0:
256,192,79318,1,0,0:0:0:0:
256,192,79544,1,0,0:0:0:0:
256,192,79769,1,8,0:0:0:0:
256,192,80220,1,8,0:0:0:0:
256,192,80672,1,0,0:0:0:0:
256,192,80897,1,8,0:0:0:0:
256,192,81123,1,0,0:0:0:0:
256,192,82025,1,4,0:0:0:0:
256,192,82476,1,8,0:0:0:0:
256,192,82702,1,8,0:0:0:0:
256,192,82927,1,0,0:0:0:0:
256,192,83378,1,8,0:0:0:0:
256,192,83829,1,0,0:0:0:0:
256,192,84281,1,8,0:0:0:0:
256,192,84506,1,0,0:0:0:0:
256,192,84732,1,8,0:0:0:0:
256,192,85634,1,4,0:0:0:0:
256,192,86085,1,8,0:0:0:0:
256,192,86536,1,0,0:0:0:0:
256,192,86762,1,0,0:0:0:0:
256,192,86987,1,8,0:0:0:0:
256,192,87438,1,8,0:0:0:0:
256,192,87890,1,8,0:0:0:0:
256,192,88115,1,0,0:0:0:0:
256,192,88341,1,0,0:0:0:0:
256,192,89243,1,4,0:0:0:0:
256,192,89694,1,8,0:0:0:0:
256,192,90145,1,0,0:0:0:0:
256,192,91048,1,8,0:0:0:0:
256,192,91499,1,0,0:0:0:0:
256,192,91950,1,8,0:0:0:0:
256,192,92852,1,0,0:0:0:0:
256,192,93303,1,0,0:0:0:0:
256,192,93754,1,8,0:0:0:0:
256,192,94205,1,0,0:0:0:0:
256,192,94657,1,8,0:0:0:0:
256,192,95108,1,8,0:0:0:0:
256,192,95559,1,0,0:0:0:0:
256,192,96461,1,0,0:0:0:0:
256,192,97138,1,8,0:0:0:0:
256,192,97363,1,0,0:0:0:0:
256,192,97814,1,8,0:0:0:0:
256,192,98266,1,0,0:0:0:0:
256,192,98942,1,0,0:0:0:0:
256,192,99168,1,0,0:0:0:0:
256,192,99619,1,8,0:0:0:0:
256,192,100070,1,0,0:0:0:0:
256,192,100747,1,0,0:0:0:0:
256,192,100972,1,8,0:0:0:0:
256,192,101423,1,8,0:0:0:0:
256,192,101875,1,0,0:0:0:0:
256,192,102551,1,0,0:0:0:0:
256,192,102777,1,0,0:0:0:0:
256,192,103228,1,8,0:0:0:0:
256,192,103679,1,4,0:0:0:0:
256,192,104581,1,0,0:0:0:0:
256,192,105032,1,8,0:0:0:0:
256,192,105258,1,8,0:0:0:0:
256,192,105484,1,0,0:0:0:0:
256,192,105935,1,8,0:0:0:0:
256,192,106386,1,0,0:0:0:0:
256,192,107288,1,8,0:0:0:0:
256,192,107739,1,0,0:0:0:0:
256,192,107965,1,0,0:0:0:0:
256,192,108190,1,8,0:0:0:0:
256,192,108641,1,8,0:0:0:0:
256,192,109093,1,0,0:0:0:0:
256,192,109544,1,8,0:0:0:0:
256,192,109995,1,0,0:0:0:0:
256,192,110897,1,4,0:0:0:0:
256,192,111799,1,0,0:0:0:0:
256,192,112251,1,8,0:0:0:0:
256,192,112476,1,8,0:0:0:0:
256,192,112702,1,0,0:0:0:0:
256,192,113153,1,8,0:0:0:0:
256,192,113604,1,0,0:0:0:0:
256,192,114506,1,8,0:0:0:0:
256,192,114957,1,8,0:0:0:0:
256,192,115183,1,0,0:0:0:0:
256,192,115408,1,8,0:0:0:0:
256,192,115860,1,0,0:0:0:0:
256,192,116311,1,8,0:0:0:0:
256,192,116649,1,0,0:0:0:0:
256,192,116987,1,0,0:0:0:0:
256,192,117213,1,8,0:0:0:0:
256,192,118115,1,4,0:0:0:0:
256,192,118566,1,8,0:0:0:0:
256,192,118792,1,0,0:0:0:0:
256,192,119017,1,8,0:0:0:0:
256,192,119469,1,0,0:0:0:0:
256,192,119920,1,8,0:0:0:0:
256,192,120371,1,8,0:0:0:0:
256,192,120596,1,0,0:0:0:0:
256,192,120822,1,0,0:0:0:0:
256,192,121273,1,8,0:0:0:0:
256,192,121724,1,4,0:0:0:0:
256,192,122175,1,8,0:0:0:0:
256,192,122401,1,0,0:0:0:0:
256,192,122626,1,8,0:0:0:0:
256,192,123078,1,0,0:0:0:0:
256,192,123529,1,8,0:0:0:0:
256,192,123754,1,8,0:0:0:0:
256,192,123980,1,0,0:0:0:0:
256,192,124205,1,0,0:0:0:0:
256,192,124431,1,8,0:0:0:0:
256,192,125333,1,4,0:0:0:0:
256,192,125784,1,8,0:0:0:0:
256,192,126010,1,0,0:0:0:0:
256,192,126235,1,8,0:0:0:0:
256,192,126687,1,0,0:0:0:0:
256,192,127138,1,8,0:0:0:0:
256,192,127589,1,8,0:0:0:0:
256,192,127814,1,0,0:0:0:0:
256,192,128040,1,0,0:0:0:0:
256,192,128491,1,8,0:0:0:0:
256,192,128942,1,4,0:0:0:0:
256,192,129393,1,8,0:0:0:0:
256,192,129619,1,0,0:0:0:0:
256,192,129844,1,8,0:0:0:0:
256,192,130296,1,0,0:0:0:0:
256,192,130747,1,8,0:0:0:0:
256,192,130972,1,0,0:0:0:0:
256,192,131198,1,0,0:0:0:0:
256,192,131423,1,8,0:0:0:0:
256,192,131649,1,8,0:0:0:0:
256,192,132551,1,4,0:0:0:0:
256,192,133002,1,0,0:0:0:0:
256,192,133454,1,0,0:0:0:0:
256,192,133679,1,0,0:0:0:0:
256,192,133905,1,0,0:0:0:0:
256,192,134356,1,12,0:0:0:0:
256,192,134807,1,0,0:0:0:0:
256,192,135032,1,8,0:0:0:0:
256,192,135709,1,0,0:0:0:0:
256,192,136160,1,8,0:0:0:0:
256,192,136611,1,0,0:0:0:0:
256,192,136837,1,8,0:0:0:0:
256,192,137514,1,0,0:0:0:0:
256,192,137965,1,0,0:0:0:0:
256,192,138416,1,8,0:0:0:0:
256,192,138867,1,0,0:0:0:0:
256,192,139769,1,0,0:0:0:0:
256,192,140108,1,0,0:0:0:0:
256,192,140446,1,0,0:0:0:0:
256,192,140672,1,8,0:0:0:0:
256,192,141574,1,12,0:0:0:0:
256,192,142025,1,0,0:0:0:0:
256,192,142251,1,8,0:0:0:0:
256,192,142702,1,0,0:0:0:0:
256,192,143153,1,8,0:0:0:0:
256,192,143378,1,0,0:0:0:0:
256,192,143829,1,8,0:0:0:0:
256,192,144055,1,0,0:0:0:0:
256,192,144506,1,8,0:0:0:0:
256,192,144957,1,0,0:0:0:0:
256,192,145183,1,8,0:0:0:0:
256,192,146085,1,0,0:0:0:0:
256,192,146536,1,8,0:0:0:0:
256,192,146987,1,0,0:0:0:0:
256,192,147438,1,0,0:0:0:0:
256,192,147664,1,0,0:0:0:0:
256,192,147890,1,8,0:0:0:0:
256,192,148115,1,0,0:0:0:0:
256,192,148341,1,8,0:0:0:0:
256,192,148792,1,4,0:0:0:0:
256,192,149694,1,8,0:0:0:0:
256,192,150596,1,0,0:0:0:0:
256,192,151499,1,8,0:0:0:0:
256,192,151950,1,8,0:0:0:0:
256,192,152401,1,0,0:0:0:0:
256,192,153303,1,8,0:0:0:0:
256,192,153754,1,8,0:0:0:0:
256,192,153980,1,0,0:0:0:0:
256,192,154205,1,8,0:0:0:0:
256,192,154657,1,8,0:0:0:0:
256,192,155108,1,0,0:0:0:0:
256,192,156010,1,0,0:0:0:0:
256,192,156461,1,8,0:0:0:0:
256,192,156912,1,0,0:0:0:0:
256,192,157363,1,8,0:0:0:0:
256,192,157589,1,0,0:0:0:0:
256,192,157814,1,0,0:0:0:0:
256,192,158266,1,8,0:0:0:0:
256,192,158717,1,0,0:0:0:0:
256,192,159619,1,0,0:0:0:0:
256,192,160070,1,0,0:0:0:0:
256,192,160521,1,8,0:0:0:0:
256,192,160972,1,8,0:0:0:0:
256,192,161423,1,0,0:0:0:0:
256,192,162326,1,8,0:0:0:0:
256,192,163228,1,0,0:0:0:0:
256,192,164130,1,0,0:0:0:0:
256,192,165032,1,8,0:0:0:0:
256,192,165484,1,0,0:0:0:0:
256,192,165935,1,8,0:0:0:0:
256,192,166837,1,0,0:0:0:0:
256,192,167739,1,0,0:0:0:0:
256,192,168641,1,8,0:0:0:0:
256,192,169093,1,0,0:0:0:0:
256,192,169544,1,8,0:0:0:0:
256,192,170446,1,0,0:0:0:0:
256,192,170897,1,0,0:0:0:0:
256,192,171348,1,0,0:0:0:0:
256,192,172251,1,8,0:0:0:0:
256,192,172702,1,8,0:0:0:0:
256,192,173153,1,8,0:0:0:0:
256,192,174055,1,0,0:0:0:0:
256,192,174506,1,8,0:0:0:0:
256,192,174957,1,0,0:0:0:0:
256,192,175408,1,0,0:0:0:0:
256,192,175860,1,8,0:0:0:0:
256,192,176311,1,0,0:0:0:0:
256,192,176536,1,0,0:0:0:0:
256,192,176762,1,8,0:0:0:0:
256,192,177664,1,4,0:0:0:0:
256,192,178115,1,8,0:0:0:0:
256,192,178341,1,0,0:0:0:0:
256,192,178566,1,8,0:0:0:0:
256,192,179017,1,0,0:0:0:0:
256,192,179243,1,0,0:0:0:0:
256,192,179469,1,8,0:0:0:0:
256,192,179920,1,8,0:0:0:0:
256,192,180145,1,0,0:0:0:0:
256,192,180371,1,0,0:0:0:0:
256,192,180822,1,8,0:0:0:0:
256,192,181273,1,4,0:0:0:0:
256,192,181724,1,8,0:0:0:0:
256,192,181950,1,0,0:0:0:0:
256,192,182175,1,8,0:0:0:0:
256,192,182626,1,0,0:0:0:0:
256,192,183078,1,8,0:0:0:0:
256,192,183303,1,8,0:0:0:0:
256,192,183529,1,0,0:0:0:0:
256,192,183754,1,0,0:0:0:0:
256,192,183980,1,8,0:0:0:0:
256,192,184882,1,4,0:0:0:0:
256,192,185333,1,8,0:0:0:0:
256,192,185559,1,0,0:0:0:0:
256,192,185784,1,8,0:0:0:0:
256,192,186235,1,0,0:0:0:0:
256,192,186461,1,0,0:0:0:0:
256,192,186687,1,8,0:0:0:0:
256,192,187138,1,8,0:0:0:0:
256,192,187363,1,0,0:0:0:0:
256,192,187589,1,0,0:0:0:0:
256,192,188040,1,8,0:0:0:0:
256,192,188491,1,4,0:0:0:0:
256,192,188942,1,8,0:0:0:0:
256,192,189168,1,0,0:0:0:0:
256,192,189393,1,8,0:0:0:0:
256,192,189844,1,0,0:0:0:0:
256,192,190296,1,8,0:0:0:0:
256,192,190521,1,0,0:0:0:0:
256,192,190747,1,0,0:0:0:0:
256,192,190972,1,8,0:0:0:0:
256,192,191198,1,8,0:0:0:0:
256,192,192100,1,4,0:0:0:0:
256,192,192551,1,8,0:0:0:0:
256,192,192777,1,0,0:0:0:0:
256,192,193002,1,0,0:0:0:0:
256,192,193905,1,8,0:0:0:0:
256,192,194356,1,0,0:0:0:0:
256,192,194581,1,8,0:0:0:0:
256,192,194807,1,8,0:0:0:0:
256,192,195709,1,0,0:0:0:0:
256,192,196160,1,8,0:0:0:0:
256,192,196611,1,0,0:0:0:0:
256,192,197514,1,8,0:0:0:0:
256,192,197965,1,0,0:0:0:0:
256,192,198416,1,8,0:0:0:0:
256,192,199318,1,0,0:0:0:0:
256,192,199769,1,8,0:0:0:0:
256,192,200220,1,0,0:0:0:0:
256,192,201123,1,0,0:0:0:0:
256,192,201574,1,8,0:0:0:0:
256,192,201799,1,0,0:0:0:0:
256,192,202025,1,0,0:0:0:0:
256,192,202927,1,0,0:0:0:0:
256,192,203378,1,8,0:0:0:0:
256,192,203829,1,0,0:0:0:0:
256,192,204732,1,8,0:0:0:0:
256,192,205183,1,0,0:0:0:0:
256,192,205408,1,8,0:0:0:0:
256,192,205634,1,8,0:0:0:0:
256,192,206536,1,0,0:0:0:0:
256,192,206987,1,0,0:0:0:0:
256,192,207438,1,0,0:0:0:0:
256,192,207664,1,0,0:0:0:0:
256,192,207890,1,0,0:0:0:0:
256,192,208341,1,4,0:0:0:0:
256,192,208792,1,8,0:0:0:0:
256,192,209017,1,8,0:0:0:0:
256,192,209243,1,0,0:0:0:0:
256,192,209694,1,8,0:0:0:0:
256,192,210145,1,0,0:0:0:0:
256,192,210596,1,8,0:0:0:0:
256,192,210822,1,0,0:0:0:0:
256,192,211048,1,8,0:0:0:0:
256,192,211950,1,4,0:0:0:0:
256,192,212401,1,8,0:0:0:0:
256,192,212852,1,0,0:0:0:0:
256,192,213078,1,0,0:0:0:0:
256,192,213303,1,8,0:0:0:0:
256,192,213754,1,8,0:0:0:0:
256,192,214205,1,0,0:0:0:0:
256,192,214431,1,8,0:0:0:0:
256,192,214657,1,0,0:0:0:0:
256,192,215559,1,4,0:0:0:0:
256,192,216010,1,8,0:0:0:0:
256,192,216235,1,8,0:0:0:0:
256,192,216461,1,0,0:0:0:0:
256,192,216912,1,8,0:0:0:0:
256,192,217363,1,0,0:0:0:0:
256,192,217814,1,8,0:0:0:0:
256,192,218040,1,0,0:0:0:0:
256,192,218266,1,8,0:0:0:0:
256,192,219168,1,4,0:0:0:0:
256,192,219619,1,8,0:0:0:0:
256,192,220070,1,0,0:0:0:0:
256,192,220296,1,0,0:0:0:0:
256,192,220521,1,8,0:0:0:0:
256,192,220972,1,8,0:0:0:0:
256,192,221423,1,8,0:0:0:0:
256,192,221649,1,0,0:0:0:0:
256,192,221875,1,0,0:0:0:0:
256,192,222326,1,8,0:0:0:0:
256,192,222777,1,4,0:0:0:0:
