osu file format v14

[General]
AudioFilename: 03. sktkut.mp3
AudioLeadIn: 0
PreviewTime: 177100
Countdown: 0
SampleSet: Normal
StackLeniency: 0.7
Mode: 1
LetterboxInBreaks: 0
WidescreenStoryboard: 0

[Editor]
Bookmarks: 148792,148905,149130,149243,149469,149581,149694,149807,149920,150032,150145,150258,150371
DistanceSpacing: 1.5
BeatDivisor: 4
GridSize: 32
TimelineZoom: 2.14

[Metadata]
Title:Shiki Toki Uta
TitleUnicode:四季刻歌
Artist:Kurousagi Uru
ArtistUnicode:黒兎ウル
Creator:toara_fict
Version:Muzukashii
Source:
Tags:pop jpop j-pop japanese cover vocaloid ボーカロイド ia four seasons song tom106 kinema106 キネマ106 black vox -sapphire- c97 amamitou 甘味党 c86 wataame 綿飴 Nardoxyribonucleic Julie Lundlerol
BeatmapID:860523
BeatmapSetID:395324

[Difficulty]
HPDrainRate:6
CircleSize:6
OverallDifficulty:4.5
ApproachRate:10
SliderMultiplier:1.4
SliderTickRate:1

[Events]
//Background and Video events
0,0,"54117028_p0.jpg",0,80
//Break Periods
//Storyboard Layer 0 (Background)
//Storyboard Layer 1 (Fail)
//Storyboard Layer 2 (Pass)
//Storyboard Layer 3 (Foreground)
//Storyboard Layer 4 (Overlay)
//Storyboard Sound Samples

[TimingPoints]
9845,451.127819548872,4,1,0,100,1,0
9845,-100,4,1,0,80,0,0
24281,-100,4,1,0,70,0,0
38717,-100,4,1,0,80,0,0
51348,-100,4,1,0,90,0,0
53153,-100,4,1,0,100,0,1
67589,-100,4,1,0,80,0,0
89243,-100,4,1,0,70,0,0
103679,-100,4,1,0,80,0,0
116311,-100,4,1,0,90,0,0
118115,-100,4,1,0,100,0,1
132551,-100,4,1,0,60,0,0
133002,-100,4,1,0,65,0,0
133454,-100,4,1,0,70,0,0
133905,-100,4,1,0,75,0,0
134356,-100,4,1,0,80,0,0
148792,-100,4,1,0,70,0,0
163228,-111.111111111111,4,1,0,60,0,0
170446,-105.263157894737,4,1,0,70,0,0
172251,-105.263157894737,4,1,0,80,0,0
174055,-105.263157894737,4,1,0,90,0,0
177664,-100,4,1,0,100,0,1
192100,-100,4,1,0,80,0,0
206536,-100,4,1,0,70,0,0
208341,-100,4,1,0,80,0,0

[HitObjects]
320,128,9393,5,0,0:0:0:0:
192,128,9619,1,8,0:0:0:0:
320,256,9844,1,4,0:0:0:0:
320,128,10296,1,0,0:0:0:0:
192,128,10521,1,8,0:0:0:0:
320,128,10747,1,0,0:0:0:0:
192,128,11198,1,8,0:0:0:0:
320,128,11649,1,0,0:0:0:0:
192,128,11875,1,8,0:0:0:0:
320,128,12100,1,0,0:0:0:0:
192,128,12326,1,8,0:0:0:0:
320,128,12551,1,0,0:0:0:0:
320,128,13002,1,0,0:0:0:0:
192,128,13228,1,0,0:0:0:0:
192,256,13454,1,12,0:0:0:0:
320,128,13905,1,0,0:0:0:0:
192,128,14130,1,8,0:0:0:0:
320,128,14356,1,0,0:0:0:0:
192,128,14807,1,8,0:0:0:0:
320,128,15258,1,0,0:0:0:0:
192,128,15484,1,8,0:0:0:0:
192,128,15596,1,8,0:0:0:0:
192,128,15709,1,8,0:0:0:0:
192,128,15935,1,8,0:0:0:0:
320,128,16160,1,0,0:0:0:0:
320,128,16611,1,0,0:0:0:0:
192,128,16837,1,8,0:0:0:0:
320,256,17063,1,4,0:0:0:0:
320,128,17514,1,0,0:0:0:0:
192,128,17739,1,8,0:0:0:0:
320,128,17965,1,0,0:0:0:0:
192,128,18416,1,8,0:0:0:0:
320,128,18867,1,0,0:0:0:0:
192,128,19093,1,8,0:0:0:0:
320,128,19318,1,0,0:0:0:0:
192,128,19544,1,8,0:0:0:0:
320,128,19769,1,0,0:0:0:0:
320,128,20220,1,0,0:0:0:0:
320,128,20446,1,0,0:0:0:0:
192,256,20672,1,12,0:0:0:0:
320,128,21123,1,0,0:0:0:0:
192,128,21348,1,8,0:0:0:0:
320,128,21574,1,0,0:0:0:0:
192,128,22025,1,8,0:0:0:0:
192,128,22476,1,8,0:0:0:0:
320,128,22702,1,0,0:0:0:0:
192,128,22814,1,0,0:0:0:0:
320,128,22927,1,0,0:0:0:0:
320,128,23153,1,0,0:0:0:0:
192,128,23378,1,8,0:0:0:0:
320,128,24281,1,0,0:0:0:0:
192,128,24732,1,8,0:0:0:0:
320,128,25183,1,0,0:0:0:0:
320,128,26085,1,0,0:0:0:0:
192,128,26536,1,8,0:0:0:0:
320,128,26987,1,0,0:0:0:0:
192,128,27438,1,8,0:0:0:0:
192,128,27664,1,8,0:0:0:0:
320,128,27890,1,0,0:0:0:0:
192,128,28341,1,8,0:0:0:0:
320,128,28792,1,0,0:0:0:0:
320,128,29017,1,0,0:0:0:0:
192,128,29243,1,8,0:0:0:0:
320,128,29694,1,0,0:0:0:0:
192,128,30145,1,8,0:0:0:0:
192,128,30596,1,8,0:0:0:0:
320,128,30822,1,0,0:0:0:0:
192,128,31048,1,8,0:0:0:0:
320,128,31499,1,0,0:0:0:0:
320,128,32175,1,0,0:0:0:0:
320,128,32401,1,0,0:0:0:0:
192,128,32852,1,8,0:0:0:0:
320,128,33303,1,0,0:0:0:0:
192,128,33754,1,8,0:0:0:0:
320,128,33980,1,0,0:0:0:0:
320,128,34205,1,0,0:0:0:0:
192,128,34657,1,8,0:0:0:0:
320,128,35108,1,0,0:0:0:0:
320,128,35784,1,0,0:0:0:0:
320,128,36010,1,0,0:0:0:0:
192,128,36461,1,8,0:0:0:0:
320,128,36912,1,0,0:0:0:0:
320,128,37363,1,0,0:0:0:0:
192,128,37589,1,8,0:0:0:0:
192,128,37814,1,8,0:0:0:0:
192,128,38266,1,8,0:0:0:0:
320,256,38717,1,4,0:0:0:0:
320,128,39168,1,0,0:0:0:0:
192,128,39393,1,8,0:0:0:0:
320,128,39619,1,0,0:0:0:0:
192,128,40070,1,8,0:0:0:0:
320,128,40521,1,0,0:0:0:0:
192,128,40747,1,0,0:0:0:0:
192,128,40972,1,8,0:0:0:0:
320,128,41423,1,0,0:0:0:0:
192,128,41875,1,8,0:0:0:0:
320,128,42326,1,0,0:0:0:0:
320,128,42777,1,0,0:0:0:0:
192,128,43002,1,8,0:0:0:0:
320,128,43228,1,0,0:0:0:0:
320,128,43679,1,0,0:0:0:0:
192,128,43905,1,8,0:0:0:0:
320,128,44130,1,0,0:0:0:0:
320,128,44356,1,0,0:0:0:0:
192,128,44581,1,8,0:0:0:0:
192,128,45032,1,8,0:0:0:0:
320,128,45484,1,0,0:0:0:0:
320,256,45935,1,4,0:0:0:0:
320,128,46386,1,0,0:0:0:0:
192,128,46611,1,8,0:0:0:0:
320,128,46837,1,0,0:0:0:0:
192,128,47288,1,8,0:0:0:0:
192,128,47514,1,8,0:0:0:0:
320,128,47739,1,0,0:0:0:0:
192,128,48190,1,8,0:0:0:0:
320,128,48641,1,0,0:0:0:0:
320,128,49093,1,0,0:0:0:0:
192,128,49318,1,0,0:0:0:0:
192,128,49544,1,8,0:0:0:0:
320,128,49995,1,0,0:0:0:0:
320,128,50446,1,0,0:0:0:0:
320,128,50897,1,0,0:0:0:0:
192,128,51123,1,8,0:0:0:0:
320,256,51348,1,0,0:0:0:0:
192,128,51687,1,8,0:0:0:0:
192,128,52025,1,8,0:0:0:0:
320,128,52251,1,0,0:0:0:0:
192,128,52702,1,8,0:0:0:0:
320,128,52927,1,0,0:0:0:0:
192,256,53153,1,12,0:0:0:0:
320,128,53604,1,0,0:0:0:0:
320,128,53830,1,0,0:0:0:0:
192,128,54055,1,8,0:0:0:0:
320,128,54506,1,0,0:0:0:0:
320,128,54732,1,0,0:0:0:0:
192,128,54958,1,8,0:0:0:0:
320,128,55183,1,0,0:0:0:0:
192,128,55409,1,8,0:0:0:0:
320,128,55860,1,0,0:0:0:0:
192,128,56311,1,8,0:0:0:0:
192,128,56537,1,8,0:0:0:0:
320,256,56762,1,4,0:0:0:0:
192,128,57213,1,8,0:0:0:0:
192,128,57439,1,8,0:0:0:0:
320,128,57664,1,0,0:0:0:0:
320,128,58115,1,0,0:0:0:0:
192,128,58341,1,8,0:0:0:0:
320,128,58567,1,0,0:0:0:0:
192,128,58792,1,8,0:0:0:0:
192,128,59018,1,8,0:0:0:0:
320,128,59243,1,0,0:0:0:0:
320,128,59469,1,8,0:0:0:0:
320,128,59920,1,0,0:0:0:0:
320,128,60146,1,0,0:0:0:0:
192,256,60371,1,12,0:0:0:0:
192,128,60822,1,8,0:0:0:0:
320,128,61048,1,0,0:0:0:0:
192,128,61273,1,8,0:0:0:0:
192,128,61724,1,8,0:0:0:0:
320,128,61950,1,0,0:0:0:0:
192,128,62176,1,8,0:0:0:0:
320,128,62401,1,0,0:0:0:0:
192,128,62627,1,8,0:0:0:0:
192,128,62739,1,8,0:0:0:0:
192,128,62852,1,8,0:0:0:0:
320,128,63078,1,0,0:0:0:0:
192,128,63529,1,8,0:0:0:0:
320,256,63980,1,4,0:0:0:0:
192,128,64431,1,8,0:0:0:0:
320,128,64657,1,8,0:0:0:0:
320,128,64882,1,0,0:0:0:0:
320,128,65333,1,0,0:0:0:0:
192,128,65559,1,8,0:0:0:0:
320,128,65785,1,0,0:0:0:0:
192,128,66010,1,8,0:0:0:0:
192,128,66235,1,8,0:0:0:0:
320,128,66461,1,0,0:0:0:0:
192,128,66687,1,8,0:0:0:0:
320,128,67138,1,0,0:0:0:0:
192,128,67363,1,8,0:0:0:0:
320,128,67589,1,0,0:0:0:0:
320,128,67702,1,0,0:0:0:0:
320,128,67814,1,0,0:0:0:0:
192,128,68040,1,8,0:0:0:0:
256,192,68492,1,8,0:0:0:0:
320,128,68717,1,8,0:0:0:0:
192,128,68829,1,8,0:0:0:0:
192,128,68942,1,8,0:0:0:0:
320,128,69168,1,8,0:0:0:0:
320,128,69393,1,0,0:0:0:0:
192,128,69844,1,8,0:0:0:0:
320,128,70070,1,0,0:0:0:0:
192,128,70296,1,8,0:0:0:0:
192,128,71198,1,8,0:0:0:0:
192,128,71423,1,8,0:0:0:0:
320,128,71649,1,0,0:0:0:0:
320,128,71875,1,0,0:0:0:0:
192,128,72100,1,8,0:0:0:0:
192,128,72551,1,8,0:0:0:0:
320,128,72777,1,0,0:0:0:0:
192,256,73002,1,12,0:0:0:0:
192,256,73341,1,12,0:0:0:0:
192,256,73679,1,12,0:0:0:0:
320,256,73905,1,4,0:0:0:0:
192,128,74356,1,8,0:0:0:0:
192,128,74581,1,8,0:0:0:0:
320,256,74807,1,4,0:0:0:0:
320,128,75259,1,0,0:0:0:0:
192,128,75484,1,8,0:0:0:0:
320,128,75710,1,0,0:0:0:0:
192,128,76161,1,8,0:0:0:0:
192,128,76386,1,8,0:0:0:0:
320,128,76612,1,0,0:0:0:0:
320,128,77063,1,0,0:0:0:0:
192,128,77289,1,8,0:0:0:0:
320,128,77514,1,0,0:0:0:0:
192,128,77740,1,8,0:0:0:0:
320,128,77965,1,0,0:0:0:0:
320,128,78190,1,0,0:0:0:0:
192,256,78417,1,12,0:0:0:0:
320,128,78868,1,0,0:0:0:0:
192,128,79093,1,8,0:0:0:0:
320,128,79319,1,0,0:0:0:0:
192,128,79544,1,0,0:0:0:0:
192,128,79770,1,8,0:0:0:0:
320,128,80221,1,0,0:0:0:0:
192,128,80446,1,8,0:0:0:0:
192,128,80559,1,8,0:0:0:0:
192,128,80672,1,8,0:0:0:0:
192,128,80898,1,8,0:0:0:0:
320,128,81123,1,0,0:0:0:0:
320,128,81574,1,0,0:0:0:0:
192,128,81800,1,8,0:0:0:0:
320,256,82026,1,4,0:0:0:0:
320,128,82477,1,0,0:0:0:0:
192,128,82702,1,8,0:0:0:0:
320,128,82928,1,0,0:0:0:0:
192,128,83379,1,8,0:0:0:0:
320,128,83604,1,8,0:0:0:0:
320,128,83830,1,0,0:0:0:0:
320,128,84281,1,0,0:0:0:0:
192,128,84507,1,8,0:0:0:0:
320,128,84732,1,0,0:0:0:0:
192,128,84957,1,8,0:0:0:0:
320,128,85183,1,0,0:0:0:0:
320,128,85409,1,0,0:0:0:0:
192,256,85635,1,12,0:0:0:0:
320,128,86086,1,0,0:0:0:0:
192,128,86311,1,8,0:0:0:0:
320,128,86537,1,0,0:0:0:0:
320,128,86762,1,0,0:0:0:0:
192,128,86988,1,8,0:0:0:0:
192,128,87439,1,8,0:0:0:0:
320,128,87665,1,0,0:0:0:0:
192,128,87777,1,0,0:0:0:0:
320,128,87890,1,0,0:0:0:0:
320,128,88116,1,0,0:0:0:0:
192,128,88341,1,8,0:0:0:0:
320,128,89243,1,0,0:0:0:0:
192,128,89694,1,8,0:0:0:0:
320,128,90145,1,0,0:0:0:0:
192,128,90596,1,8,0:0:0:0:
320,128,90822,1,0,0:0:0:0:
192,128,91047,1,8,0:0:0:0:
320,128,91273,1,0,0:0:0:0:
192,128,91498,1,8,0:0:0:0:
320,128,91949,1,0,0:0:0:0:
192,128,92400,1,8,0:0:0:0:
192,128,92626,1,8,0:0:0:0:
320,128,92852,1,0,0:0:0:0:
192,128,93303,1,8,0:0:0:0:
192,128,93754,1,8,0:0:0:0:
320,128,93979,1,0,0:0:0:0:
192,128,94205,1,8,0:0:0:0:
320,128,94656,1,0,0:0:0:0:
192,128,94882,1,8,0:0:0:0:
192,128,95107,1,8,0:0:0:0:
320,128,95333,1,0,0:0:0:0:
192,128,95558,1,8,0:0:0:0:
320,128,96010,1,0,0:0:0:0:
192,128,96235,1,8,0:0:0:0:
320,128,96461,1,0,0:0:0:0:
320,128,97137,1,0,0:0:0:0:
320,128,97363,1,0,0:0:0:0:
192,128,97814,1,8,0:0:0:0:
320,128,98265,1,0,0:0:0:0:
192,128,98717,1,8,0:0:0:0:
320,128,98942,1,0,0:0:0:0:
320,128,99167,1,0,0:0:0:0:
192,128,99619,1,8,0:0:0:0:
320,128,100070,1,0,0:0:0:0:
320,128,100746,1,0,0:0:0:0:
320,128,100972,1,0,0:0:0:0:
192,128,101423,1,8,0:0:0:0:
320,128,101874,1,0,0:0:0:0:
320,128,102325,1,0,0:0:0:0:
192,128,102551,1,8,0:0:0:0:
192,128,102776,1,8,0:0:0:0:
192,128,103228,1,8,0:0:0:0:
320,256,103679,1,4,0:0:0:0:
320,128,104130,1,0,0:0:0:0:
192,128,104356,1,8,0:0:0:0:
320,128,104581,1,0,0:0:0:0:
320,128,105032,1,8,0:0:0:0:
192,128,105258,1,8,0:0:0:0:
320,128,105483,1,0,0:0:0:0:
192,128,105709,1,0,0:0:0:0:
192,128,105934,1,8,0:0:0:0:
320,128,106385,1,0,0:0:0:0:
192,128,106837,1,8,0:0:0:0:
320,128,107288,1,0,0:0:0:0:
320,128,107739,1,0,0:0:0:0:
192,128,107964,1,8,0:0:0:0:
320,128,108190,1,0,0:0:0:0:
320,128,108641,1,0,0:0:0:0:
192,128,108867,1,8,0:0:0:0:
320,128,109092,1,0,0:0:0:0:
320,128,109318,1,0,0:0:0:0:
192,128,109543,1,8,0:0:0:0:
320,128,109769,1,0,0:0:0:0:
192,128,109994,1,8,0:0:0:0:
320,128,110446,1,0,0:0:0:0:
192,128,110672,1,8,0:0:0:0:
320,256,110897,1,4,0:0:0:0:
320,128,111348,1,0,0:0:0:0:
192,128,111573,1,8,0:0:0:0:
320,128,111799,1,0,0:0:0:0:
192,128,112250,1,8,0:0:0:0:
320,128,112476,1,8,0:0:0:0:
320,128,112701,1,0,0:0:0:0:
192,128,112927,1,0,0:0:0:0:
192,128,113152,1,8,0:0:0:0:
192,128,113378,1,8,0:0:0:0:
320,128,113603,1,0,0:0:0:0:
320,128,114055,1,0,0:0:0:0:
192,128,114506,1,8,0:0:0:0:
320,128,114957,1,0,0:0:0:0:
192,128,115182,1,8,0:0:0:0:
320,128,115408,1,0,0:0:0:0:
320,128,115859,1,0,0:0:0:0:
192,128,116085,1,8,0:0:0:0:
320,256,116310,1,0,0:0:0:0:
192,128,116649,1,8,0:0:0:0:
192,128,116987,1,8,0:0:0:0:
320,128,117213,1,0,0:0:0:0:
192,128,117664,1,8,0:0:0:0:
320,128,117889,1,0,0:0:0:0:
192,256,118115,1,12,0:0:0:0:
320,128,118566,1,0,0:0:0:0:
320,128,118792,1,0,0:0:0:0:
192,128,119017,1,8,0:0:0:0:
320,128,119468,1,0,0:0:0:0:
320,128,119694,1,0,0:0:0:0:
192,128,119920,1,8,0:0:0:0:
320,128,120145,1,0,0:0:0:0:
320,128,120258,1,0,0:0:0:0:
192,128,120371,1,8,0:0:0:0:
192,128,120596,1,8,0:0:0:0:
320,128,120822,1,0,0:0:0:0:
192,128,121273,1,8,0:0:0:0:
192,128,121499,1,8,0:0:0:0:
320,256,121724,1,4,0:0:0:0:
192,128,122175,1,8,0:0:0:0:
192,128,122401,1,8,0:0:0:0:
320,128,122626,1,0,0:0:0:0:
320,128,123077,1,0,0:0:0:0:
192,128,123303,1,8,0:0:0:0:
320,128,123529,1,0,0:0:0:0:
192,128,123754,1,8,0:0:0:0:
192,128,123867,1,8,0:0:0:0:
192,128,123980,1,8,0:0:0:0:
320,128,124205,1,0,0:0:0:0:
320,128,124431,1,8,0:0:0:0:
320,128,124882,1,0,0:0:0:0:
320,128,125108,1,0,0:0:0:0:
192,256,125333,1,12,0:0:0:0:
320,128,125784,1,0,0:0:0:0:
192,128,126010,1,8,0:0:0:0:
320,128,126235,1,0,0:0:0:0:
192,128,126686,1,8,0:0:0:0:
320,128,126912,1,0,0:0:0:0:
192,128,127138,1,8,0:0:0:0:
320,128,127363,1,0,0:0:0:0:
192,128,127589,1,8,0:0:0:0:
192,128,127702,1,8,0:0:0:0:
192,128,127814,1,8,0:0:0:0:
320,128,128040,1,0,0:0:0:0:
192,128,128491,1,8,0:0:0:0:
192,128,128717,1,8,0:0:0:0:
320,256,128942,1,4,0:0:0:0:
192,128,129393,1,8,0:0:0:0:
192,128,129619,1,8,0:0:0:0:
320,128,129844,1,0,0:0:0:0:
320,128,130295,1,0,0:0:0:0:
192,128,130521,1,8,0:0:0:0:
320,128,130747,1,0,0:0:0:0:
192,128,130972,1,8,0:0:0:0:
320,128,131085,1,8,0:0:0:0:
192,128,131198,1,8,0:0:0:0:
320,128,131423,1,0,0:0:0:0:
192,128,131649,1,8,0:0:0:0:
320,128,132100,1,0,0:0:0:0:
320,128,132551,1,0,0:0:0:0:
320,128,132777,1,0,0:0:0:0:
192,128,133002,1,8,0:0:0:0:
192,128,133228,1,8,0:0:0:0:
192,128,133341,1,8,0:0:0:0:
256,192,133454,1,8,0:0:0:0:
192,128,133679,1,8,0:0:0:0:
256,192,133905,1,0,0:0:0:0:
192,128,134356,1,8,0:0:0:0:
320,128,134807,1,0,0:0:0:0:
256,192,135032,1,8,0:0:0:0:
320,128,135258,1,0,0:0:0:0:
192,128,135484,1,8,0:0:0:0:
320,128,135709,1,0,0:0:0:0:
256,192,136160,1,0,0:0:0:0:
192,128,136386,1,8,0:0:0:0:
192,128,136499,1,8,0:0:0:0:
320,128,136611,1,8,0:0:0:0:
256,192,136837,1,0,0:0:0:0:
320,128,137288,1,0,0:0:0:0:
320,128,137514,1,0,0:0:0:0:
192,128,137739,1,8,0:0:0:0:
256,192,137965,1,0,0:0:0:0:
192,128,138416,1,8,0:0:0:0:
320,128,138641,1,0,0:0:0:0:
256,192,138867,1,0,0:0:0:0:
192,128,139318,1,8,0:0:0:0:
320,128,139544,1,0,0:0:0:0:
256,192,139769,1,8,0:0:0:0:
320,128,140220,1,0,0:0:0:0:
256,192,140446,1,0,0:0:0:0:
256,192,140672,1,8,0:0:0:0:
320,128,140897,1,0,0:0:0:0:
192,128,141123,1,8,0:0:0:0:
320,128,141348,1,0,0:0:0:0:
256,192,141574,1,12,0:0:0:0:
256,192,142025,1,8,0:0:0:0:
192,128,142251,1,8,0:0:0:0:
320,128,142476,1,0,0:0:0:0:
256,192,142702,1,8,0:0:0:0:
192,128,142814,1,8,0:0:0:0:
192,128,142927,1,8,0:0:0:0:
256,192,143153,1,8,0:0:0:0:
256,192,143378,1,0,0:0:0:0:
256,192,143829,1,8,0:0:0:0:
256,192,144055,1,0,0:0:0:0:
192,128,144281,1,8,0:0:0:0:
256,192,144506,1,0,0:0:0:0:
192,128,144732,1,8,0:0:0:0:
256,192,145183,1,8,0:0:0:0:
320,128,145634,1,0,0:0:0:0:
256,192,145860,1,0,0:0:0:0:
192,128,146085,1,8,0:0:0:0:
320,128,146311,1,0,0:0:0:0:
320,128,146423,1,0,0:0:0:0:
320,128,146536,1,0,0:0:0:0:
256,192,146762,1,8,0:0:0:0:
256,192,146987,1,8,0:0:0:0:
256,192,147438,1,8,0:0:0:0:
256,192,147890,1,8,0:0:0:0:
192,128,148115,1,8,0:0:0:0:
320,128,148228,1,8,0:0:0:0:
256,192,148341,1,8,0:0:0:0:
192,128,148566,1,8,0:0:0:0:
256,192,148792,1,0,0:0:0:0:
320,128,149130,1,0,0:0:0:0:
192,128,149469,1,8,0:0:0:0:
192,128,149694,1,8,0:0:0:0:
192,128,150032,1,8,0:0:0:0:
192,128,150371,1,0,0:0:0:0:
320,128,150596,1,8,0:0:0:0:
192,128,151048,1,8,0:0:0:0:
320,128,151499,1,0,0:0:0:0:
192,128,151950,1,8,0:0:0:0:
320,128,152175,1,0,0:0:0:0:
192,128,152401,1,0,0:0:0:0:
320,128,152852,1,0,0:0:0:0:
192,128,153078,1,8,0:0:0:0:
192,128,153303,1,8,0:0:0:0:
192,128,153529,1,8,0:0:0:0:
192,128,153641,1,8,0:0:0:0:
192,128,153754,1,8,0:0:0:0:
320,128,153980,1,0,0:0:0:0:
192,128,154205,1,8,0:0:0:0:
192,128,154657,1,8,0:0:0:0:
320,128,154882,1,0,0:0:0:0:
192,128,155108,1,8,0:0:0:0:
192,128,155559,1,8,0:0:0:0:
320,128,156010,1,0,0:0:0:0:
192,128,156461,1,8,0:0:0:0:
320,128,156912,1,0,0:0:0:0:
192,128,157138,1,8,0:0:0:0:
192,128,157251,1,8,0:0:0:0:
320,128,157363,1,8,0:0:0:0:
192,128,157589,1,8,0:0:0:0:
320,128,157814,1,0,0:0:0:0:
192,128,158266,1,8,0:0:0:0:
192,128,158491,1,8,0:0:0:0:
320,128,158717,1,0,0:0:0:0:
320,128,159168,1,0,0:0:0:0:
192,128,159393,1,8,0:0:0:0:
320,128,159619,1,0,0:0:0:0:
192,128,160070,1,0,0:0:0:0:
192,128,160521,1,8,0:0:0:0:
192,128,160972,1,8,0:0:0:0:
320,128,161423,1,0,0:0:0:0:
192,128,162326,1,8,0:0:0:0:
320,128,163228,1,0,0:0:0:0:
320,128,164130,1,0,0:0:0:0:
192,128,164581,1,8,0:0:0:0:
320,128,165032,1,0,0:0:0:0:
192,128,165935,1,8,0:0:0:0:
320,128,166386,1,0,0:0:0:0:
192,128,166837,1,8,0:0:0:0:
192,128,167739,1,8,0:0:0:0:
192,128,168641,1,8,0:0:0:0:
192,128,169093,1,8,0:0:0:0:
192,128,169544,1,0,0:0:0:0:
320,128,169995,1,0,0:0:0:0:
192,128,170446,1,8,0:0:0:0:
192,128,171123,1,8,0:0:0:0:
192,128,171348,1,8,0:0:0:0:
192,128,172025,1,8,0:0:0:0:
192,128,172251,1,8,0:0:0:0:
320,128,172702,1,0,0:0:0:0:
192,128,173153,1,8,0:0:0:0:
192,128,173604,1,8,0:0:0:0:
320,128,174055,1,0,0:0:0:0:
192,128,174732,1,8,0:0:0:0:
192,128,174957,1,8,0:0:0:0:
320,128,175408,1,0,0:0:0:0:
192,128,175634,1,8,0:0:0:0:
192,128,175860,1,8,0:0:0:0:
320,128,176086,1,0,0:0:0:0:
192,128,176311,1,8,0:0:0:0:
320,128,176536,1,0,0:0:0:0:
192,128,176762,1,8,0:0:0:0:
192,128,177213,1,8,0:0:0:0:
320,128,177438,1,0,0:0:0:0:
192,256,177664,1,12,0:0:0:0:
320,128,178115,1,0,0:0:0:0:
320,128,178341,1,0,0:0:0:0:
192,128,178566,1,8,0:0:0:0:
320,128,179017,1,0,0:0:0:0:
320,128,179243,1,0,0:0:0:0:
192,128,179469,1,8,0:0:0:0:
320,128,179694,1,0,0:0:0:0:
192,128,179920,1,8,0:0:0:0:
320,128,180032,1,8,0:0:0:0:
192,128,180145,1,8,0:0:0:0:
320,128,180371,1,0,0:0:0:0:
192,128,180822,1,8,0:0:0:0:
192,128,181048,1,8,0:0:0:0:
320,256,181273,1,4,0:0:0:0:
192,128,181724,1,8,0:0:0:0:
192,128,181950,1,8,0:0:0:0:
320,128,182175,1,0,0:0:0:0:
320,128,182626,1,0,0:0:0:0:
192,128,182852,1,8,0:0:0:0:
320,128,183078,1,0,0:0:0:0:
192,128,183303,1,8,0:0:0:0:
192,128,183416,1,8,0:0:0:0:
192,128,183529,1,8,0:0:0:0:
320,128,183754,1,0,0:0:0:0:
320,128,183980,1,8,0:0:0:0:
320,128,184431,1,0,0:0:0:0:
320,128,184657,1,0,0:0:0:0:
192,256,184882,1,12,0:0:0:0:
320,128,185108,1,0,0:0:0:0:
320,128,185333,1,0,0:0:0:0:
192,128,185559,1,8,0:0:0:0:
320,128,185784,1,0,0:0:0:0:
192,128,186235,1,8,0:0:0:0:
320,128,186461,1,0,0:0:0:0:
192,128,186687,1,8,0:0:0:0:
320,128,186912,1,0,0:0:0:0:
320,128,187025,1,0,0:0:0:0:
192,128,187138,1,8,0:0:0:0:
192,128,187363,1,8,0:0:0:0:
192,128,187589,1,8,0:0:0:0:
192,128,188040,1,8,0:0:0:0:
192,128,188266,1,8,0:0:0:0:
320,256,188491,1,4,0:0:0:0:
192,128,188942,1,8,0:0:0:0:
192,128,189168,1,8,0:0:0:0:
320,128,189393,1,0,0:0:0:0:
320,128,189844,1,0,0:0:0:0:
192,128,190070,1,8,0:0:0:0:
320,128,190296,1,0,0:0:0:0:
192,128,190521,1,8,0:0:0:0:
320,128,190634,1,8,0:0:0:0:
192,128,190747,1,8,0:0:0:0:
192,128,190972,1,8,0:0:0:0:
320,128,191198,1,0,0:0:0:0:
192,128,191649,1,8,0:0:0:0:
192,128,191875,1,8,0:0:0:0:
320,128,192100,1,0,0:0:0:0:
192,128,192551,1,8,0:0:0:0:
192,128,192777,1,8,0:0:0:0:
320,128,193002,1,0,0:0:0:0:
320,128,193454,1,0,0:0:0:0:
320,128,193679,1,0,0:0:0:0:
192,128,193905,1,8,0:0:0:0:
320,128,194130,1,0,0:0:0:0:
192,128,194356,1,8,0:0:0:0:
320,128,194807,1,0,0:0:0:0:
192,128,195258,1,8,0:0:0:0:
320,128,195484,1,0,0:0:0:0:
192,128,195709,1,8,0:0:0:0:
192,128,196160,1,8,0:0:0:0:
320,128,196386,1,0,0:0:0:0:
192,128,196611,1,8,0:0:0:0:
320,128,197063,1,0,0:0:0:0:
320,128,197288,1,0,0:0:0:0:
192,128,197514,1,8,0:0:0:0:
192,128,197739,1,8,0:0:0:0:
320,128,197965,1,0,0:0:0:0:
192,128,198416,1,8,0:0:0:0:
320,128,198867,1,0,0:0:0:0:
192,128,199318,1,8,0:0:0:0:
192,128,199769,1,8,0:0:0:0:
320,128,199995,1,0,0:0:0:0:
192,128,200220,1,8,0:0:0:0:
320,128,200672,1,0,0:0:0:0:
320,128,200897,1,0,0:0:0:0:
192,128,201123,1,8,0:0:0:0:
192,128,201348,1,8,0:0:0:0:
320,128,201574,1,0,0:0:0:0:
192,128,201799,1,8,0:0:0:0:
320,128,202025,1,0,0:0:0:0:
192,128,202476,1,8,0:0:0:0:
320,128,202702,1,0,0:0:0:0:
192,128,202927,1,8,0:0:0:0:
192,128,203378,1,8,0:0:0:0:
320,128,203604,1,0,0:0:0:0:
192,128,203829,1,8,0:0:0:0:
320,128,204281,1,0,0:0:0:0:
320,128,204506,1,0,0:0:0:0:
192,128,204732,1,8,0:0:0:0:
192,128,204957,1,8,0:0:0:0:
320,128,205183,1,0,0:0:0:0:
192,128,205408,1,8,0:0:0:0:
320,128,205634,1,0,0:0:0:0:
320,128,206536,1,0,0:0:0:0:
320,128,206987,1,0,0:0:0:0:
320,128,207438,1,0,0:0:0:0:
192,128,207664,1,8,0:0:0:0:
320,128,207890,1,0,0:0:0:0:
320,128,208002,1,0,0:0:0:0:
320,128,208115,1,0,0:0:0:0:
320,256,208341,1,4,0:0:0:0:
320,128,208792,1,0,0:0:0:0:
192,128,209017,1,8,0:0:0:0:
320,128,209243,1,0,0:0:0:0:
192,128,209694,1,8,0:0:0:0:
192,128,209920,1,8,0:0:0:0:
320,128,210145,1,0,0:0:0:0:
320,128,210371,1,0,0:0:0:0:
320,128,210484,1,0,0:0:0:0:
320,128,210596,1,0,0:0:0:0:
192,128,210822,1,8,0:0:0:0:
320,128,211048,1,0,0:0:0:0:
320,128,211499,1,0,0:0:0:0:
320,128,211724,1,0,0:0:0:0:
192,256,211950,1,12,0:0:0:0:
320,128,212401,1,0,0:0:0:0:
192,128,212626,1,8,0:0:0:0:
320,128,212852,1,0,0:0:0:0:
320,128,213078,1,0,0:0:0:0:
192,128,213303,1,8,0:0:0:0:
320,128,213754,1,0,0:0:0:0:
192,128,214093,1,8,0:0:0:0:
192,128,214205,1,8,0:0:0:0:
192,128,214431,1,8,0:0:0:0:
320,128,214657,1,0,0:0:0:0:
320,128,215108,1,0,0:0:0:0:
192,128,215333,1,8,0:0:0:0:
320,256,215559,1,4,0:0:0:0:
320,128,216010,1,0,0:0:0:0:
192,128,216235,1,8,0:0:0:0:
320,128,216461,1,0,0:0:0:0:
192,128,216912,1,8,0:0:0:0:
192,128,217138,1,8,0:0:0:0:
320,128,217363,1,0,0:0:0:0:
320,128,217589,1,0,0:0:0:0:
320,128,217702,1,0,0:0:0:0:
320,128,217814,1,0,0:0:0:0:
192,128,218040,1,8,0:0:0:0:
320,128,218266,1,0,0:0:0:0:
320,128,218717,1,0,0:0:0:0:
320,128,218942,1,0,0:0:0:0:
192,256,219168,1,12,0:0:0:0:
320,128,219619,1,0,0:0:0:0:
192,128,219844,1,8,0:0:0:0:
320,128,220070,1,0,0:0:0:0:
320,128,220296,1,0,0:0:0:0:
192,128,220521,1,8,0:0:0:0:
192,128,220972,1,8,0:0:0:0:
320,128,221198,1,0,0:0:0:0:
320,128,221311,1,0,0:0:0:0:
320,128,221423,1,0,0:0:0:0:
192,128,221649,1,8,0:0:0:0:
320,128,221875,1,0,0:0:0:0:
192,128,222326,1,8,0:0:0:0:
320,256,222777,1,4,0:0:0:0:
