osu file format v14

[General]
AudioFilename: audio.mp3
AudioLeadIn: 0
PreviewTime: 68099
Countdown: 0
SampleSet: Normal
StackLeniency: 0.7
Mode: 1
LetterboxInBreaks: 0
WidescreenStoryboard: 0

[Editor]
Bookmarks: 36964,47343,70694,71991,73289,75883,77180,78478
DistanceSpacing: 0.85
BeatDivisor: 4
GridSize: 32
TimelineZoom: 2.500002

[Metadata]
Title:Rekka no Suiryoku
TitleUnicode:烈花の翠緑
Artist:Kurousagi Uru
ArtistUnicode:黒兎ウル
Creator:Prophecy
Version:Inner Oni
Source:艦隊これくしょん -艦これ-
Tags:火焔ノ水彩 C92 Tom jun-jun ゆ吉 厨房ちゃうよ 艦あにVol.6 赫灼のレジスト Faputa Fapu Nardo Nardoxyribonucleic Skylish lish
BeatmapID:1843245
BeatmapSetID:881596

[Difficulty]
HPDrainRate:7
CircleSize:5
OverallDifficulty:5.5
ApproachRate:5
SliderMultiplier:1.4
SliderTickRate:1

[Events]
//Background and Video events
0,0,"573378.png",0,0
//Break Periods
//Storyboard Layer 0 (Background)
//Storyboard Layer 1 (Fail)
//Storyboard Layer 2 (Pass)
//Storyboard Layer 3 (Foreground)
//Storyboard Layer 4 (Overlay)
//Storyboard Sound Samples

[TimingPoints]
1986,444.444444444444,4,1,0,50,1,0
16208,324.324324324324,4,1,0,80,1,0
36964,-100,4,1,0,75,0,0
57072,-102.040816326531,4,1,0,75,0,0
57180,-104.166666666667,4,1,0,75,0,0
57289,-106.382978723404,4,1,0,75,0,0
57397,-108.695652173913,4,1,0,75,0,0
57505,-111.111111111111,4,1,0,75,0,0
57613,-113.636363636364,4,1,0,75,0,0
57721,-116.279069767442,4,1,0,70,0,0
62910,-116.279069767442,4,1,0,75,0,0
65505,-100,4,1,0,75,0,0
68099,-95.2380952380952,4,1,0,90,0,1
77180,-95.2380952380952,4,1,0,90,0,0
78478,-90.9090909090909,4,1,0,90,0,1
86262,-90.9090909090909,4,1,0,80,0,1
86586,-90.9090909090909,4,1,0,70,0,1
86748,-90.9090909090909,4,1,0,75,0,1
86910,-90.9090909090909,4,1,0,60,0,1
87235,-90.9090909090909,4,1,0,50,0,1
87397,-90.9090909090909,4,1,0,45,0,1
87559,-90.9090909090909,4,1,0,40,0,1
87721,-90.9090909090909,4,1,0,35,0,1
87883,-90.9090909090909,4,1,0,30,0,1
88045,-90.9090909090909,4,1,0,25,0,1
88207,-90.9090909090909,4,1,0,20,0,1
88370,-90.9090909090909,4,1,0,15,0,1
88532,-90.9090909090909,4,1,0,10,0,1
88694,-90.9090909090909,4,1,0,5,0,1
88856,-90.9090909090909,4,1,0,5,0,0

[HitObjects]
256,192,1986,5,8,0:0:0:0:
256,192,2430,1,0,0:0:0:0:
256,192,2652,1,0,0:0:0:0:
256,192,2874,1,8,0:0:0:0:
256,192,3319,1,0,0:0:0:0:
256,192,3541,1,0,0:0:0:0:
256,192,3763,1,8,0:0:0:0:
256,192,3985,1,0,0:0:0:0:
256,192,4208,1,8,0:0:0:0:
256,192,4652,1,8,0:0:0:0:
256,192,4874,1,8,0:0:0:0:
256,192,5097,1,0,0:0:0:0:
256,192,5319,1,0,0:0:0:0:
256,192,5541,1,8,0:0:0:0:
256,192,5763,1,0,0:0:0:0:
256,192,5985,1,8,0:0:0:0:
256,192,6208,1,8,0:0:0:0:
256,192,6430,1,0,0:0:0:0:
256,192,6874,1,0,0:0:0:0:
256,192,7097,1,0,0:0:0:0:
256,192,7319,1,8,0:0:0:0:
256,192,7541,1,8,0:0:0:0:
256,192,7763,1,0,0:0:0:0:
256,192,8208,1,8,0:0:0:0:
256,192,8652,1,8,0:0:0:0:
256,192,8874,1,8,0:0:0:0:
256,192,9097,1,0,0:0:0:0:
256,192,9541,1,8,0:0:0:0:
256,192,9763,1,0,0:0:0:0:
256,192,9985,1,8,0:0:0:0:
256,192,10430,1,0,0:0:0:0:
256,192,10652,1,0,0:0:0:0:
256,192,10874,1,8,0:0:0:0:
256,192,11097,1,8,0:0:0:0:
256,192,11319,1,0,0:0:0:0:
256,192,11763,1,8,0:0:0:0:
256,192,11986,1,8,0:0:0:0:
256,192,12208,1,0,0:0:0:0:
256,192,12430,1,0,0:0:0:0:
256,192,12652,1,8,0:0:0:0:
256,192,13097,1,8,0:0:0:0:
256,192,13319,1,0,0:0:0:0:
256,192,13541,1,8,0:0:0:0:
256,192,13985,1,8,0:0:0:0:
256,192,14208,1,8,0:0:0:0:
256,192,14430,1,0,0:0:0:0:
256,192,14541,8,0,15985,0:0:0:0:
256,192,16208,5,4,0:0:0:0:
256,192,16532,1,8,0:0:0:0:
256,192,16694,1,0,0:0:0:0:
256,192,16775,1,8,0:0:0:0:
256,192,16856,1,0,0:0:0:0:
256,192,17018,1,0,0:0:0:0:
256,192,17180,1,8,0:0:0:0:
256,192,17343,1,4,0:0:0:0:
256,192,17667,1,0,0:0:0:0:
256,192,17829,1,8,0:0:0:0:
256,192,17991,1,0,0:0:0:0:
256,192,18072,1,0,0:0:0:0:
256,192,18153,1,0,0:0:0:0:
256,192,18316,1,0,0:0:0:0:
256,192,18478,1,8,0:0:0:0:
256,192,18640,1,0,0:0:0:0:
256,192,18802,1,12,0:0:0:0:
256,192,19126,1,8,0:0:0:0:
256,192,19289,1,0,0:0:0:0:
256,192,19370,1,0,0:0:0:0:
256,192,19451,1,0,0:0:0:0:
256,192,19613,1,0,0:0:0:0:
256,192,19775,1,8,0:0:0:0:
256,192,19937,1,12,0:0:0:0:
256,192,20262,1,0,0:0:0:0:
256,192,20424,1,8,0:0:0:0:
256,192,20586,1,0,0:0:0:0:
256,192,20667,1,8,0:0:0:0:
256,192,20748,1,0,0:0:0:0:
256,192,20910,1,0,0:0:0:0:
256,192,21072,1,8,0:0:0:0:
256,192,21397,1,12,0:0:0:0:
256,192,21721,1,8,0:0:0:0:
256,192,21883,1,0,0:0:0:0:
256,192,21964,1,8,0:0:0:0:
256,192,22045,1,0,0:0:0:0:
256,192,22207,1,0,0:0:0:0:
256,192,22370,1,8,0:0:0:0:
256,192,22532,1,4,0:0:0:0:
256,192,22856,1,0,0:0:0:0:
256,192,23018,1,8,0:0:0:0:
256,192,23180,1,0,0:0:0:0:
256,192,23262,1,0,0:0:0:0:
256,192,23343,1,0,0:0:0:0:
256,192,23505,1,0,0:0:0:0:
256,192,23667,1,8,0:0:0:0:
256,192,23829,1,8,0:0:0:0:
256,192,23991,1,4,0:0:0:0:
256,192,24316,1,8,0:0:0:0:
256,192,24478,1,0,0:0:0:0:
256,192,24559,1,0,0:0:0:0:
256,192,24640,1,0,0:0:0:0:
256,192,24802,1,8,0:0:0:0:
256,192,24964,1,8,0:0:0:0:
256,192,25126,1,4,0:0:0:0:
256,192,25451,1,0,0:0:0:0:
256,192,25613,1,8,0:0:0:0:
256,192,25775,1,0,0:0:0:0:
256,192,25856,1,0,0:0:0:0:
256,192,25937,1,8,0:0:0:0:
256,192,26018,1,8,0:0:0:0:
256,192,26099,1,0,0:0:0:0:
256,192,26180,1,0,0:0:0:0:
256,192,26262,1,8,0:0:0:0:
256,192,26343,1,8,0:0:0:0:
256,192,26424,1,0,0:0:0:0:
256,192,26586,1,12,0:0:0:0:
256,192,26910,1,8,0:0:0:0:
256,192,27072,1,0,0:0:0:0:
256,192,27153,1,8,0:0:0:0:
256,192,27235,1,0,0:0:0:0:
256,192,27397,1,0,0:0:0:0:
256,192,27559,1,8,0:0:0:0:
256,192,27721,1,4,0:0:0:0:
256,192,28045,1,0,0:0:0:0:
256,192,28207,1,8,0:0:0:0:
256,192,28370,1,0,0:0:0:0:
256,192,28451,1,0,0:0:0:0:
256,192,28532,1,0,0:0:0:0:
256,192,28694,1,0,0:0:0:0:
256,192,28856,1,8,0:0:0:0:
256,192,29018,1,0,0:0:0:0:
256,192,29180,1,12,0:0:0:0:
256,192,29505,1,8,0:0:0:0:
256,192,29667,1,0,0:0:0:0:
256,192,29748,1,0,0:0:0:0:
256,192,29829,1,0,0:0:0:0:
256,192,29991,1,0,0:0:0:0:
256,192,30153,1,8,0:0:0:0:
256,192,30316,1,12,0:0:0:0:
256,192,30640,1,0,0:0:0:0:
256,192,30802,1,8,0:0:0:0:
256,192,30964,1,0,0:0:0:0:
256,192,31045,1,8,0:0:0:0:
256,192,31126,1,0,0:0:0:0:
256,192,31289,1,0,0:0:0:0:
256,192,31451,1,8,0:0:0:0:
256,192,31613,1,0,0:0:0:0:
256,192,31775,1,4,0:0:0:0:
256,192,32099,1,8,0:0:0:0:
256,192,32262,1,0,0:0:0:0:
256,192,32343,1,8,0:0:0:0:
256,192,32424,1,0,0:0:0:0:
256,192,32586,1,0,0:0:0:0:
256,192,32748,1,8,0:0:0:0:
256,192,32910,1,4,0:0:0:0:
256,192,33235,1,0,0:0:0:0:
256,192,33397,1,8,0:0:0:0:
256,192,33559,1,0,0:0:0:0:
256,192,33640,1,0,0:0:0:0:
256,192,33721,1,0,0:0:0:0:
256,192,33883,1,0,0:0:0:0:
256,192,34045,1,8,0:0:0:0:
256,192,34207,1,0,0:0:0:0:
256,192,34370,1,8,0:0:0:0:
256,192,34451,1,0,0:0:0:0:
256,192,34532,1,0,0:0:0:0:
256,192,34613,1,0,0:0:0:0:
256,192,34694,1,8,0:0:0:0:
256,192,34856,1,8,0:0:0:0:
256,192,34937,1,0,0:0:0:0:
256,192,35018,1,0,0:0:0:0:
256,192,35180,1,8,0:0:0:0:
256,192,35343,1,8,0:0:0:0:
256,192,35424,1,0,0:0:0:0:
256,192,35505,1,0,0:0:0:0:
256,192,35586,1,0,0:0:0:0:
256,192,35667,1,8,0:0:0:0:
256,192,35829,1,8,0:0:0:0:
256,192,35910,1,0,0:0:0:0:
256,192,35991,1,0,0:0:0:0:
256,192,36153,1,8,0:0:0:0:
256,192,36316,1,12,0:0:0:0:
256,192,36640,1,4,0:0:0:0:
256,192,36964,1,12,0:0:0:0:
256,192,37289,1,8,0:0:0:0:
256,192,37370,1,8,0:0:0:0:
256,192,37451,1,0,0:0:0:0:
256,192,37613,1,0,0:0:0:0:
256,192,37775,1,8,0:0:0:0:
256,192,38099,1,8,0:0:0:0:
256,192,38262,1,0,0:0:0:0:
256,192,38343,1,0,0:0:0:0:
256,192,38424,1,0,0:0:0:0:
256,192,38586,1,0,0:0:0:0:
256,192,38748,1,8,0:0:0:0:
256,192,38829,1,0,0:0:0:0:
256,192,38910,1,8,0:0:0:0:
256,192,39072,1,0,0:0:0:0:
256,192,39235,1,8,0:0:0:0:
256,192,39559,1,12,0:0:0:0:
256,192,39721,1,0,0:0:0:0:
256,192,39883,1,0,0:0:0:0:
256,192,40045,1,0,0:0:0:0:
256,192,40126,1,0,0:0:0:0:
256,192,40207,1,8,0:0:0:0:
256,192,40370,1,8,0:0:0:0:
256,192,40532,1,0,0:0:0:0:
256,192,40613,1,0,0:0:0:0:
256,192,40694,1,8,0:0:0:0:
256,192,40856,1,0,0:0:0:0:
256,192,41180,1,8,0:0:0:0:
256,192,41343,1,0,0:0:0:0:
256,192,41424,1,8,0:0:0:0:
256,192,41505,1,0,0:0:0:0:
256,192,41667,1,0,0:0:0:0:
256,192,41829,1,8,0:0:0:0:
256,192,41910,1,8,0:0:0:0:
256,192,41991,1,0,0:0:0:0:
256,192,42153,1,4,0:0:0:0:
256,192,42478,1,0,0:0:0:0:
256,192,42640,1,0,0:0:0:0:
256,192,42721,1,8,0:0:0:0:
256,192,42802,1,0,0:0:0:0:
256,192,42883,1,0,0:0:0:0:
256,192,42964,1,8,0:0:0:0:
256,192,43126,1,0,0:0:0:0:
256,192,43289,1,8,0:0:0:0:
256,192,43451,1,4,0:0:0:0:
256,192,43613,1,0,0:0:0:0:
256,192,43694,1,0,0:0:0:0:
256,192,43775,1,0,0:0:0:0:
256,192,43937,1,8,0:0:0:0:
256,192,44262,1,8,0:0:0:0:
256,192,44424,1,0,0:0:0:0:
256,192,44505,1,0,0:0:0:0:
256,192,44586,1,0,0:0:0:0:
256,192,44748,1,12,0:0:0:0:
256,192,44910,1,0,0:0:0:0:
256,192,44991,1,0,0:0:0:0:
256,192,45072,1,8,0:0:0:0:
256,192,45153,1,8,0:0:0:0:
256,192,45235,1,0,0:0:0:0:
256,192,45397,1,8,0:0:0:0:
256,192,45559,1,8,0:0:0:0:
256,192,45721,1,0,0:0:0:0:
256,192,45802,1,0,0:0:0:0:
256,192,45883,1,8,0:0:0:0:
256,192,46045,1,0,0:0:0:0:
256,192,46370,1,8,0:0:0:0:
256,192,46532,1,0,0:0:0:0:
256,192,46613,1,8,0:0:0:0:
256,192,46694,1,0,0:0:0:0:
256,192,46856,1,0,0:0:0:0:
256,192,47018,1,8,0:0:0:0:
256,192,47099,1,0,0:0:0:0:
256,192,47180,1,0,0:0:0:0:
256,192,47343,1,4,0:0:0:0:
256,192,47667,1,8,0:0:0:0:
256,192,47748,1,0,0:0:0:0:
256,192,47829,1,8,0:0:0:0:
256,192,47991,1,0,0:0:0:0:
256,192,48153,1,8,0:0:0:0:
256,192,48478,1,8,0:0:0:0:
256,192,48640,1,0,0:0:0:0:
256,192,48802,1,0,0:0:0:0:
256,192,48883,1,0,0:0:0:0:
256,192,48964,1,0,0:0:0:0:
256,192,49126,1,0,0:0:0:0:
256,192,49289,1,8,0:0:0:0:
256,192,49370,1,0,0:0:0:0:
256,192,49451,1,8,0:0:0:0:
256,192,49613,1,0,0:0:0:0:
256,192,49937,1,4,0:0:0:0:
256,192,50099,1,8,0:0:0:0:
256,192,50180,1,0,0:0:0:0:
256,192,50262,1,8,0:0:0:0:
256,192,50424,1,0,0:0:0:0:
256,192,50505,1,0,0:0:0:0:
256,192,50586,1,8,0:0:0:0:
256,192,50748,1,8,0:0:0:0:
256,192,51072,1,8,0:0:0:0:
256,192,51235,1,0,0:0:0:0:
256,192,51397,1,0,0:0:0:0:
256,192,51478,1,0,0:0:0:0:
256,192,51559,1,8,0:0:0:0:
256,192,51640,1,8,0:0:0:0:
256,192,51721,1,0,0:0:0:0:
256,192,51883,1,0,0:0:0:0:
256,192,52045,1,0,0:0:0:0:
256,192,52207,1,8,0:0:0:0:
256,192,52532,1,4,0:0:0:0:
256,192,52694,1,8,0:0:0:0:
256,192,52856,1,8,0:0:0:0:
256,192,52937,1,0,0:0:0:0:
256,192,53018,1,8,0:0:0:0:
256,192,53180,1,0,0:0:0:0:
256,192,53343,1,8,0:0:0:0:
256,192,53424,1,8,0:0:0:0:
256,192,53505,1,0,0:0:0:0:
256,192,53667,1,8,0:0:0:0:
256,192,53829,1,4,0:0:0:0:
256,192,53991,1,0,0:0:0:0:
256,192,54072,1,0,0:0:0:0:
256,192,54153,1,0,0:0:0:0:
256,192,54316,1,8,0:0:0:0:
256,192,54640,1,8,0:0:0:0:
256,192,54802,1,0,0:0:0:0:
256,192,54883,1,0,0:0:0:0:
256,192,54964,1,0,0:0:0:0:
256,192,55126,1,12,0:0:0:0:
256,192,55289,1,8,0:0:0:0:
256,192,55370,1,0,0:0:0:0:
256,192,55451,1,0,0:0:0:0:
256,192,55613,1,8,0:0:0:0:
256,192,55775,1,0,0:0:0:0:
256,192,55856,1,0,0:0:0:0:
256,192,55937,1,8,0:0:0:0:
256,192,56018,1,0,0:0:0:0:
256,192,56099,1,8,0:0:0:0:
256,192,56262,1,0,0:0:0:0:
256,192,56424,1,8,0:0:0:0:
256,192,56748,1,0,0:0:0:0:
256,192,56829,1,0,0:0:0:0:
256,192,56910,1,0,0:0:0:0:
256,192,57072,1,8,0:0:0:0:
256,192,57180,1,0,0:0:0:0:
256,192,57289,1,0,0:0:0:0:
256,192,57397,1,8,0:0:0:0:
256,192,57505,1,0,0:0:0:0:
256,192,57613,1,0,0:0:0:0:
256,192,57721,1,8,0:0:0:0:
256,192,58370,1,0,0:0:0:0:
256,192,58532,1,8,0:0:0:0:
256,192,58694,1,8,0:0:0:0:
256,192,58856,1,0,0:0:0:0:
256,192,59018,1,8,0:0:0:0:
256,192,59343,1,8,0:0:0:0:
256,192,59505,1,0,0:0:0:0:
256,192,59667,1,0,0:0:0:0:
256,192,59991,1,8,0:0:0:0:
256,192,60153,1,0,0:0:0:0:
256,192,60235,1,0,0:0:0:0:
256,192,60316,1,8,0:0:0:0:
256,192,60478,1,0,0:0:0:0:
256,192,60640,1,8,0:0:0:0:
256,192,60802,1,8,0:0:0:0:
256,192,60964,1,0,0:0:0:0:
256,192,61126,1,0,0:0:0:0:
256,192,61289,1,8,0:0:0:0:
256,192,61451,1,0,0:0:0:0:
256,192,61613,1,8,0:0:0:0:
256,192,61937,1,8,0:0:0:0:
256,192,62099,1,0,0:0:0:0:
256,192,62180,1,0,0:0:0:0:
256,192,62262,1,8,0:0:0:0:
256,192,62424,1,0,0:0:0:0:
256,192,62586,1,8,0:0:0:0:
256,192,62748,1,8,0:0:0:0:
256,192,62910,1,4,0:0:0:0:
256,192,63397,1,0,0:0:0:0:
256,192,63559,1,8,0:0:0:0:
256,192,63640,1,8,0:0:0:0:
256,192,63721,1,0,0:0:0:0:
256,192,63883,1,8,0:0:0:0:
256,192,64045,1,8,0:0:0:0:
256,192,64207,1,0,0:0:0:0:
256,192,64532,1,0,0:0:0:0:
256,192,64694,1,0,0:0:0:0:
256,192,64856,1,8,0:0:0:0:
256,192,65018,1,0,0:0:0:0:
256,192,65099,1,0,0:0:0:0:
256,192,65180,1,8,0:0:0:0:
256,192,65343,1,8,0:0:0:0:
256,192,65505,1,4,0:0:0:0:
256,192,65667,1,0,0:0:0:0:
256,192,65829,1,8,0:0:0:0:
256,192,65910,1,0,0:0:0:0:
256,192,65991,1,0,0:0:0:0:
256,192,66153,1,8,0:0:0:0:
256,192,66316,1,0,0:0:0:0:
256,192,66397,1,0,0:0:0:0:
256,192,66478,1,8,0:0:0:0:
256,192,66640,1,0,0:0:0:0:
256,192,66802,1,12,0:0:0:0:
256,192,66964,1,12,0:0:0:0:
256,192,68099,1,12,0:0:0:0:
256,192,68424,1,0,0:0:0:0:
256,192,68586,1,0,0:0:0:0:
256,192,68667,1,0,0:0:0:0:
256,192,68748,1,8,0:0:0:0:
256,192,68910,1,0,0:0:0:0:
256,192,69072,1,8,0:0:0:0:
256,192,69153,1,8,0:0:0:0:
256,192,69235,1,0,0:0:0:0:
256,192,69397,1,8,0:0:0:0:
256,192,69478,1,8,0:0:0:0:
256,192,69559,1,0,0:0:0:0:
256,192,69640,1,0,0:0:0:0:
256,192,69721,1,8,0:0:0:0:
256,192,69883,1,0,0:0:0:0:
256,192,70045,1,8,0:0:0:0:
256,192,70207,1,0,0:0:0:0:
256,192,70289,1,0,0:0:0:0:
256,192,70370,1,8,0:0:0:0:
256,192,70532,1,0,0:0:0:0:
256,192,70694,1,8,0:0:0:0:
256,192,70775,1,0,0:0:0:0:
256,192,70856,1,8,0:0:0:0:
256,192,70937,1,8,0:0:0:0:
256,192,71018,1,0,0:0:0:0:
256,192,71180,1,0,0:0:0:0:
256,192,71343,1,8,0:0:0:0:
256,192,71505,1,8,0:0:0:0:
256,192,71586,1,0,0:0:0:0:
256,192,71667,1,0,0:0:0:0:
256,192,71829,1,0,0:0:0:0:
256,192,71991,1,8,0:0:0:0:
256,192,72072,1,8,0:0:0:0:
256,192,72153,1,0,0:0:0:0:
256,192,72235,1,0,0:0:0:0:
256,192,72316,1,8,0:0:0:0:
256,192,72478,1,0,0:0:0:0:
256,192,72640,1,8,0:0:0:0:
256,192,72802,1,0,0:0:0:0:
256,192,72883,1,0,0:0:0:0:
256,192,72964,1,8,0:0:0:0:
256,192,73126,1,8,0:0:0:0:
256,192,73289,1,4,0:0:0:0:
256,192,73613,1,8,0:0:0:0:
256,192,73775,1,0,0:0:0:0:
256,192,73856,1,0,0:0:0:0:
256,192,73937,1,8,0:0:0:0:
256,192,74018,1,8,0:0:0:0:
256,192,74099,1,0,0:0:0:0:
256,192,74262,1,8,0:0:0:0:
256,192,74343,1,8,0:0:0:0:
256,192,74424,1,0,0:0:0:0:
256,192,74586,1,8,0:0:0:0:
256,192,74748,1,0,0:0:0:0:
256,192,74829,1,0,0:0:0:0:
256,192,74910,1,8,0:0:0:0:
256,192,75072,1,0,0:0:0:0:
256,192,75235,1,8,0:0:0:0:
256,192,75316,1,8,0:0:0:0:
256,192,75397,1,0,0:0:0:0:
256,192,75478,1,0,0:0:0:0:
256,192,75559,1,8,0:0:0:0:
256,192,75721,1,0,0:0:0:0:
256,192,75883,1,12,0:0:0:0:
256,192,76207,1,8,0:0:0:0:
256,192,76370,1,0,0:0:0:0:
256,192,76451,1,0,0:0:0:0:
256,192,76532,1,8,0:0:0:0:
256,192,76694,1,0,0:0:0:0:
256,192,76856,1,8,0:0:0:0:
256,192,76937,1,8,0:0:0:0:
256,192,77018,1,0,0:0:0:0:
256,192,77180,1,12,0:0:0:0:
256,192,77505,1,8,0:0:0:0:
256,192,77667,1,0,0:0:0:0:
256,192,77829,1,0,0:0:0:0:
256,192,77910,1,0,0:0:0:0:
256,192,77991,1,8,0:0:0:0:
256,192,78072,1,0,0:0:0:0:
256,192,78153,1,8,0:0:0:0:
256,192,78316,1,0,0:0:0:0:
256,192,78478,1,12,0:0:0:0:
256,192,78802,1,8,0:0:0:0:
256,192,78964,1,0,0:0:0:0:
256,192,79126,1,8,0:0:0:0:
256,192,79207,1,8,0:0:0:0:
256,192,79289,1,0,0:0:0:0:
256,192,79370,1,0,0:0:0:0:
256,192,79451,1,8,0:0:0:0:
256,192,79613,1,8,0:0:0:0:
256,192,79775,1,8,0:0:0:0:
256,192,79856,1,0,0:0:0:0:
256,192,79937,1,8,0:0:0:0:
256,192,80018,1,8,0:0:0:0:
256,192,80099,1,0,0:0:0:0:
256,192,80262,1,0,0:0:0:0:
256,192,80424,1,8,0:0:0:0:
256,192,80586,1,0,0:0:0:0:
256,192,80667,1,0,0:0:0:0:
256,192,80748,1,8,0:0:0:0:
256,192,80910,1,0,0:0:0:0:
256,192,81072,1,8,0:0:0:0:
256,192,81153,1,8,0:0:0:0:
256,192,81235,1,0,0:0:0:0:
256,192,81316,1,0,0:0:0:0:
256,192,81397,1,8,0:0:0:0:
256,192,81559,1,0,0:0:0:0:
256,192,81721,1,8,0:0:0:0:
256,192,81883,1,0,0:0:0:0:
256,192,81964,1,0,0:0:0:0:
256,192,82045,1,8,0:0:0:0:
256,192,82207,1,0,0:0:0:0:
256,192,82370,1,8,0:0:0:0:
256,192,82451,1,8,0:0:0:0:
256,192,82532,1,8,0:0:0:0:
256,192,82613,1,0,0:0:0:0:
256,192,82694,1,8,0:0:0:0:
256,192,82856,1,0,0:0:0:0:
256,192,83018,1,8,0:0:0:0:
256,192,83180,1,0,0:0:0:0:
256,192,83262,1,0,0:0:0:0:
256,192,83343,1,8,0:0:0:0:
256,192,83505,1,0,0:0:0:0:
256,192,83667,1,12,0:0:0:0:
256,192,83991,1,8,0:0:0:0:
256,192,84072,1,0,0:0:0:0:
256,192,84153,1,8,0:0:0:0:
256,192,84316,1,8,0:0:0:0:
256,192,84478,1,0,0:0:0:0:
256,192,84559,1,0,0:0:0:0:
256,192,84640,1,8,0:0:0:0:
256,192,84802,1,0,0:0:0:0:
256,192,84964,1,8,0:0:0:0:
256,192,85045,1,8,0:0:0:0:
256,192,85126,1,0,0:0:0:0:
256,192,85207,1,0,0:0:0:0:
256,192,85289,1,8,0:0:0:0:
256,192,85451,1,8,0:0:0:0:
256,192,85613,1,0,0:0:0:0:
256,192,85694,1,0,0:0:0:0:
256,192,85775,1,8,0:0:0:0:
256,192,85856,1,8,0:0:0:0:
256,192,85937,1,0,0:0:0:0:
256,192,86099,1,0,0:0:0:0:
256,192,86262,1,8,0:0:0:0:
256,192,86586,1,0,0:0:0:0:
256,192,86748,1,0,0:0:0:0:
256,192,86910,1,8,0:0:0:0:
256,192,87235,1,8,0:0:0:0:
256,192,87397,1,8,0:0:0:0:
256,192,87559,1,0,0:0:0:0:
256,192,87721,8,0,88856,0:0:0:0:
