osu file format v14

[General]
AudioFilename: audio.mp3
AudioLeadIn: 0
PreviewTime: 46620
Countdown: 1
SampleSet: Soft
StackLeniency: 0.7
Mode: 0
LetterboxInBreaks: 0
WidescreenStoryboard: 1

[Editor]
Bookmarks: 47352,81742,117596
DistanceSpacing: 1
BeatDivisor: 8
GridSize: 4
TimelineZoom: 2.1

[Metadata]
Title:Jougen no Tsuki
TitleUnicode:上弦の月
Artist:KurousaP feat. KAITO V3
ArtistUnicode:黒うさP feat. KAITO V3
Creator:Lobelia
Version:Tsuki
Source:
Tags:
BeatmapID:1469573
BeatmapSetID:506737

[Difficulty]
HPDrainRate:6
CircleSize:4
OverallDifficulty:8
ApproachRate:9
SliderMultiplier:3.2
SliderTickRate:1

[Events]
//Background and Video events
0,0,"tsuki (2).png",0,0
//Break Periods
2,70601,81142
//Storyboard Layer 0 (Background)
//Storyboard Layer 1 (Fail)
//Storyboard Layer 2 (Pass)
//Storyboard Layer 3 (Foreground)
//Storyboard Sound Samples

[TimingPoints]
523,731.707317073171,4,2,1,30,1,0
11864,-133.333333333333,4,2,1,20,0,0
12230,-100,4,2,2,40,0,0
33083,-100,4,2,1,40,0,0
33449,-100,4,2,2,40,0,0
33815,-100,4,2,1,40,0,0
34181,-100,4,2,2,45,0,0
34730,-100,4,2,2,50,0,0
35644,-133.333333333333,4,2,2,50,0,0
44425,-100,4,2,2,50,0,0
45888,-200,4,2,2,60,0,0
46620,-100,4,2,1,50,0,0
47352,-100,4,2,3,70,0,0
58327,-200,4,2,3,80,0,0
59059,-100,4,2,3,70,0,0
67474,-100,4,2,1,70,0,0
67840,-100,4,2,3,70,0,0
81742,-100,4,2,3,50,0,0
82108,-66.6666666666667,4,2,3,50,0,0
82474,-100,4,2,2,50,0,0
89608,-100,4,2,2,50,0,0
94181,-133.333333333333,4,2,2,5,0,0
94913,-100,4,2,2,50,0,0
102962,-200,4,2,2,50,0,0
106620,-200,4,2,1,50,0,0
107718,-200,4,2,2,50,0,0
109547,-200,4,2,1,50,0,0
110644,-200,4,2,2,50,0,0
112474,-200,4,2,1,50,0,0
113571,-200,4,2,2,50,0,0
114669,-100,4,2,2,50,0,0
116132,-133.333333333333,4,2,2,50,0,0
116864,-100,4,2,2,50,0,0
117596,-100,4,2,3,70,0,0
128571,-100,4,2,3,80,0,0
129303,-100,4,2,3,70,0,0
139547,-100,4,2,2,50,0,0
156742,-100,4,2,2,60,0,0
157108,-100,4,2,2,70,0,0
157474,-100,4,2,2,80,0,0
157840,-100,4,2,2,70,0,0
158205,-100,4,2,2,60,0,0
158571,-133.333333333333,4,2,2,50,0,0
159303,-100,4,2,2,50,0,0
182718,-100,4,2,3,70,0,0
203937,-100,4,2,1,30,0,0
205401,-100,4,2,2,50,0,0
225888,-100,4,2,2,20,0,0
226254,-100,4,2,2,50,0,0
227718,-100,4,2,2,40,0,0
228266,-100,4,2,2,30,0,0
228815,-100,4,2,2,20,0,0

[HitObjects]
54,189,523,6,0,B|97:176|133:192|133:192|177:209|224:185,1,160,2|0,0:0|0:0,0:0:0:0:
172,39,1254,2,0,P|137:75|213:84,1,160,8|0,0:0|0:0,0:0:0:0:
88,269,1986,1,0,0:0:0:0:
88,269,2169,1,0,0:0:0:0:
88,269,2352,2,0,P|88:311|118:356,1,80,0|0,0:0|0:0,0:0:0:0:
165,290,2718,2,0,B|210:294|235:329|235:329|273:307|320:316,1,160,8|0,0:0|0:0,0:0:0:0:
429,212,3449,6,0,B|384:212|358:249|358:249|323:224|274:240,1,160,2|0,0:3|0:0,0:0:0:0:
309,314,3998,1,0,0:0:0:0:
358,249,4181,2,0,P|353:201|366:75,1,160,8|0,0:0|0:0,0:0:0:0:
428,44,4730,1,0,0:0:0:0:
297,142,4913,2,0,P|259:128|222:90,1,80,0|0,0:0|0:0,0:0:0:0:
138,33,5279,1,2,0:3:0:0:
120,142,5462,1,0,0:0:0:0:
42,155,5644,2,0,P|86:142|140:145,1,80,8|0,0:0|0:0,0:0:0:0:
211,224,6010,1,0,0:0:0:0:
211,224,6193,1,0,0:0:0:0:
174,301,6376,6,0,B|128:276|125:219|125:219|100:228|84:268,1,160,2|0,0:0|0:0,0:0:0:0:
211,224,6925,1,0,0:0:0:0:
260,295,7108,2,0,B|301:263|295:206|295:206|321:211|343:248,1,160,8|0,0:0|0:0,0:0:0:0:
463,332,7840,2,0,L|376:345,2,80,0|0|0,0:0|0:0|0:0,0:0:0:0:
481,254,8388,1,0,0:0:0:0:
414,209,8571,2,0,P|407:155|418:44,1,160,8|0,0:0|0:0,0:0:0:0:
416,50,9303,6,0,B|373:38|336:56|336:56|274:18|191:51|179:129|206:178,1,320,2|8,0:0|0:0,0:0:0:0:
281,340,10401,2,0,B|268:311|268:311|340:303|384:351|384:351|404:298|372:246|372:246|405:197|381:138|381:138|331:157|286:134,1,480,0|0,0:0|0:0,0:0:0:0:
203,173,11864,6,0,P|157:170|100:188,1,90.0000034332277,0|0,0:0|0:0,0:0:0:0:
72,259,12230,6,0,L|88:92,2,160,4|0|2,0:0|0:0|0:0,0:0:0:0:
212,335,13327,1,0,0:0:0:0:
212,335,13510,1,0,0:0:0:0:
162,257,13693,2,0,P|202:244|246:248,1,80,0|0,0:0|0:0,0:0:0:0:
302,352,14059,2,0,P|302:312|283:275,1,80,0|0,0:0|0:0,0:0:0:0:
212,335,14425,2,0,L|305:195,1,160,2|0,0:0|0:0,0:0:0:0:
346,135,14974,1,0,0:0:0:0:
392,70,15157,5,0,0:0:0:0:
300,201,15523,1,0,0:0:0:0:
426,142,15888,1,2,0:0:0:0:
264,125,16254,1,0,0:0:0:0:
382,210,16620,5,0,0:0:0:0:
300,201,16803,1,0,0:0:0:0:
312,57,16986,1,0,0:0:0:0:
392,70,17169,1,0,0:0:0:0:
264,125,17352,2,0,B|227:143|188:123|188:123|151:103|110:120,1,160,2|0,0:0|0:0,0:0:0:0:
147,191,17901,1,0,0:0:0:0:
209,240,18083,6,0,P|138:268|75:221,1,160,4|0,0:0|0:0,0:0:0:0:
147,191,18632,1,0,0:0:0:0:
289,201,18815,2,0,B|297:260|297:260|278:295|278:295|288:357,1,160,2|0,0:0|0:0,0:0:0:0:
365,315,19364,1,0,0:0:0:0:
466,233,19547,2,0,L|379:220,1,80,0|0,0:0|0:0,0:0:0:0:
416,382,19913,2,0,P|443:348|445:298,1,80,0|0,0:0|0:0,0:0:0:0:
285,282,20279,1,2,0:0:0:0:
444,146,20644,2,0,P|450:106|443:65,1,80,0|0,0:0|0:0,0:0:0:0:
356,104,21010,6,0,B|317:122|279:105|279:105|246:132|202:123,1,160,0|0,0:0|0:0,0:0:0:0:
221,44,21559,1,0,0:0:0:0:
121,141,21742,1,2,0:0:0:0:
140,59,21925,1,0,0:0:0:0:
224,198,22108,2,0,P|216:146|198:117,1,80,0|0,0:0|0:0,0:0:0:0:
35,161,22474,5,0,0:0:0:0:
102,247,22657,1,0,0:0:0:0:
216,227,22840,1,0,0:0:0:0:
102,247,23023,1,0,0:0:0:0:
71,344,23205,2,0,P|81:302|99:255,1,80,2|0,0:0|0:0,0:0:0:0:
216,227,23571,2,0,P|230:266|255:304,1,80,0|0,0:0|0:0,0:0:0:0:
330,305,23937,6,0,B|362:320|397:305|397:305|415:315|415:315|448:290|491:300,1,160,4|0,0:0|0:0,0:0:0:0:
468,377,24486,1,0,0:0:0:0:
362,229,24669,2,0,P|355:181|360:137,1,80,2|0,0:0|0:0,0:0:0:0:
466,87,25035,1,0,0:0:0:0:
442,163,25218,1,0,0:0:0:0:
276,122,25401,2,0,P|280:80|269:32,2,80,0|0|0,0:0|0:0|0:0,0:0:0:0:
197,171,25949,1,0,0:0:0:0:
110,75,26132,2,0,L|209:89,1,80,2|0,0:0|0:0,0:0:0:0:
135,236,26498,2,0,P|115:203|112:150,1,80,0|0,0:0|0:0,0:0:0:0:
219,254,26864,6,0,P|171:315|91:309,1,160,0|0,0:0|0:0,0:0:0:0:
135,236,27413,1,0,0:0:0:0:
281,191,27596,2,0,P|326:128|407:131,1,160,2|0,0:0|0:0,0:0:0:0:
364,204,28144,1,0,0:0:0:0:
349,325,28327,5,0,0:0:0:0:
364,204,28510,1,0,0:0:0:0:
493,220,28693,1,0,0:0:0:0:
471,346,28876,1,0,0:0:0:0:
364,204,29059,2,0,P|330:138|324:47,1,160,2|0,0:0|0:0,0:0:0:0:
398,24,29608,1,0,0:0:0:0:
244,80,29791,6,0,B|237:55|242:30|242:30|186:49|163:127,1,160,4|0,0:0|0:0,0:0:0:0:
152,185,30340,1,0,0:0:0:0:
217,231,30523,2,0,P|144:264|81:222,1,160,2|0,0:0|0:0,0:0:0:0:
152,185,31071,1,0,0:0:0:0:
156,293,31254,2,0,P|193:313|234:312,1,80,0|0,0:0|0:0,0:0:0:0:
296,208,31620,1,0,0:0:0:0:
217,231,31803,1,0,0:0:0:0:
302,354,31986,2,0,P|362:335|429:346,1,120,2|0,0:0|0:0,0:0:0:0:
453,359,32352,2,0,L|466:274,1,80,0|0,0:0|0:0,0:0:0:0:
398,198,32718,6,0,P|392:157|402:63,1,120,4|0,0:0|0:0,0:0:0:0:
416,43,33083,2,0,P|457:42|509:57,1,80,2|0,0:0|0:0,0:0:0:0:
297,103,33449,1,2,0:0:0:0:
202,141,33632,1,0,0:0:0:0:
143,36,33815,2,0,P|198:42|238:62,1,80,2|0,0:0|0:0,0:0:0:0:
288,197,34181,2,0,L|276:292,2,80,8|0|0,0:0|0:0|0:0,0:0:0:0:
105,184,34730,5,8,0:3:0:0:
368,372,34913,2,0,L|386:213,1,160,10|2,0:1|0:1,0:0:0:0:
163,288,35644,6,0,B|131:280|106:298|106:298|76:317|43:308,2,120.000004577637,4|2|8,0:0|0:0|0:0,0:0:0:0:
63,227,36742,1,0,0:0:0:0:
63,227,36925,1,0,0:0:0:0:
236,332,37108,2,0,P|246:302|240:257,1,60.0000022888184,2|0,0:0|0:0,0:0:0:0:
178,173,37474,1,0,0:0:0:0:
178,173,37657,1,0,0:0:0:0:
336,346,37840,2,0,L|409:339,1,60.0000022888184,8|0,0:0|0:0,0:0:0:0:
459,226,38205,1,0,0:0:0:0:
318,137,38388,1,8,0:3:0:0:
318,137,38571,6,0,P|342:183|352:260,1,120.000004577637,2|8,0:1|0:3,0:0:0:0:
454,27,39303,2,0,P|426:78|420:149,1,120.000004577637,8|0,0:0|0:0,0:0:0:0:
459,226,39852,1,0,0:0:0:0:
318,137,40035,2,0,P|276:144|195:140,1,120.000004577637,0|0,1:0|0:0,0:0:0:0:
113,28,40583,1,8,0:3:0:0:
56,217,40766,2,0,L|49:148,1,60.0000022888184,2|0,0:1|0:0,0:0:0:0:
209,58,41132,1,2,0:3:0:0:
49,157,41315,1,2,0:3:0:0:
221,223,41498,6,0,B|211:272|211:272|227:287|227:287|217:335,2,120.000004577637,6|4|8,0:1|0:1|0:0,0:0:0:0:
137,316,42596,1,0,0:0:0:0:
137,316,42779,1,0,0:0:0:0:
304,249,42962,2,0,L|375:261,1,60.0000022888184,8|0,0:3|0:0,0:0:0:0:
465,356,43327,1,8,0:3:0:0:
380,345,43510,1,0,0:0:0:0:
315,158,43693,2,0,L|446:182,1,120.000004577637,8|0,0:0|0:0,0:0:0:0:
447,270,44242,1,8,0:3:0:0:
264,85,44425,6,0,B|225:114|225:163|225:163|193:177|146:166,1,160,4|0,0:1|1:0,0:0:0:0:
98,43,44974,1,0,1:0:0:0:
66,236,45157,1,8,0:3:0:0:
170,86,45340,1,2,0:1:0:0:
1,117,45523,1,2,0:1:0:0:
225,163,45705,1,0,0:0:0:0:
73,315,45888,6,0,P|66:273|68:217,1,80,8|8,0:0|0:0,0:0:0:0:
286,292,46620,6,0,L|231:286,2,53.3333333333333,0|0|0,0:0|0:0|0:0,0:0:0:0:
372,353,46986,2,0,L|436:342,2,53.3333333333333,0|0|0,0:0|0:0|0:0,0:0:0:0:
346,213,47352,6,0,L|366:73,1,120,6|0,0:1|0:0,0:0:0:0:
369,54,47718,1,2,0:1:0:0:
441,162,47901,1,0,0:0:0:0:
260,190,48083,2,0,L|241:106,1,80,10|0,0:0|0:0,0:0:0:0:
88,65,48449,2,0,L|173:57,1,80,0|0,0:0|0:0,0:0:0:0:
194,241,48815,6,0,P|152:230|68:237,1,120,2|0,0:1|0:0,0:0:0:0:
38,248,49181,1,2,0:1:0:0:
130,331,49364,1,0,0:0:0:0:
165,143,49547,1,10,0:0:0:0:
297,278,49730,1,0,0:0:0:0:
358,127,49913,2,0,P|312:138|278:178,1,80,0|0,0:0|0:0,0:0:0:0:
361,211,50187,1,0,0:0:0:0:
361,211,50279,6,0,L|414:52,1,160,6|2,0:1|0:1,0:0:0:0:
296,51,50827,1,0,0:0:0:0:
448,206,51010,2,0,P|438:167|410:138,1,80,10|0,0:0|0:0,0:0:0:0:
260,190,51376,1,0,0:0:0:0:
417,286,51559,1,2,0:3:0:0:
255,223,51742,6,0,L|241:306,2,80,2|0|2,0:1|0:1|0:1,0:0:0:0:
94,117,52474,2,0,P|110:165|114:249,1,120,10|0,0:0|0:0,0:0:0:0:
113,274,52840,1,2,0:1:0:0:
6,196,53023,1,0,0:0:0:0:
219,157,53205,5,6,0:1:0:0:
27,281,53388,1,0,0:0:0:0:
35,54,53571,2,0,P|71:34|118:35,1,80,2|0,0:1|0:0,0:0:0:0:
219,157,53937,2,0,P|253:181|372:174,1,160,10|0,0:0|0:0,0:0:0:0:
304,93,54486,1,0,0:0:0:0:
283,301,54669,6,0,P|280:259|293:206,1,80,2|0,0:1|0:0,0:0:0:0:
463,170,55035,2,0,P|470:210|465:258,1,80,2|0,0:1|0:0,0:0:0:0:
286,327,55401,2,0,B|330:337|366:318|366:318|399:342|444:335,1,160,10|0,0:0|0:0,0:0:0:0:
199,289,55949,1,0,0:0:0:0:
199,289,56041,1,0,0:0:0:0:
199,289,56132,6,0,P|191:335|202:379,1,80,2|0,0:1|0:0,0:0:0:0:
70,267,56498,2,0,P|63:309|43:341,1,80,2|0,0:1|0:0,0:0:0:0:
220,188,56864,2,0,P|229:144|253:110,1,80,10|0,0:0|0:0,0:0:0:0:
82,171,57230,2,0,P|87:130|80:87,1,80,0|2,0:0|0:3,0:0:0:0:
81,91,57596,6,0,L|162:76,1,80,2|0,0:1|0:0,0:0:0:0:
308,180,57962,1,8,0:3:0:0:
278,25,58144,1,8,0:3:0:0:
316,37,58236,1,0,0:0:0:0:
354,48,58327,1,10,0:0:0:0:
433,142,58510,6,0,P|400:150|387:150,1,40,4|0,0:1|0:0,0:0:0:0:
387,58,58876,1,0,0:0:0:0:
474,221,59059,6,0,L|454:347,1,120,6|0,0:1|0:0,0:0:0:0:
447,379,59425,1,2,0:1:0:0:
355,263,59608,1,0,0:0:0:0:
279,363,59791,2,0,L|366:353,1,80,10|0,0:0|0:0,0:0:0:0:
209,286,60157,1,0,0:0:0:0:
172,301,60248,1,0,0:0:0:0:
131,303,60340,1,0,0:0:0:0:
91,299,60431,1,0,0:0:0:0:
54,282,60523,6,0,L|68:199,1,80,2|0,0:1|0:0,0:0:0:0:
251,125,60888,2,0,L|275:217,1,80,2|0,0:1|0:0,0:0:0:0:
136,109,61254,1,10,0:0:0:0:
136,109,61437,1,0,0:0:0:0:
374,59,61620,2,0,L|352:153,1,80,0|0,0:0|0:0,0:0:0:0:
136,109,61986,6,0,P|173:39|247:11,1,160,6|2,0:1|0:1,0:0:0:0:
251,125,62535,1,0,0:0:0:0:
425,207,62718,2,0,P|388:229|341:231,1,80,10|0,0:0|0:0,0:0:0:0:
355,136,63083,1,2,0:3:0:0:
424,308,63266,1,2,0:3:0:0:
351,232,63449,5,2,0:1:0:0:
500,177,63632,1,0,1:0:0:0:
274,305,63815,2,0,P|233:308|186:299,1,80,2|0,0:1|0:0,0:0:0:0:
118,186,64181,2,0,L|88:309,1,120,10|0,0:0|0:0,0:0:0:0:
82,342,64547,1,2,0:1:0:0:
9,227,64730,1,0,0:0:0:0:
207,217,64913,5,6,0:1:0:0:
207,217,65096,1,0,0:0:0:0:
37,141,65279,2,0,P|33:94|42:52,1,80,2|0,0:1|0:0,0:0:0:0:
280,106,65644,2,0,B|237:122|237:122|113:100,1,160,10|0,0:0|0:0,0:0:0:0:
230,34,66193,1,0,0:0:0:0:
334,181,66376,5,2,0:1:0:0:
359,42,66559,1,8,0:3:0:0:
426,197,66742,2,0,L|438:292,1,80,2|0,0:1|0:0,0:0:0:0:
274,315,67108,2,0,P|315:310|365:315,1,80,10|0,0:0|0:0,0:0:0:0:
181,329,67474,2,0,P|141:337|97:331,1,80,0|0,0:0|0:0,0:0:0:0:
74,253,67748,1,0,0:0:0:0:
74,253,67840,5,4,0:0:0:0:
179,158,68023,1,0,1:0:0:0:
46,120,68205,2,0,P|47:82|66:31,1,80,2|0,0:1|0:0,0:0:0:0:
283,82,68571,1,10,0:0:0:0:
179,158,68754,1,8,0:0:0:0:
452,42,68937,2,0,P|464:80|466:120,1,80,4|0,0:0|0:0,0:0:0:0:
186,62,69303,5,2,0:1:0:0:
186,62,69669,1,2,0:1:0:0:
186,62,70035,1,10,0:0:0:0:
272,172,70218,1,0,1:0:0:0:
381,98,70401,1,8,0:0:0:0:
407,101,81742,5,0,1:0:0:0:
407,101,81925,1,0,1:0:0:0:
311,242,82108,2,0,B|294:216|300:185|300:185|307:152|275:111,1,120.000004577637,8|0,0:0|0:0,0:0:0:0:
392,199,82474,6,0,P|398:283|340:334,2,160,4|0|8,0:0|0:0|0:0,0:0:0:0:
210,177,83571,1,0,0:0:0:0:
210,177,83754,1,0,0:0:0:0:
254,41,83937,5,0,0:0:0:0:
153,86,84120,1,0,1:0:0:0:
210,177,84303,2,0,P|214:218|201:260,1,80,8|0,0:3|0:0,0:0:0:0:
49,221,84669,2,0,L|149:202,1,80,8|0,0:0|0:0,0:0:0:0:
148,324,85035,1,0,0:0:0:0:
203,254,85218,1,0,0:0:0:0:
203,254,85309,1,0,0:0:0:0:
203,254,85401,6,0,P|276:281|357:270,1,160,0|0,0:0|1:0,0:0:0:0:
423,111,86132,1,8,0:0:0:0:
355,270,86498,1,0,0:0:0:0:
389,192,86681,1,0,0:0:0:0:
467,229,86864,5,0,0:0:0:0:
355,270,87047,1,2,0:3:0:0:
307,157,87230,1,0,1:0:0:0:
423,111,87413,1,0,0:0:0:0:
355,270,87596,2,0,P|388:285|351:338,1,120,8|0,0:0|0:0,0:0:0:0:
276,296,87962,2,0,P|228:305|188:305,1,80,0|0,0:0|0:0,0:0:0:0:
122,263,88236,1,0,0:0:0:0:
122,263,88327,6,0,B|107:222|123:185|123:185|136:144|105:104,1,160,4|0,0:0|0:0,0:0:0:0:
46,159,88876,1,0,0:0:0:0:
123,186,89059,2,0,P|183:133|166:56,1,160,8|0,0:0|0:0,0:0:0:0:
51,43,89608,1,0,0:0:0:0:
220,148,89791,6,0,P|274:138|316:138,1,80,0|2,0:0|0:3,0:0:0:0:
461,180,90157,2,0,P|423:191|382:193,1,80,0|0,1:0|0:0,0:0:0:0:
367,97,90523,2,0,P|334:203|335:267,1,160,8|0,0:0|0:0,0:0:0:0:
472,335,91071,1,0,0:0:0:0:
431,332,91163,1,0,0:0:0:0:
391,330,91254,5,0,0:0:0:0:
298,137,91620,1,0,1:0:0:0:
258,327,91986,2,0,P|207:316|176:318,1,80,8|0,0:0|0:0,0:0:0:0:
32,257,92352,2,0,P|70:266|130:263,1,80,0|0,0:0|0:0,0:0:0:0:
172,153,92718,5,0,0:0:0:0:
250,228,92901,1,2,0:3:0:0:
284,61,93083,2,0,L|267:161,1,80,0|0,1:0|0:0,0:0:0:0:
89,103,93449,1,8,0:0:0:0:
89,103,93815,2,0,P|77:142|84:193,1,80,0|0,0:0|0:0,0:0:0:0:
172,153,94181,6,0,B|204:142|237:152|237:152|251:147|251:147|264:153|264:153|278:149|278:149|307:159|338:151|338:151|331:174|341:203,1,210.000008010865
321,268,94913,2,0,P|391:247|412:168,1,160,4|0,0:1|0:0,0:0:0:0:
315,75,95462,1,0,0:0:0:0:
337,189,95644,5,0,1:0:0:0:
337,189,95827,1,0,1:0:0:0:
463,378,96010,2,0,P|477:342|473:303,1,80,0|0,1:0|0:0,0:0:0:0:
311,338,96376,2,0,L|413:324,1,80,8|0,0:0|0:0,0:0:0:0:
228,307,96742,1,0,0:0:0:0:
161,205,96925,1,0,0:0:0:0:
150,243,97016,1,0,0:0:0:0:
141,282,97108,6,0,P|101:269|41:146,2,160,0|0|8,0:0|1:0|0:0,0:0:0:0:
192,109,98205,2,0,L|98:136,1,80,0|0,0:0|0:0,0:0:0:0:
253,182,98571,5,0,0:0:0:0:
388,135,98754,1,2,0:3:0:0:
281,41,98937,1,0,1:0:0:0:
253,182,99120,1,0,0:0:0:0:
417,224,99303,2,0,B|375:235|339:215|339:215|327:255|281:270,1,160,8|0,0:0|0:0,0:0:0:0:
374,314,99852,1,0,0:0:0:0:
374,314,99943,1,0,0:0:0:0:
374,314,100035,6,0,L|210:299,1,160,4|0,0:0|0:0,0:0:0:0:
135,291,100583,1,0,0:0:0:0:
63,327,100766,2,0,B|45:283|70:240|70:240|69:205|33:173,1,160,8|0,0:0|0:0,0:0:0:0:
135,291,101315,1,0,0:0:0:0:
181,134,101498,6,0,P|141:134|106:114,1,80,0|2,0:0|0:3,0:0:0:0:
251,76,101864,2,0,P|290:63|342:69,1,80,0|0,1:0|0:0,0:0:0:0:
292,233,102230,2,0,L|303:148,1,80,8|0,0:0|0:0,0:0:0:0:
387,235,102596,2,0,L|399:323,1,80,0|0,0:0|0:0,0:0:0:0:
319,347,102870,1,0,0:0:0:0:
319,347,102962,6,0,P|270:334|234:332,1,80,4|0,0:1|0:0,0:0:0:0:
203,341,103693,2,0,P|168:348|116:345,1,80,4|0,0:0|0:0,0:0:0:0:
96,322,104425,5,4,0:0:0:0:
129,170,104791,1,2,0:1:0:0:
41,225,105157,1,2,0:1:0:0:
174,259,105523,1,8,0:0:0:0:
174,259,105705,1,0,1:0:0:0:
129,170,105888,6,0,P|134:129|146:87,2,80,4|4|2,0:1|0:0|0:0,0:0:0:0:
266,227,106986,1,0,0:0:0:0:
266,227,107352,2,0,L|309:220,1,40,2|0,0:0|0:0,0:0:0:0:
436,137,107718,6,0,L|386:131,1,40,4|0,0:1|0:0,0:0:0:0:
406,231,108083,1,8,0:0:0:0:
308,141,108266,2,0,P|300:182|310:235,1,80,4|0,0:1|0:0,0:0:0:0:
448,324,108815,6,0,L|375:320,1,60,4|0,0:1|0:0,0:0:0:0:
373,334,109181,2,0,L|322:331,1,40,4|0,0:1|0:0,0:0:0:0:
197,344,109547,1,2,0:0:0:0:
197,344,109913,2,0,L|153:341,1,40,2|0,0:0|0:0,0:0:0:0:
104,223,110279,2,0,L|155:227,1,40,2|2,0:0|0:0,0:0:0:0:
46,363,110644,6,0,P|35:313|37:269,1,80,4|8,0:1|0:0,0:0:0:0:
247,182,111193,2,0,P|248:224|233:274,1,80,4|0,0:1|0:0,0:0:0:0:
79,122,111742,6,0,L|166:128,2,80,4|4|2,0:1|0:1|0:0,0:0:0:0:
232,60,112840,1,2,0:0:0:0:
232,60,113205,2,0,L|290:63,1,40,2|2,0:0|0:0,0:0:0:0:
371,166,113571,6,0,L|316:163,1,40,0|0,0:1|0:0,0:0:0:0:
363,74,113937,1,8,0:0:0:0:
248,154,114120,2,0,P|239:195|247:246,1,80,4|0,0:1|1:0,0:0:0:0:
249,251,114577,1,0,1:0:0:0:
249,251,114669,6,0,P|258:291|248:342,1,80,4|0,0:1|0:0,0:0:0:0:
62,319,115035,1,0,1:0:0:0:
164,296,115218,1,0,1:0:0:0:
36,231,115401,1,0,1:0:0:0:
159,206,115583,1,2,0:1:0:0:
6,141,115766,1,2,0:1:0:0:
157,114,115949,1,0,0:0:0:0:
23,59,116132,6,0,B|48:58|76:84|76:84|88:53|116:42,1,120.000004577637,8|8,0:0|0:0,0:0:0:0:
311,90,116864,6,0,L|243:99,2,53.3333333333333,0|0|0,0:0|0:0|0:0,0:0:0:0:
407,39,117230,2,0,L|469:51,2,53.3333333333333,0|0|0,0:0|0:0|0:0,0:0:0:0:
370,172,117596,6,0,P|365:227|374:307,1,120,6|0,0:1|0:0,0:0:0:0:
384,329,117962,1,2,0:1:0:0:
473,242,118144,1,0,0:0:0:0:
262,301,118327,2,0,P|250:260|224:222,1,80,10|0,0:0|0:0,0:0:0:0:
105,317,118693,2,0,P|107:275|122:233,1,80,0|0,0:0|0:0,0:0:0:0:
191,358,119059,5,2,0:1:0:0:
230,228,119242,1,0,0:0:0:0:
32,212,119425,2,0,P|35:161|48:124,1,80,2|0,0:1|0:0,0:0:0:0:
202,110,119791,1,10,0:0:0:0:
72,44,119974,1,0,0:0:0:0:
274,50,120157,2,0,L|368:41,1,80,0|0,0:0|0:0,0:0:0:0:
419,100,120431,1,0,0:0:0:0:
419,100,120523,6,0,B|410:159|410:159|425:189|425:189|414:254,1,160,6|2,0:1|0:1,0:0:0:0:
336,206,121071,1,0,0:0:0:0:
461,327,121254,2,0,P|422:340|374:331,1,80,10|0,0:0|0:0,0:0:0:0:
336,206,121620,1,0,0:0:0:0:
302,294,121803,1,2,0:3:0:0:
262,144,121986,5,2,0:1:0:0:
211,289,122169,2,0,P|182:284|111:293,1,80,0|2,0:1|0:1,0:0:0:0:
131,287,122718,2,0,L|147:114,1,160,10|2,0:0|0:1,0:0:0:0:
219,61,123266,1,0,0:0:0:0:
51,165,123449,5,6,0:1:0:0:
262,144,123632,1,0,0:0:0:0:
86,59,123815,2,0,P|62:93|55:134,1,80,2|0,0:1|0:0,0:0:0:0:
262,144,124181,2,0,L|393:119,1,120,10|0,0:0|0:0,0:0:0:0:
446,180,124547,2,0,P|450:231|445:271,1,80,0|0,0:0|0:0,0:0:0:0:
278,238,124913,5,2,0:1:0:0:
355,323,125096,1,0,0:0:0:0:
189,340,125279,2,0,P|184:300|189:251,1,80,2|0,0:1|0:0,0:0:0:0:
70,114,125644,2,0,B|102:148|102:148|124:200|97:276,1,160,10|0,0:0|0:0,0:0:0:0:
42,330,126193,1,0,0:0:0:0:
42,330,126285,1,0,0:0:0:0:
42,330,126376,5,2,0:1:0:0:
187,260,126742,1,2,0:1:0:0:
70,114,127108,2,0,P|110:85|233:76,1,160,10|0,0:0|0:0,0:0:0:0:
276,177,127657,1,2,0:3:0:0:
323,40,127840,6,0,P|374:34|411:38,1,80,2|0,0:1|0:0,0:0:0:0:
458,207,128205,1,8,0:3:0:0:
366,126,128388,1,8,0:3:0:0:
436,305,128571,1,10,0:0:0:0:
294,256,128754,2,0,L|383:238,2,80,4|0|0,0:1|0:0|0:0,0:0:0:0:
157,337,129303,6,0,P|166:286|162:200,1,120,6|0,0:1|0:0,0:0:0:0:
159,178,129669,1,2,0:1:0:0:
62,267,129852,1,0,0:0:0:0:
267,262,130035,2,0,P|269:221|285:168,1,80,10|0,0:0|0:0,0:0:0:0:
424,274,130401,2,0,P|388:286|346:318,1,80,0|0,0:0|0:0,0:0:0:0:
385,173,130766,5,2,0:1:0:0:
238,89,130949,1,0,0:0:0:0:
452,70,131132,2,0,L|357:53,1,80,2|0,0:1|0:0,0:0:0:0:
278,183,131498,1,10,0:0:0:0:
238,89,131681,1,0,0:0:0:0:
121,158,131864,2,0,P|158:166|218:152,1,80,0|0,0:0|0:0,0:0:0:0:
238,89,132138,1,0,0:0:0:0:
238,89,132230,6,0,P|189:66|122:61,1,120,6|0,0:1|0:0,0:0:0:0:
84,66,132596,1,2,0:1:0:0:
143,248,132779,1,0,0:0:0:0:
22,162,132962,2,0,L|14:253,1,80,10|0,0:0|0:0,0:0:0:0:
142,344,133327,1,2,0:3:0:0:
12,273,133510,1,2,0:3:0:0:
225,298,133693,2,0,P|276:287|317:288,1,80,2|0,0:1|1:0,0:0:0:0:
469,334,134059,2,0,P|429:333|387:321,1,80,2|0,0:1|0:0,0:0:0:0:
323,128,134425,2,0,L|302:293,1,160,10|2,0:0|0:1,0:0:0:0:
445,240,134974,1,0,0:0:0:0:
215,185,135157,5,6,0:1:0:0:
430,136,135340,1,0,0:0:0:0:
302,51,135523,2,0,P|320:99|322:145,1,80,2|0,0:1|0:0,0:0:0:0:
64,152,135888,2,0,B|119:142|119:142|214:184,1,160,10|0,0:0|0:0,0:0:0:0:
108,231,136437,1,0,0:0:0:0:
48,357,136620,6,0,P|33:305|36:264,1,80,2|8,0:1|0:3,0:0:0:0:
193,273,136986,1,2,0:1:0:0:
119,143,137169,1,0,0:0:0:0:
306,251,137352,2,0,P|299:301|305:338,1,80,10|0,0:0|0:0,0:0:0:0:
488,248,137718,2,0,L|398:237,1,80,0|0,0:0|0:0,0:0:0:0:
346,177,137992,1,0,0:0:0:0:
346,177,138083,6,0,B|358:95|358:95|340:52,1,120,4|0,0:0|0:0,0:0:0:0:
270,109,138449,1,2,0:1:0:0:
434,150,138632,1,0,0:0:0:0:
240,100,138815,1,10,0:0:0:0:
168,288,138998,1,8,0:0:0:0:
110,48,139181,2,0,P|98:95|103:138,1,80,4|0,0:0|0:0,0:0:0:0:
263,212,139547,5,0,1:0:0:0:
64,225,139730,1,0,1:0:0:0:
212,90,139913,1,8,0:0:0:0:
168,288,140096,1,2,0:1:0:0:
240,100,140279,1,8,0:0:0:0:
68,190,140462,1,8,0:3:0:0:
263,212,140644,1,8,0:0:0:0:
104,85,140827,1,8,0:0:0:0:
152,337,141010,6,0,P|147:256|171:173,2,160,4|2|8,0:1|0:3|0:0,0:0:0:0:
402,302,142108,1,4,0:1:0:0:
402,302,142474,5,2,0:3:0:0:
402,302,142657,1,0,0:0:0:0:
476,250,142840,2,0,B|491:288|491:288|486:346,1,80,8|0,0:0|0:0,0:0:0:0:
327,352,143205,2,0,B|312:314|312:314|317:256,1,80,4|0,0:1|0:0,0:0:0:0:
447,162,143571,1,0,1:0:0:0:
447,162,143754,1,0,0:0:0:0:
267,201,143937,6,0,P|221:192|136:206,1,120,8|0,0:0|0:0,0:0:0:0:
111,215,144303,1,0,1:0:0:0:
202,77,144486,1,0,1:0:0:0:
41,116,144669,1,8,0:0:0:0:
41,116,144852,1,0,1:0:0:0:
279,32,145035,1,8,0:0:0:0:
288,70,145126,1,0,1:0:0:0:
312,101,145218,1,0,1:0:0:0:
348,117,145309,1,0,1:0:0:0:
387,122,145401,6,0,B|393:80|367:47|367:47|411:44|452:69,2,160,4|2|8,0:1|0:3|0:0,0:0:0:0:
347,309,146498,1,8,0:0:0:0:
347,309,146864,5,4,0:0:0:0:
347,309,147047,1,0,0:0:0:0:
209,235,147230,2,0,B|243:254|243:254|295:248,1,80,8|0,0:0|0:0,0:0:0:0:
253,83,147596,2,0,L|265:177,1,80,4|0,0:1|0:0,0:0:0:0:
117,219,147962,1,0,1:0:0:0:
263,162,148144,1,0,0:0:0:0:
71,95,148327,5,8,0:0:0:0:
263,162,148510,1,8,0:3:0:0:
30,252,148693,1,8,0:0:0:0:
53,284,148785,1,0,0:0:0:0:
87,303,148876,1,0,1:0:0:0:
126,307,148968,1,0,1:0:0:0:
164,297,149059,1,0,1:0:0:0:
196,273,149151,1,0,1:0:0:0:
234,262,149242,1,0,1:0:0:0:
273,266,149333,1,0,1:0:0:0:
307,286,149425,1,0,1:0:0:0:
328,319,149516,1,0,1:0:0:0:
362,339,149608,1,2,0:1:0:0:
401,341,149699,1,0,1:0:0:0:
439,329,149791,6,0,P|457:289|468:157,2,160,4|2|8,0:0|0:3|0:0,0:0:0:0:
369,126,150888,1,4,0:1:0:0:
369,126,151254,5,0,0:0:0:0:
214,163,151437,1,0,0:0:0:0:
264,19,151620,2,0,L|285:110,1,80,8|0,0:0|0:0,0:0:0:0:
122,174,151986,2,0,P|71:160|33:137,1,80,0|0,1:0|0:0,0:0:0:0:
169,35,152352,1,0,1:0:0:0:
214,163,152535,1,0,0:0:0:0:
61,224,152718,6,0,P|46:173|49:134,1,80,12|0,0:0|0:0,0:0:0:0:
186,248,153083,1,0,1:0:0:0:
41,325,153266,1,8,0:0:0:0:
196,351,153449,1,4,0:0:0:0:
61,224,153632,1,0,0:0:0:0:
318,207,153815,1,8,0:0:0:0:
318,207,153998,1,0,1:0:0:0:
473,325,154181,6,0,P|430:311|307:330,1,160,4|8,0:1|0:0,0:0:0:0:
317,324,154913,1,8,0:0:0:0:
451,205,155279,2,0,P|459:143|444:45,1,160,8|8,0:0|0:0,0:0:0:0:
340,90,155827,5,0,0:0:0:0:
158,125,156010,2,0,L|260:137,1,80,8|0,0:0|0:0,0:0:0:0:
67,53,156376,5,4,0:0:0:0:
54,94,156742,1,2,0:1:0:0:
62,182,157108,1,2,0:1:0:0:
159,274,157474,1,2,0:1:0:0:
336,247,157840,1,2,0:1:0:0:
212,64,158205,1,2,0:1:0:0:
336,247,158571,6,0,B|370:253|401:244|401:244|392:273|392:302|392:302|424:291|464:308,1,180.000006866455,0|0,0:0|0:0,0:0:0:0:
349,160,159303,6,0,P|386:154|342:78,1,160,4|0,0:0|0:0,0:0:0:0:
267,112,159852,1,0,0:0:0:0:
107,70,160035,2,0,P|157:63|201:72,1,80,0|0,1:0|0:0,0:0:0:0:
227,201,160401,2,0,P|185:209|141:200,1,80,0|0,1:0|0:0,0:0:0:0:
34,119,160766,2,0,P|21:71|29:25,2,80,8|0|0,0:0|0:0|0:0,0:0:0:0:
123,189,161315,1,0,0:0:0:0:
26,328,161498,6,0,B|39:216|39:216|49:245|79:265,1,160,4|0,0:0|0:0,0:0:0:0:
123,189,162047,1,0,0:0:0:0:
132,327,162230,2,0,P|171:317|228:317,1,80,8|0,0:0|0:0,0:0:0:0:
365,349,162596,1,0,0:0:0:0:
303,266,162779,1,0,0:0:0:0:
462,259,162962,1,2,3:0:0:0:
365,349,163144,1,2,3:0:0:0:
401,183,163327,2,0,P|394:232|377:266,1,80,8|0,3:0|0:0,0:0:0:0:
333,116,163693,2,0,P|383:93|481:128,1,160,8|0,0:0|0:0,0:0:0:0:
252,177,164242,1,0,0:0:0:0:
216,32,164425,5,4,0:0:0:0:
252,177,164608,1,0,0:0:0:0:
89,115,164791,2,0,P|130:111|181:124,1,80,0|0,1:0|0:0,0:0:0:0:
98,288,165157,2,0,L|126:198,1,80,8|0,0:0|0:0,0:0:0:0:
291,260,165523,2,0,P|250:268|195:251,1,80,0|0,0:0|0:0,0:0:0:0:
370,196,165888,5,0,3:0:0:0:
353,346,166071,1,0,3:0:0:0:
500,300,166254,2,0,P|467:282|416:283,1,80,8|0,3:0|0:0,0:0:0:0:
252,177,166620,2,0,B|267:145|257:110|257:110|276:100|276:100|261:63|283:18,1,160,8|0,0:0|0:0,0:0:0:0:
358,69,167169,1,0,0:0:0:0:
358,69,167260,1,0,0:0:0:0:
358,69,167352,6,0,P|396:83|473:58,2,120,12|0|0,0:0|0:0|0:0,0:0:0:0:
175,138,168083,2,0,P|121:118|51:141,2,120,8|0|0,0:0|0:0|0:0,0:0:0:0:
131,330,168815,2,0,L|114:205,2,120,8|0|0,0:0|0:0|0:0,0:0:0:0:
320,295,169547,1,0,1:0:0:0:
214,251,169730,1,0,1:0:0:0:
434,253,169913,2,0,L|441:190,2,53.3333333333333,8|8|8,3:0|3:0|3:0,0:0:0:0:
320,295,170279,6,0,L|301:122,1,160,4|0,1:0|1:0,0:0:0:0:
452,94,170827,2,0,L|433:252,1,160,4|8,0:0|0:0,0:0:0:0:
302,135,171376,1,0,0:0:0:0:
369,72,171559,2,2,P|291:45|225:86,1,160,0|0,0:1|1:0,0:1:0:0:
302,135,172108,1,8,3:0:0:0:
140,51,172291,2,0,L|131:147,1,80,0|8,0:0|0:0,0:0:0:0:
132,170,172565,2,2,P|83:175|20:117,1,120,0|0,0:0|0:0,0:1:0:0:
213,226,173023,1,0,0:0:0:0:
213,226,173114,1,0,0:0:0:0:
213,226,173205,6,0,P|230:273|221:333,1,106.666666666667,12|8,0:0|3:0,0:0:0:0:
37,302,173693,2,2,L|148:285,1,106.666666666667,8|8,3:0|3:0,0:1:0:0:
328,343,174181,2,2,L|207:326,1,106.666666666667,8|8,3:0|3:0,0:1:0:0:
334,194,174669,2,2,P|326:149|336:98,1,80,4|0,0:0|0:0,0:1:0:0:
349,79,174943,1,0,0:0:0:0:
386,64,175035,2,8,L|444:72,2,40,8|8|8,3:0|3:0|3:0,3:0:0:0:
236,142,175401,1,0,1:0:0:0:
236,142,175583,1,0,1:0:0:0:
431,235,175766,2,0,P|440:276|431:324,1,80,8|0,0:0|0:0,0:0:0:0:
222,328,176132,5,0,0:0:0:0:
346,279,176315,1,0,0:0:0:0:
153,194,176498,1,8,3:0:0:0:
222,328,176681,1,0,0:0:0:0:
299,139,176864,1,0,1:0:0:0:
222,328,177047,1,0,0:0:0:0:
66,224,177230,2,0,P|63:178|84:137,1,80,8|0,3:0|0:0,0:0:0:0:
253,229,177596,1,0,1:0:0:0:
118,294,177779,1,0,0:0:0:0:
346,279,177962,1,8,3:0:0:0:
153,194,178144,1,0,0:0:0:0:
296,86,178327,2,0,P|300:130|294:154,2,53.3333333333333,0|0|0,0:0|0:0|0:0,0:0:0:0:
405,147,178693,2,0,P|402:179|407:206,2,53.3333333333333,8|0|0,3:0|0:0|0:0,0:0:0:0:
397,40,179059,5,8,3:0:0:0:
485,173,179242,1,0,0:0:0:0:
346,279,179425,1,8,3:0:0:0:
485,173,179608,1,0,0:0:0:0:
216,112,179791,5,8,3:0:0:0:
346,279,179974,1,0,0:0:0:0:
397,40,180157,1,8,3:0:0:0:
346,279,180340,1,0,0:0:0:0:
485,173,180523,5,8,3:0:0:0:
216,112,180705,1,0,0:0:0:0:
346,279,180888,1,8,3:0:0:0:
397,40,181071,1,0,0:0:0:0:
464,298,181254,5,0,1:0:0:0:
464,298,181437,1,0,1:0:0:0:
225,255,181620,1,0,1:0:0:0:
225,255,181803,1,0,1:0:0:0:
346,279,181986,6,0,L|368:221,2,53.3333333333333,0|0|0,0:0|0:0|0:0,0:0:0:0:
225,255,182352,2,0,L|219:190,2,53.3333333333333,0|0|0,0:0|0:0|0:0,0:0:0:0:
114,319,182718,6,0,P|90:263|96:154,1,160,6|0,0:1|0:0,0:0:0:0:
260,116,183266,1,0,1:0:0:0:
101,39,183449,1,8,0:0:0:0:
191,186,183632,1,0,1:0:0:0:
334,47,183815,2,0,P|353:87|354:137,1,80,8|0,0:0|1:0,0:0:0:0:
313,291,184181,6,0,L|300:234,2,53.3333333333333,0|0|0,1:0|1:0|1:0,0:0:0:0:
447,258,184547,2,0,L|460:188,2,53.3333333333333,2|0|0,0:1|0:0|0:0,0:0:0:0:
395,338,184913,6,0,L|221:319,1,160,4|0,0:1|0:0,0:0:0:0:
71,305,185462,1,0,0:0:0:0:
186,161,185644,2,0,P|185:228|148:281,1,120,4|0,0:1|0:0,0:0:0:0:
71,305,186010,1,0,1:0:0:0:
301,239,186193,1,0,1:0:0:0:
95,195,186376,2,0,L|79:106,2,80,2|0|2,0:1|0:0|0:1,0:0:0:0:
367,127,187108,1,8,0:0:0:0:
301,239,187291,1,0,1:0:0:0:
422,307,187474,2,0,P|422:263|409:221,1,80,2|0,0:3|0:0,0:0:0:0:
255,334,187840,6,0,L|346:325,2,80,0|0|0,0:0|0:0|0:0,0:0:0:0:
94,255,188571,2,0,L|183:272,1,80,4|0,0:1|0:0,0:0:0:0:
301,239,188937,2,0,P|308:201|287:94,1,120,0|0,1:0|0:0,0:0:0:0:
277,86,189303,2,0,L|191:96,2,80,0|0|0,0:0|0:0|0:0,0:0:0:0:
463,60,190035,2,0,L|370:40,1,80,4|2,0:1|0:3,0:0:0:0:
412,178,190401,1,8,0:0:0:0:
277,86,190583,1,0,0:0:0:0:
399,323,190766,6,0,P|351:317|313:325,1,80,4|0,0:1|0:0,0:0:0:0:
131,292,191132,2,0,P|181:303|216:301,1,80,4|0,0:1|0:0,0:0:0:0:
412,178,191498,2,0,P|361:190|281:169,1,120,8|0,0:0|0:0,0:0:0:0:
258,98,191864,1,8,0:0:0:0:
209,301,192047,1,0,0:0:0:0:
126,166,192230,2,0,P|110:119|106:71,1,80,0|0,1:0|0:0,0:0:0:0:
177,38,192504,1,0,0:0:0:0:
177,38,192596,1,0,0:0:0:0:
343,100,192779,2,0,P|368:102|400:91,1,40,2|0,0:1|0:0,0:0:0:0:
289,20,192962,1,8,0:0:0:0:
444,37,193144,2,0,P|426:116|437:216,1,160,4|0,0:1|0:0,0:0:0:0:
340,331,193693,6,0,P|334:288|293:213,1,120,4|0,0:1|0:0,0:0:0:0:
219,184,194059,1,2,0:1:0:0:
466,273,194242,1,0,0:0:0:0:
171,255,194425,2,0,P|165:299|169:342,1,80,10|0,0:0|0:0,0:0:0:0:
299,220,194791,1,0,0:0:0:0:
260,370,194974,1,0,0:0:0:0:
88,342,195157,2,0,L|176:333,1,80,2|0,0:1|0:0,0:0:0:0:
340,331,195523,1,2,0:1:0:0:
171,255,195705,1,0,0:0:0:0:
341,136,195888,1,10,0:0:0:0:
252,288,196071,1,0,0:0:0:0:
212,75,196254,2,0,P|214:126|200:166,1,80,0|0,1:0|0:0,0:0:0:0:
26,128,196620,6,0,B|88:151|132:110|132:110|134:129|102:157,1,160,4|2,0:1|0:1,0:0:0:0:
68,48,197169,1,0,0:0:0:0:
85,293,197352,2,0,P|61:265|51:210,1,80,10|0,0:0|0:0,0:0:0:0:
206,153,197718,1,0,0:0:0:0:
167,337,197901,1,0,1:0:0:0:
310,248,198083,2,0,L|226:255,2,80,2|0|2,0:1|0:0|0:1,0:0:0:0:
447,348,198815,2,0,L|464:177,1,160,10|0,0:0|0:0,0:0:0:0:
356,154,199364,1,0,0:0:0:0:
358,339,199547,5,4,0:1:0:0:
230,254,199730,1,0,0:0:0:0:
462,167,199913,2,0,P|460:128|430:80,1,80,2|0,0:1|0:0,0:0:0:0:
277,167,200279,2,0,L|366:152,1,80,10|0,0:0|0:0,0:0:0:0:
196,111,200644,2,0,L|107:101,1,80,0|0,0:0|0:0,0:0:0:0:
59,244,201010,1,4,0:1:0:0:
32,91,201193,1,0,0:0:0:0:
150,197,201376,1,8,0:0:0:0:
64,352,201559,2,0,B|75:304|60:244|60:244|73:274|100:282,1,160,0|0,0:1|0:0,0:0:0:0:
245,298,202108,1,8,0:0:0:0:
150,197,202291,1,0,0:0:0:0:
336,144,202474,5,4,0:1:0:0:
245,298,202657,1,0,1:0:0:0:
216,82,202840,1,8,0:0:0:0:
274,294,203023,1,0,1:0:0:0:
150,197,203205,1,0,1:0:0:0:
304,289,203388,1,0,1:0:0:0:
216,82,203571,1,8,0:0:0:0:
334,283,203754,1,0,1:0:0:0:
247,174,203937,5,4,0:0:0:0:
216,82,204120,1,0,0:0:0:0:
150,197,204303,1,2,0:0:0:0:
336,144,204486,1,0,0:0:0:0:
216,82,204669,2,0,L|202:33,7,40,2|0|0|0|2|0|0|0,0:0|0:0|0:0|0:0|0:0|1:0|1:0|1:0,0:0:0:0:
247,174,205401,5,4,0:1:0:0:
429,122,205766,1,0,1:0:0:0:
280,274,206132,1,8,0:0:0:0:
429,122,206498,2,0,P|443:188|423:293,1,160,2|0,0:0|1:0,0:0:0:0:
350,217,207047,1,0,0:0:0:0:
281,351,207230,2,0,P|272:312|279:273,1,80,0|0,1:0|0:0,0:0:0:0:
179,323,207596,2,0,L|7:317,1,160,8|0,0:0|0:0,0:0:0:0:
38,234,208144,1,0,0:0:0:0:
38,234,208236,1,0,0:0:0:0:
38,234,208327,5,4,0:1:0:0:
203,141,208693,1,0,1:0:0:0:
38,234,209059,1,8,0:0:0:0:
43,53,209425,2,0,P|53:95|81:133,1,80,2|0,0:0|0:0,0:0:0:0:
218,59,209791,2,0,L|128:56,2,80,0|0|0,1:0|0:0|1:0,0:0:0:0:
351,205,210523,2,0,P|340:159|355:40,1,160,8|0,0:0|1:0,0:0:0:0:
449,32,211071,1,0,1:0:0:0:
455,138,211254,5,4,0:1:0:0:
228,169,211620,1,0,1:0:0:0:
471,226,211986,1,8,0:0:0:0:
228,169,212352,2,0,P|245:248|227:323,1,160,2|0,0:0|1:0,0:0:0:0:
120,241,212901,1,0,1:0:0:0:
59,346,213083,2,0,L|144:331,1,80,0|0,0:0|0:0,0:0:0:0:
120,241,213449,2,0,L|91:78,1,160,8|0,0:0|1:0,0:0:0:0:
216,41,213998,1,0,0:0:0:0:
216,41,214090,1,0,0:0:0:0:
216,41,214181,5,4,0:1:0:0:
62,169,214547,1,0,1:0:0:0:
286,246,214913,1,8,0:0:0:0:
216,41,215279,2,0,P|207:89|208:131,1,80,2|0,0:0|1:0,0:0:0:0:
331,140,215644,1,8,0:3:0:0:
286,246,215827,1,0,1:0:0:0:
286,246,215919,1,0,1:0:0:0:
286,246,216010,1,0,1:0:0:0:
393,219,216193,1,0,1:0:0:0:
393,219,216285,1,0,1:0:0:0:
393,219,216376,2,0,L|406:274,1,40,0|0,1:0|0:0,0:0:0:0:
278,285,216559,2,0,L|288:232,1,40,2|0,0:1|0:0,0:0:0:0:
439,342,216742,2,0,L|345:332,1,80,2|0,0:1|0:0,0:0:0:0:
151,341,217108,6,0,P|157:291|125:176,1,160,4|0,0:1|1:0,0:0:0:0:
281,90,217840,2,0,P|267:165|290:255,1,160,8|0,0:0|0:0,0:0:0:0:
462,95,218571,1,0,1:0:0:0:
373,137,218754,1,0,0:0:0:0:
291,13,218937,2,0,P|294:55|278:93,1,80,2|0,0:1|0:0,0:0:0:0:
97,60,219303,2,0,B|150:42|209:44|209:44|178:48|163:69,1,160,8|0,0:0|0:0,0:0:0:0:
208,145,219852,1,0,0:0:0:0:
208,145,219943,1,0,0:0:0:0:
208,145,220035,6,0,B|223:261|223:261|183:313,1,160,4|0,0:1|1:0,0:0:0:0:
7,219,220766,2,0,P|75:192|145:240,1,160,8|2,0:0|0:0,0:0:0:0:
69,277,221315,1,0,1:0:0:0:
196,295,221498,1,0,0:1:0:0:
126,347,221681,1,0,1:0:0:0:
284,317,221864,2,0,P|316:343|365:349,1,80,0|0,1:0|0:0,0:0:0:0:
454,199,222230,1,8,0:0:0:0:
454,199,222596,1,0,1:0:0:0:
444,293,222779,1,0,1:0:0:0:
361,144,222962,6,0,L|371:64,1,80,4|0,0:1|0:0,0:0:0:0:
141,64,223327,2,0,L|151:144,1,80,2|0,0:1|0:0,0:0:0:0:
316,214,223693,2,0,B|256:196|256:196|199:213,1,120,2|0,0:1|0:0,0:0:0:0:
256,284,224059,1,2,0:1:0:0:
120,252,224242,1,0,0:0:0:0:
392,249,224425,6,0,L|404:343,1,80,2|0,0:1|0:0,0:0:0:0:
256,363,224791,2,0,L|255:283,1,80,8|0,0:0|0:0,0:0:0:0:
120,252,225157,2,0,L|108:346,1,80,8|0,0:0|0:0,0:0:0:0:
201,212,225523,1,8,0:0:0:0:
201,212,225705,2,0,L|210:165,1,40,0|0,0:0|0:0,0:0:0:0:
165,100,225888,6,0,P|125:112|65:113,1,80,2|0,0:1|0:0,0:0:0:0:
46,109,226163,1,0,0:0:0:0:
46,109,226254,1,8,0:0:0:0:
112,19,226437,1,2,0:1:0:0:
99,206,226620,1,8,0:3:0:0:
255,80,226803,1,8,0:0:0:0:
275,88,226986,1,8,0:0:0:0:
297,265,227169,5,4,0:1:0:0:
256,192,227260,12,0,231742,0:0:0:0:
