osu file format v14

[General]
AudioFilename: audio.mp3
AudioLeadIn: 0
PreviewTime: 46620
Countdown: 1
SampleSet: Soft
StackLeniency: 0.7
Mode: 0
LetterboxInBreaks: 0
WidescreenStoryboard: 1

[Editor]
Bookmarks: 9303,47352,82474,117596,141010,205401
DistanceSpacing: 1
BeatDivisor: 4
GridSize: 4
TimelineZoom: 1

[Metadata]
Title:Jougen no Tsuki
TitleUnicode:上弦の月
Artist:KurousaP feat. KAITO V3
ArtistUnicode:黒うさP feat. KAITO V3
Creator:Lobelia
Version:Normal
Source:
Tags:
BeatmapID:1078102
BeatmapSetID:506737

[Difficulty]
HPDrainRate:4
CircleSize:3
OverallDifficulty:4
ApproachRate:5
SliderMultiplier:2
SliderTickRate:1

[Events]
//Background and Video events
0,0,"kaito.jpg",0,0
//Break Periods
2,70601,80542
2,158771,174932
//Storyboard Layer 0 (Background)
//Storyboard Layer 1 (Fail)
//Storyboard Layer 2 (Pass)
//Storyboard Layer 3 (Foreground)
//Storyboard Sound Samples

[TimingPoints]
523,731.707317073171,4,2,1,30,1,0
12230,-100,4,2,2,40,0,0
29791,-100,4,2,2,40,0,0
31254,-100,4,2,2,40,0,0
33083,-100,4,2,1,40,0,0
33449,-100,4,2,2,40,0,0
33815,-100,4,2,1,40,0,0
34181,-100,4,2,2,45,0,0
34730,-100,4,2,2,50,0,0
45888,-100,4,2,2,60,0,0
47352,-100,4,2,3,70,0,0
58327,-100,4,2,3,80,0,0
59059,-100,4,2,3,70,0,0
67474,-100,4,2,1,70,0,0
67840,-100,4,2,3,70,0,0
81742,-100,4,2,3,50,0,0
82474,-100,4,2,2,50,0,0
94181,-100,4,2,2,5,0,0
94913,-100,4,2,2,50,0,0
102962,-100,4,2,2,50,0,0
106620,-100,4,2,1,50,0,0
107718,-100,4,2,2,50,0,0
109547,-100,4,2,1,50,0,0
110644,-100,4,2,2,50,0,0
112474,-100,4,2,1,50,0,0
113571,-100,4,2,2,50,0,0
117596,-100,4,2,3,70,0,0
139547,-100,4,2,2,50,0,0
156742,-100,4,2,2,60,0,0
157108,-100,4,2,2,70,0,0
157474,-100,4,2,2,80,0,0
157840,-100,4,2,2,70,0,0
158205,-100,4,2,2,60,0,0
158571,-100,4,2,2,50,0,0
182718,-100,4,2,3,70,0,0
203937,-100,4,2,1,30,0,0
205401,-100,4,2,2,50,0,0
225888,-100,4,2,2,20,0,0
226254,-100,4,2,2,50,0,0
227718,-100,4,2,2,40,0,0
228266,-100,4,2,2,30,0,0
228815,-100,4,2,2,20,0,0

[HitObjects]
76,85,523,5,2,0:0:0:0:
82,284,1254,1,8,0:0:0:0:
180,302,1620,1,0,0:0:0:0:
279,288,1986,2,0,L|378:268,1,100,0|0,0:0|0:0,0:0:0:0:
453,332,2718,2,0,P|477:280|471:233,1,100,8|0,0:0|0:0,0:0:0:0:
400,170,3449,6,0,P|343:169|271:58,1,200,2|8,0:3|0:0,0:0:0:0:
370,71,4547,1,0,0:0:0:0:
463,105,4913,2,0,P|486:149|477:213,1,100,0|2,0:0|0:3,0:0:0:0:
434,285,5644,2,0,L|309:281,1,100,8|0,0:0|0:0,0:0:0:0:
233,276,6376,5,2,0:0:0:0:
72,155,7108,1,8,0:0:0:0:
165,191,7474,1,0,0:0:0:0:
260,159,7840,2,0,P|246:105|265:48,1,100,0|0,0:0|0:0,0:0:0:0:
346,106,8571,2,0,L|451:106,1,100,8|0,0:0|0:0,0:0:0:0:
457,205,9303,6,0,B|351:205|351:205|382:250|359:312,1,200,2|8,0:0|0:0,0:0:0:0:
269,262,10401,1,0,0:0:0:0:
192,198,10766,2,0,P|169:246|181:309,2,100,0|0|0,0:0|0:0|0:0,0:0:0:0:
356,83,12230,5,4,0:0:0:0:
260,112,12596,1,0,0:0:0:0:
171,64,12962,2,0,B|121:53|121:53|56:67,1,100,2|0,0:0|0:0,0:0:0:0:
37,156,13693,2,0,B|26:206|26:206|40:271,1,100,0|0,0:0|0:0,0:0:0:0:
116,314,14425,2,0,B|163:324|163:324|213:313,1,100,2|0,0:0|0:0,0:0:0:0:
311,292,15157,5,0,0:0:0:0:
272,199,15523,1,0,0:0:0:0:
244,103,15888,2,0,P|298:102|340:125,1,100,2|0,0:0|0:0,0:0:0:0:
364,219,16620,1,0,0:0:0:0:
460,243,16986,2,0,L|462:186,1,50,0|0,0:0|0:0,0:0:0:0:
483,147,17352,2,0,L|489:47,1,100,2|0,0:0|0:0,0:0:0:0:
389,32,18083,5,4,0:0:0:0:
308,91,18449,1,0,0:0:0:0:
224,35,18815,2,0,L|120:30,1,100,2|0,0:0|0:0,0:0:0:0:
51,99,19547,2,0,P|96:128|147:130,1,100,0|0,0:0|0:0,0:0:0:0:
226,184,20279,2,0,P|181:221|130:229,1,100,2|0,0:0|0:0,0:0:0:0:
47,264,21010,5,0,0:0:0:0:
125,325,21376,1,0,0:0:0:0:
224,311,21742,2,0,P|265:300|329:316,1,100,2|0,0:0|0:0,0:0:0:0:
415,343,22474,1,0,0:0:0:0:
450,249,22840,2,0,L|463:192,1,50,0|0,0:0|0:0,0:0:0:0:
446,152,23205,2,0,B|395:160|395:160|339:147,1,100,2|0,0:0|0:0,0:0:0:0:
253,114,23937,5,4,0:0:0:0:
163,68,24303,1,0,0:0:0:0:
70,30,24669,2,0,P|63:80|86:132,1,100,2|0,0:0|0:0,0:0:0:0:
169,172,25401,1,0,0:0:0:0:
242,239,25766,2,0,L|232:307,1,50,0|0,0:0|0:0,0:0:0:0:
228,338,26132,2,0,L|351:331,1,100,2|0,0:0|0:0,0:0:0:0:
426,317,26864,5,0,0:0:0:0:
447,219,27230,1,0,0:0:0:0:
357,174,27596,2,0,P|340:126|355:66,1,100,2|0,0:0|0:0,0:0:0:0:
439,119,28327,1,0,0:0:0:0:
348,78,28693,2,0,L|283:84,1,50,0|0,0:0|0:0,0:0:0:0:
257,112,29059,2,0,B|206:126|206:126|151:118,1,100,2|0,0:0|0:0,0:0:0:0:
62,92,29791,5,4,0:0:0:0:
83,189,30157,1,0,0:0:0:0:
160,251,30523,2,0,P|160:302|196:353,1,100,2|0,0:0|0:0,0:0:0:0:
284,341,31254,2,0,P|308:298|308:248,1,100,0|0,0:0|0:0,0:0:0:0:
233,182,31986,2,0,P|208:139|208:89,1,100,2|0,0:0|0:0,0:0:0:0:
305,114,32718,5,4,0:0:0:0:
401,87,33083,1,2,0:0:0:0:
447,175,33449,2,0,L|456:286,1,100,2|2,0:0|0:0,0:0:0:0:
389,350,34181,1,8,0:0:0:0:
298,308,34547,2,0,L|230:302,1,50,0|8,0:0|0:3,0:0:0:0:
197,301,34913,1,10,0:1:0:0:
97,288,35279,1,2,0:1:0:0:
45,202,35644,6,0,P|25:149|31:102,2,100,4|2|8,0:0|0:0|0:0,0:0:0:0:
123,140,36742,2,0,L|187:148,2,50,0|0|2,0:0|0:0|0:0,0:0:0:0:
156,45,37474,2,0,L|106:40,2,50,0|0|8,0:0|0:0|0:0,0:0:0:0:
250,78,38205,2,0,L|312:87,1,50,0|8,0:0|0:3,0:0:0:0:
337,117,38571,6,0,P|384:137|441:122,1,100,2|8,0:1|0:3,0:0:0:0:
481,41,39303,2,0,L|485:215,1,150,8|0,0:0|0:0,0:0:0:0:
485,241,40035,1,0,1:0:0:0:
408,305,40401,1,0,0:0:0:0:
327,245,40766,1,2,0:1:0:0:
252,311,41132,1,2,0:3:0:0:
179,242,41498,6,0,P|134:269|80:265,2,100,6|4|8,0:1|0:1|0:0,0:0:0:0:
109,170,42596,2,0,L|96:110,2,50,0|0|8,0:0|0:0|0:3,0:0:0:0:
206,149,43327,2,0,L|270:136,2,50,8|0|8,0:3|0:0|0:0,0:0:0:0:
189,50,44059,2,0,L|253:39,1,50,0|8,0:0|0:3,0:0:0:0:
288,34,44425,5,4,0:1:0:0:
367,94,44791,1,0,1:0:0:0:
465,77,45157,2,0,L|469:143,1,50,8|2,0:3|0:1,0:0:0:0:
456,175,45523,2,0,L|461:241,1,50,2|0,0:1|0:0,0:0:0:0:
444,272,45888,1,8,0:0:0:0:
359,325,46254,1,8,0:0:0:0:
59,300,47352,6,0,L|50:193,2,100,6|2|10,0:1|0:1|0:0,0:0:0:0:
149,343,48449,1,0,0:0:0:0:
218,270,48815,2,0,P|266:255|326:271,1,100,2|2,0:1|0:1,0:0:0:0:
410,290,49547,2,0,L|408:347,2,50,10|0|0,0:0|0:0|0:0,0:0:0:0:
384,193,50279,6,0,L|390:81,1,100,6|2,0:1|0:1,0:0:0:0:
303,42,51010,2,0,P|263:71|162:64,1,150,10|2,0:0|0:3,0:0:0:0:
120,45,51742,1,2,0:1:0:0:
62,126,52108,1,2,0:1:0:0:
143,184,52474,2,0,P|188:202|255:192,1,100,10|2,0:0|0:1,0:0:0:0:
332,163,53205,6,0,L|339:233,2,50,6|0|2,0:1|0:0|0:1,0:0:0:0:
422,119,53937,2,0,L|435:239,1,100,10|0,0:0|0:0,0:0:0:0:
442,318,54669,2,0,L|493:325,2,50,2|0|2,0:1|0:0|0:1,0:0:0:0:
342,305,55401,2,0,P|291:323|238:315,1,100,10|0,0:0|0:0,0:0:0:0:
196,231,56132,5,2,0:1:0:0:
181,131,56498,1,2,0:1:0:0:
281,129,56864,1,10,0:0:0:0:
291,229,57230,1,0,0:0:0:0:
246,318,57596,2,0,L|137:322,1,100,2|8,0:1|0:3,0:0:0:0:
96,318,58144,1,8,0:3:0:0:
69,275,58327,2,0,L|51:170,1,100,10|0,0:0|0:0,0:0:0:0:
95,85,59059,6,0,P|132:125|185:133,2,100,6|2|10,0:1|0:1|0:0,0:0:0:0:
181,33,60157,1,0,0:0:0:0:
266,85,60523,2,0,L|273:191,1,100,2|2,0:1|0:1,0:0:0:0:
280,284,61254,2,0,L|230:291,2,50,10|0|0,0:0|0:0|0:0,0:0:0:0:
378,304,61986,6,0,L|492:286,1,100,6|2,0:1|0:1,0:0:0:0:
468,188,62718,2,0,P|402:173|370:87,1,150,10|2,0:0|0:3,0:0:0:0:
372,53,63449,2,0,L|444:40,2,50,2|0|2,0:1|1:0|0:1,0:0:0:0:
286,106,64181,2,0,P|236:117|185:103,1,100,10|2,0:0|0:1,0:0:0:0:
91,83,64913,6,0,L|73:24,2,50,6|0|2,0:1|0:0|0:1,0:0:0:0:
125,176,65644,2,0,P|118:230|139:283,1,100,10|0,0:0|0:0,0:0:0:0:
230,291,66376,2,0,L|224:362,2,50,2|8|2,0:1|0:3|0:1,0:0:0:0:
328,269,67108,2,0,P|342:221|335:172,1,100,10|0,0:0|0:0,0:0:0:0:
258,107,67840,6,0,L|188:106,1,50,4|0,0:0|1:0,0:0:0:0:
158,104,68205,1,2,0:1:0:0:
88,176,68571,2,0,L|85:239,1,50,10|8,0:0|0:0,0:0:0:0:
84,276,68937,1,4,0:0:0:0:
175,317,69303,1,2,0:1:0:0:
268,280,69669,1,2,0:1:0:0:
361,314,70035,2,0,L|367:254,1,50,10|0,0:0|1:0,0:0:0:0:
373,214,70401,1,8,0:0:0:0:
428,109,81742,6,0,L|435:42,2,50,0|0|8,1:0|1:0|0:0,0:0:0:0:
416,208,82474,5,4,0:0:0:0:
348,281,82840,1,0,0:0:0:0:
248,280,83205,2,0,P|202:263|149:278,1,100,8|0,0:0|0:0,0:0:0:0:
57,302,83937,2,0,L|70:361,2,50,0|0|8,0:0|1:0|0:3,0:0:0:0:
84,205,84669,2,0,B|96:158|96:158|85:108,1,100,8|0,0:0|0:0,0:0:0:0:
17,33,85401,5,0,0:0:0:0:
115,16,85766,1,0,1:0:0:0:
182,89,86132,2,0,P|223:108|278:97,1,100,8|0,0:0|0:0,0:0:0:0:
372,74,86864,2,0,L|368:142,2,50,0|2|0,0:0|0:3|1:0,0:0:0:0:
461,28,87596,2,0,B|473:72|473:72|465:149,1,100,8|0,0:0|0:0,0:0:0:0:
418,213,88327,5,4,0:0:0:0:
418,313,88693,1,0,0:0:0:0:
317,313,89059,2,0,L|210:315,1,100,8|0,0:0|0:0,0:0:0:0:
137,253,89791,2,0,L|75:245,2,50,0|2|0,0:0|0:3|1:0,0:0:0:0:
207,182,90523,2,0,L|323:169,1,100,8|0,0:0|0:0,0:0:0:0:
406,162,91254,5,0,0:0:0:0:
435,66,91620,1,0,1:0:0:0:
335,57,91986,2,0,P|272:67|219:57,1,100,8|0,0:0|0:0,0:0:0:0:
136,57,92718,2,0,L|146:122,2,50,0|2|0,0:0|0:3|1:0,0:0:0:0:
41,23,93449,2,0,B|35:64|35:64|47:133,1,100,8|0,0:0|0:0,0:0:0:0:
114,194,94181,6,0,B|125:241|125:241|118:293|118:293|135:351|194:362,1,200,0|4,0:0|0:1,0:0:0:0:
211,263,95279,2,0,L|277:260,1,50,0|0,0:0|0:0,0:0:0:0:
304,285,95644,2,0,L|370:286,1,50,0|0,1:0|1:0,0:0:0:0:
404,290,96010,1,0,1:0:0:0:
451,201,96376,2,0,P|415:170|409:113,1,100,8|0,0:0|0:0,0:0:0:0:
343,42,97108,5,0,0:0:0:0:
278,118,97474,1,0,1:0:0:0:
201,181,97840,2,0,P|147:172|114:129,1,100,8|0,0:0|0:0,0:0:0:0:
90,43,98571,2,0,L|153:37,2,50,0|2|0,0:0|0:3|1:0,0:0:0:0:
24,118,99303,2,0,L|37:226,1,100,8|0,0:0|0:0,0:0:0:0:
132,245,100035,5,4,0:0:0:0:
117,343,100401,1,0,0:0:0:0:
210,307,100766,2,0,P|246:289|314:293,1,100,8|0,0:0|0:0,0:0:0:0:
398,324,101498,2,0,L|450:347,2,50,0|2|0,0:0|0:3|1:0,0:0:0:0:
390,224,102230,1,8,0:0:0:0:
459,151,102596,1,0,0:0:0:0:
402,68,102962,6,0,L|298:78,1,100,4|0,0:1|0:0,0:0:0:0:
229,146,103693,2,0,L|126:124,1,100,4|0,0:0|0:0,0:0:0:0:
36,91,104425,1,4,0:0:0:0:
55,189,104791,1,2,0:1:0:0:
79,286,105157,1,2,0:1:0:0:
178,278,105523,2,0,L|230:234,1,50,8|0,0:0|1:0,0:0:0:0:
260,221,105888,6,0,P|303:253|359:254,2,100,4|4|2,0:1|0:0|0:0,0:0:0:0:
338,157,106986,2,0,L|363:104,2,50,0|0|2,0:0|0:0|0:0,0:0:0:0:
253,102,107718,2,0,L|275:49,2,50,4|0|8,0:1|0:0|0:0,0:0:0:0:
230,146,108266,2,0,L|169:149,1,50,4|0,0:1|0:0,0:0:0:0:
94,96,108815,6,0,P|80:146|99:205,1,100,4|4,0:1|0:1,0:0:0:0:
176,244,109547,1,2,0:0:0:0:
207,339,109913,1,2,0:0:0:0:
306,343,110279,2,0,L|367:340,1,50,2|2,0:0|0:0,0:0:0:0:
405,338,110644,1,4,0:1:0:0:
434,242,111010,2,0,L|442:185,2,50,8|4|0,0:0|0:1|0:0,0:0:0:0:
333,245,111742,6,0,L|319:134,2,100,4|4|2,0:1|0:1|0:0,0:0:0:0:
234,262,112840,2,0,L|170:269,2,50,2|0|2,0:0|0:0|0:0,0:0:0:0:
212,164,113571,2,0,L|156:162,2,50,0|0|8,0:1|0:0|0:0,0:0:0:0:
241,123,114120,2,0,L|254:65,1,50,4|0,0:1|0:0,0:0:0:0:
346,41,114669,6,0,P|354:99|393:147,1,100,4|0,0:1|1:0,0:0:0:0:
421,154,115218,1,0,1:0:0:0:
467,173,115401,2,0,L|469:237,1,50,0|2,1:0|0:1,0:0:0:0:
444,266,115766,2,0,L|444:324,1,50,2|0,0:1|0:0,0:0:0:0:
417,358,116132,1,8,0:0:0:0:
326,316,116498,1,8,0:0:0:0:
247,254,116864,2,0,P|199:285|145:288,1,100,0|0,0:0|0:0,0:0:0:0:
83,222,117596,6,0,P|57:281|61:319,2,100,6|2|10,0:1|0:1|0:0,0:0:0:0:
164,164,118693,1,0,0:0:0:0:
259,133,119059,2,0,P|285:74|281:36,1,100,2|2,0:1|0:1,0:0:0:0:
185,67,119791,2,0,L|128:58,2,50,10|0|0,0:0|0:0|0:0,0:0:0:0:
164,164,120523,6,0,P|198:211|244:228,1,100,6|2,0:1|0:1,0:0:0:0:
327,188,121254,2,0,B|336:285|336:285|369:340,1,150,10|2,0:0|0:3,0:0:0:0:
412,341,121986,1,2,0:1:0:0:
447,247,122352,1,2,0:1:0:0:
419,150,122718,2,0,L|434:46,1,100,10|2,0:0|0:1,0:0:0:0:
333,42,123449,6,0,L|322:103,2,50,6|0|2,0:1|0:0|0:1,0:0:0:0:
232,40,124181,2,0,B|181:45|181:45|133:82,1,100,10|0,0:0|0:0,0:0:0:0:
215,142,124913,2,0,L|226:197,2,50,2|0|2,0:1|0:0|0:1,0:0:0:0:
117,164,125644,2,0,L|119:277,1,100,10|0,0:0|0:0,0:0:0:0:
192,331,126376,5,2,0:1:0:0:
268,266,126742,1,2,0:1:0:0:
343,331,127108,1,10,0:0:0:0:
414,261,127474,1,0,0:0:0:0:
340,193,127840,2,0,P|320:147|327:83,2,100,2|8|10,0:1|0:3|0:0,0:0:0:0:
416,128,128937,1,0,0:0:0:0:
487,198,129303,6,0,L|477:309,1,100,6|2,0:1|0:1,0:0:0:0:
385,335,130035,2,0,P|331:314|284:319,1,100,10|0,0:0|0:0,0:0:0:0:
189,314,130766,2,0,P|139:330|74:312,1,100,2|2,0:1|0:1,0:0:0:0:
135,231,131498,2,0,L|142:176,2,50,10|0|0,0:0|0:0|0:0,0:0:0:0:
35,242,132230,6,0,L|50:132,1,100,6|2,0:1|0:1,0:0:0:0:
130,85,132962,2,0,P|204:61|285:89,1,150,10|2,0:0|0:3,0:0:0:0:
294,124,133693,2,0,L|289:193,2,50,2|0|2,0:1|1:0|0:1,0:0:0:0:
393,112,134425,2,0,L|384:230,1,100,10|2,0:0|0:1,0:0:0:0:
374,311,135157,6,0,L|442:325,2,50,6|0|2,0:1|0:0|0:1,0:0:0:0:
275,292,135888,2,0,P|217:277|155:294,1,100,10|0,0:0|0:0,0:0:0:0:
82,314,136620,2,0,L|75:369,2,50,2|8|2,0:1|0:3|0:1,0:0:0:0:
108,217,137352,1,10,0:0:0:0:
73,123,137718,1,0,0:0:0:0:
168,92,138083,6,0,B|215:105|215:105|272:90,1,100,4|2,0:0|0:1,0:0:0:0:
358,57,138815,2,0,L|413:74,1,50,10|8,0:0|0:0,0:0:0:0:
452,90,139181,1,4,0:0:0:0:
477,186,139547,2,0,P|447:193|421:227,1,50,0|0,1:0|1:0,0:0:0:0:
417,252,139913,2,0,L|412:310,1,50,8|2,0:0|0:1,0:0:0:0:
379,339,140279,2,0,P|349:332|323:298,1,50,8|8,0:0|0:3,0:0:0:0:
316,273,140644,2,0,L|321:219,1,50,8|8,0:0|0:0,0:0:0:0:
307,174,141010,6,0,P|319:126|296:66,2,100,4|2|8,0:1|0:3|0:0,0:0:0:0:
217,128,142108,1,4,0:1:0:0:
127,82,142474,2,0,P|116:132|133:183,1,100,2|8,0:3|0:0,0:0:0:0:
220,219,143205,1,4,0:1:0:0:
277,300,143571,1,0,1:0:0:0:
365,347,143937,6,0,P|377:295|362:248,1,100,8|0,0:0|1:0,0:0:0:0:
303,171,144669,2,0,L|406:143,2,100,8|8|4,0:0|0:0|0:1,0:0:0:0:
206,198,145766,1,2,0:3:0:0:
109,224,146132,2,0,L|83:111,1,100,8|8,0:0|0:0,0:0:0:0:
149,48,146864,6,0,P|197:80|253:80,1,100,4|8,0:0|0:0,0:0:0:0:
336,63,147596,1,4,0:1:0:0:
433,83,147962,1,0,1:0:0:0:
483,169,148327,1,8,0:0:0:0:
463,267,148693,2,0,B|419:268|419:268|353:303,1,100,8|0,0:0|1:0,0:0:0:0:
276,331,149425,1,0,1:0:0:0:
175,330,149791,6,0,B|131:329|131:329|65:294,2,100,4|2|8,0:0|0:3|0:0,0:0:0:0:
276,331,150888,1,4,0:1:0:0:
227,243,151254,2,0,B|192:215|192:215|165:147,1,100,0|8,0:0|0:0,0:0:0:0:
271,151,151986,2,0,B|268:110|268:110|286:40,1,100,0|0,1:0|1:0,0:0:0:0:
381,35,152718,5,12,0:0:0:0:
444,111,153083,2,0,L|448:228,1,100,0|4,1:0|0:0,0:0:0:0:
404,301,153815,1,8,0:0:0:0:
304,294,154181,2,0,P|251:275|194:287,1,100,4|8,0:1|0:0,0:0:0:0:
114,315,154913,1,8,0:0:0:0:
73,223,155279,2,0,L|59:117,1,100,8|8,0:0|0:0,0:0:0:0:
127,50,156010,5,8,0:0:0:0:
226,63,156376,2,0,L|241:174,1,100,4|2,0:0|0:1,0:0:0:0:
252,261,157108,1,2,0:1:0:0:
339,309,157474,1,2,0:1:0:0:
436,288,157840,1,2,0:1:0:0:
484,201,158205,1,2,0:1:0:0:
466,102,158571,5,0,0:0:0:0:
256,192,176132,12,0,179059,0:0:0:0:
54,55,181986,6,0,B|72:107|72:107|69:164,1,100,0|0,0:0|0:0,0:0:0:0:
63,252,182718,2,0,P|117:305|201:300,1,150,6|0,0:1|1:0,0:0:0:0:
234,287,183449,2,0,L|234:218,2,50,8|0|8,0:0|1:0|0:0,0:0:0:0:
333,294,184181,2,0,B|332:244|332:244|366:180,1,100,0|2,1:0|0:1,0:0:0:0:
452,223,184913,6,0,P|447:161|419:124,1,100,4|0,0:1|0:0,0:0:0:0:
328,112,185644,2,0,L|205:115,1,100,4|0,0:1|1:0,0:0:0:0:
177,116,186193,1,0,1:0:0:0:
127,120,186376,2,0,P|102:162|101:212,1,100,2|2,0:1|0:1,0:0:0:0:
187,264,187108,2,0,L|184:331,2,50,8|0|2,0:0|1:0|0:3,0:0:0:0:
278,222,187840,6,0,P|324:254|380:249,1,100,0|0,0:0|0:0,0:0:0:0:
351,154,188571,2,0,L|351:98,2,50,4|0|0,0:1|0:0|1:0,0:0:0:0:
441,197,189303,2,0,P|459:252|446:304,1,100,0|0,0:0|0:0,0:0:0:0:
363,340,190035,2,0,L|301:340,1,50,4|2,0:1|0:3,0:0:0:0:
271,311,190401,2,0,L|205:309,1,50,8|0,0:0|0:0,0:0:0:0:
171,308,190766,5,4,0:1:0:0:
81,262,191132,1,4,0:1:0:0:
49,167,191498,2,0,P|49:104|72:67,1,100,8|8,0:0|0:0,0:0:0:0:
147,132,192230,2,0,P|202:162|254:157,1,100,0|0,1:0|0:0,0:0:0:0:
282,138,192779,1,2,0:1:0:0:
328,118,192962,2,0,P|386:105|438:126,1,100,8|0,0:0|0:0,0:0:0:0:
379,206,193693,6,0,L|388:261,2,50,4|0|2,0:1|0:0|0:1,0:0:0:0:
279,221,194425,2,0,P|270:276|230:312,1,100,10|0,0:0|0:0,0:0:0:0:
190,313,194974,1,0,0:0:0:0:
140,311,195157,2,0,P|107:274|101:225,1,100,2|2,0:1|0:1,0:0:0:0:
143,134,195888,2,0,L|135:71,2,50,10|0|0,0:0|0:0|1:0,0:0:0:0:
243,137,196620,6,0,P|305:134|347:156,1,100,4|2,0:1|0:1,0:0:0:0:
276,228,197352,2,0,B|301:321|301:321|355:345,1,150,10|0,0:0|1:0,0:0:0:0:
392,315,198083,2,0,L|375:250,2,50,2|0|2,0:1|0:0|0:1,0:0:0:0:
492,316,198815,2,0,L|500:202,1,100,10|0,0:0|0:0,0:0:0:0:
430,142,199547,6,0,L|438:79,2,50,4|0|2,0:1|0:0|0:1,0:0:0:0:
329,153,200279,2,0,P|277:172|224:159,1,100,10|0,0:0|0:0,0:0:0:0:
165,91,201010,2,0,P|115:78|62:95,1,100,4|8,0:1|0:0,0:0:0:0:
49,136,201559,2,0,L|73:289,1,150,0|8,0:1|0:0,0:0:0:0:
113,313,202291,1,0,0:0:0:0:
159,295,202474,6,0,P|221:272|265:284,1,100,4|8,0:1|0:0,0:0:0:0:
345,315,203205,2,0,P|392:332|451:314,1,100,0|8,1:0|0:0,0:0:0:0:
398,229,203937,2,0,L|406:160,1,50,4|0,0:0|0:0,0:0:0:0:
383,133,204303,2,0,L|324:125,1,50,2|0,0:0|0:0,0:0:0:0:
283,119,204669,2,0,L|295:43,1,50,2|0,0:0|0:0,0:0:0:0:
264,26,205035,2,0,L|200:17,1,50,2|0,0:0|1:0,0:0:0:0:
166,33,205401,5,4,0:1:0:0:
106,112,205766,1,0,1:0:0:0:
170,188,206132,2,0,P|181:243|155:303,1,100,8|2,0:0|0:0,0:0:0:0:
82,331,206864,2,0,P|69:283|80:235,1,100,0|0,1:0|1:0,0:0:0:0:
168,284,207596,2,0,L|285:292,1,100,8|0,0:0|0:0,0:0:0:0:
367,297,208327,5,4,0:1:0:0:
430,219,208693,1,0,1:0:0:0:
366,141,209059,2,0,P|379:90|361:34,1,100,8|2,0:0|0:0,0:0:0:0:
278,91,209791,2,0,L|177:101,1,100,0|0,1:0|1:0,0:0:0:0:
78,100,210523,2,0,P|91:151|129:187,1,100,8|0,0:0|1:0,0:0:0:0:
217,218,211254,5,4,0:1:0:0:
270,302,211620,1,0,1:0:0:0:
368,318,211986,1,8,0:0:0:0:
447,257,212352,1,2,0:0:0:0:
379,183,212718,2,0,P|358:125|369:76,1,100,0|0,1:0|1:0,0:0:0:0:
441,24,213449,2,0,P|464:66|456:124,1,100,8|0,0:0|1:0,0:0:0:0:
363,88,214181,6,0,L|236:80,1,100,4|0,0:1|1:0,0:0:0:0:
163,73,214913,1,8,0:0:0:0:
77,124,215279,1,2,0:0:0:0:
138,202,215644,2,0,B|142:244|142:244|167:298,1,100,8|0,0:3|1:0,0:0:0:0:
244,233,216376,2,0,B|260:267|260:267|313:312,1,100,0|2,1:0|0:1,0:0:0:0:
340,212,217108,6,0,B|393:203|417:139|417:139|390:98|399:41,1,200,4|8,0:1|0:0,0:0:0:0:
298,41,218205,1,0,0:0:0:0:
226,110,218571,2,0,B|182:117|141:90|141:90|77:114|68:167,1,200,0|8,1:0|0:0,0:0:0:0:
120,252,219669,1,0,0:0:0:0:
202,308,220035,5,4,0:1:0:0:
284,251,220401,1,0,1:0:0:0:
364,309,220766,1,8,0:0:0:0:
443,248,221132,1,2,0:0:0:0:
368,181,221498,2,0,B|364:136|364:136|375:79|375:79|339:35|271:43,1,200,0|8,0:1|0:0,0:0:0:0:
197,81,222596,1,0,1:0:0:0:
98,63,222962,6,0,L|84:171,1,100,4|2,0:1|0:1,0:0:0:0:
183,182,223693,2,0,L|190:298,1,100,2|2,0:1|0:1,0:0:0:0:
285,254,224425,2,0,P|316:299|370:321,1,100,2|8,0:1|0:0,0:0:0:0:
384,222,225157,2,0,P|441:227|484:204,1,100,8|8,0:0|0:0,0:0:0:0:
419,127,225888,6,0,B|429:73|429:73|419:22,1,100,2|8,0:1|0:0,0:0:0:0:
370,26,226437,1,2,0:1:0:0:
329,55,226620,2,0,L|321:126,2,50,8|8|8,0:3|0:0|0:0,0:0:0:0:
256,192,227169,12,0,231742,0:0:0:0:
