osu file format v14

[General]
AudioFilename: audio.mp3
AudioLeadIn: 0
PreviewTime: 46620
Countdown: 1
SampleSet: Soft
StackLeniency: 0.7
Mode: 0
LetterboxInBreaks: 0
WidescreenStoryboard: 0

[Editor]
Bookmarks: 47352,81742
DistanceSpacing: 1
BeatDivisor: 8
GridSize: 4
TimelineZoom: 2.1

[Metadata]
Title:Jougen no Tsuki
TitleUnicode:上弦の月
Artist:KurousaP feat. KAITO V3
ArtistUnicode:黒うさP feat. KAITO V3
Creator:Lobelia
Version:Insane
Source:
Tags:
BeatmapID:1077869
BeatmapSetID:506737

[Difficulty]
HPDrainRate:6
CircleSize:4
OverallDifficulty:8
ApproachRate:9
SliderMultiplier:3.2
SliderTickRate:1

[Events]
//Background and Video events
0,0,"tsuki (2).png",0,0
//Break Periods
2,70601,79942
2,158771,174332
//Storyboard Layer 0 (Background)
//Storyboard Layer 1 (Fail)
//Storyboard Layer 2 (Pass)
//Storyboard Layer 3 (Foreground)
//Storyboard Sound Samples

[TimingPoints]
523,731.707317073171,4,2,1,30,1,0
11864,-133.333333333333,4,2,1,20,0,0
12230,-100,4,2,2,40,0,0
33083,-100,4,2,1,40,0,0
33449,-100,4,2,2,40,0,0
33815,-100,4,2,1,40,0,0
34181,-100,4,2,2,45,0,0
34730,-100,4,2,2,50,0,0
45888,-200,4,2,2,60,0,0
46620,-100,4,2,1,50,0,0
47352,-100,4,2,3,70,0,0
58327,-100,4,2,3,80,0,0
59059,-100,4,2,3,70,0,0
67474,-100,4,2,1,70,0,0
67840,-100,4,2,3,70,0,0
81742,-100,4,2,3,50,0,0
82474,-100,4,2,2,50,0,0
89608,-100,4,2,2,50,0,0
94181,-133.333333333333,4,2,2,5,0,0
94913,-100,4,2,2,50,0,0
102962,-200,4,2,2,50,0,0
106620,-200,4,2,1,50,0,0
107718,-200,4,2,2,50,0,0
109547,-200,4,2,1,50,0,0
110644,-200,4,2,2,50,0,0
112474,-200,4,2,1,50,0,0
113571,-200,4,2,2,50,0,0
114669,-100,4,2,2,50,0,0
116132,-133.333333333333,4,2,2,50,0,0
116864,-100,4,2,2,50,0,0
117596,-100,4,2,3,70,0,0
128571,-100,4,2,3,80,0,0
129303,-100,4,2,3,70,0,0
139547,-100,4,2,2,50,0,0
156742,-100,4,2,2,60,0,0
157108,-100,4,2,2,70,0,0
157474,-100,4,2,2,80,0,0
157840,-100,4,2,2,70,0,0
158205,-100,4,2,2,60,0,0
158571,-100,4,2,2,50,0,0
182718,-100,4,2,3,70,0,0
203937,-100,4,2,1,30,0,0
205401,-100,4,2,2,50,0,0
225888,-100,4,2,2,20,0,0
226254,-100,4,2,2,50,0,0
227718,-100,4,2,2,40,0,0
228266,-100,4,2,2,30,0,0
228815,-100,4,2,2,20,0,0

[HitObjects]
103,321,523,6,0,P|76:240|109:171,1,160,2|0,0:0|0:0,0:0:0:0:
104,175,1254,1,8,0:0:0:0:
241,92,1620,1,0,0:0:0:0:
241,92,1803,1,0,0:0:0:0:
241,92,1986,2,0,L|145:86,1,80,0|0,0:0|0:0,0:0:0:0:
299,172,2352,2,0,L|384:168,1,80,0|0,0:0|0:0,0:0:0:0:
442,76,2718,2,0,P|410:144|443:233,1,160,8|0,0:0|0:0,0:0:0:0:
497,269,3266,1,0,0:0:0:0:
390,334,3449,6,0,B|344:318|344:318|226:338,1,160,2|0,0:3|0:0,0:0:0:0:
234,336,4181,1,8,0:0:0:0:
76,306,4547,1,0,0:0:0:0:
76,306,4730,1,0,0:0:0:0:
76,306,4913,2,0,L|66:218,1,80,0|0,0:0|0:0,0:0:0:0:
179,183,5279,2,0,L|171:278,1,80,2|0,0:3|0:0,0:0:0:0:
94,129,5644,2,0,P|166:83|241:104,1,160,8|0,0:0|0:0,0:0:0:0:
264,173,6193,1,0,0:0:0:0:
349,330,6376,6,0,B|349:209|349:209|385:244,1,160,2|0,0:0|0:0,0:0:0:0:
441,284,6925,1,0,0:0:0:0:
349,330,7108,2,0,L|248:325,1,80,8|0,0:0|0:0,0:0:0:0:
143,252,7474,2,0,P|182:258|221:250,1,80,0|0,0:0|0:0,0:0:0:0:
88,193,7840,1,0,0:0:0:0:
88,193,8023,1,0,0:0:0:0:
120,330,8205,1,0,0:0:0:0:
120,330,8388,1,0,0:0:0:0:
30,253,8571,2,0,L|45:73,1,160,8|0,0:0|0:0,0:0:0:0:
116,61,9120,1,0,0:0:0:0:
259,88,9303,6,0,P|343:101|422:87,1,160,2|0,0:0|0:0,0:0:0:0:
465,25,9852,1,0,0:0:0:0:
342,138,10035,2,0,L|356:234,1,80,8|0,0:0|0:0,0:0:0:0:
447,330,10401,1,0,0:0:0:0:
447,330,10583,1,0,0:0:0:0:
271,270,10766,2,0,B|230:256|195:281|195:281|156:330|85:341|23:288|27:219,1,320
121,166,11864,6,0,P|124:196|119:226,1,60.0000022888184,0|0,0:0|0:0,0:0:0:0:
36,118,12230,6,0,L|215:126,1,160,4|0,0:0|0:0,0:0:0:0:
344,46,12962,2,0,L|252:51,1,80,2|0,0:0|0:0,0:0:0:0:
270,192,13327,1,0,0:0:0:0:
270,192,13510,1,0,0:0:0:0:
399,117,13693,2,0,L|500:127,1,80,0|0,0:0|0:0,0:0:0:0:
432,251,14059,1,0,0:0:0:0:
432,251,14242,1,0,0:0:0:0:
270,192,14425,2,0,B|259:245|259:245|276:301|276:301|262:348,1,160,2|0,0:0|0:0,0:0:0:0:
194,302,14974,1,0,0:0:0:0:
343,243,15157,6,0,B|381:275|432:252|432:252|464:273|510:253,1,160,0|0,0:0|0:0,0:0:0:0:
473,48,15888,2,0,P|486:88|468:141,1,80,2|0,0:0|0:0,0:0:0:0:
313,82,16254,2,0,L|401:90,1,80,0|0,0:0|0:0,0:0:0:0:
223,111,16620,1,0,0:0:0:0:
67,83,16803,1,0,0:0:0:0:
231,74,16986,1,0,0:0:0:0:
127,171,17169,1,0,0:0:0:0:
115,26,17352,2,0,P|92:87|135:178,1,160,2|0,0:0|0:0,0:0:0:0:
205,188,17901,1,0,0:0:0:0:
358,90,18083,6,0,B|368:115|368:115|359:136|359:136|395:189|352:251,1,160,4|0,0:0|0:0,0:0:0:0:
295,190,18632,1,0,0:0:0:0:
342,317,18815,2,0,P|284:266|295:190,1,160,2|0,0:0|0:0,0:0:0:0:
359,239,19364,1,0,0:0:0:0:
214,309,19547,2,0,B|136:333|136:333|48:315,1,160,0|0,0:0|0:0,0:0:0:0:
48,237,20096,1,0,0:0:0:0:
138,168,20279,2,0,L|131:266,1,80,2|0,0:0|0:0,0:0:0:0:
53,151,20644,2,0,P|45:107|54:68,1,80,0|0,0:0|0:0,0:0:0:0:
197,43,21010,6,0,B|242:53|242:53|299:27|349:63,1,160,0|0,0:0|0:0,0:0:0:0:
349,63,21742,1,2,0:0:0:0:
449,194,21925,1,0,0:0:0:0:
278,218,22108,2,0,L|287:139,1,80,0|0,0:0|0:0,0:0:0:0:
449,194,22474,2,0,L|450:275,1,80,0|0,0:0|0:0,0:0:0:0:
346,339,22840,1,0,0:0:0:0:
346,339,23023,1,0,0:0:0:0:
200,271,23205,2,0,B|159:277|159:277|113:269,1,80,2|0,0:0|0:0,0:0:0:0:
162,114,23571,2,0,P|171:159|158:200,1,80,0|0,0:0|0:0,0:0:0:0:
86,73,23937,6,0,L|258:59,1,160,4|0,0:0|0:0,0:0:0:0:
433,104,24669,2,0,L|342:96,1,80,2|0,0:0|0:0,0:0:0:0:
313,218,25035,1,0,0:0:0:0:
313,218,25218,1,0,0:0:0:0:
444,280,25401,2,0,L|438:188,1,80,0|0,0:0|0:0,0:0:0:0:
353,96,25766,1,0,0:0:0:0:
353,96,25949,1,0,0:0:0:0:
313,218,26132,2,0,B|264:235|264:235|205:220|205:220|142:241,1,160,2|0,0:0|0:0,0:0:0:0:
206,301,26681,1,0,0:0:0:0:
313,378,26864,6,0,L|313:210,1,160,0|0,0:0|0:0,0:0:0:0:
251,71,27596,2,0,P|247:115|269:159,1,80,2|0,0:0|0:0,0:0:0:0:
432,85,27962,2,0,L|345:97,1,80,0|0,0:0|0:0,0:0:0:0:
166,38,28327,1,0,0:0:0:0:
324,22,28510,1,0,0:0:0:0:
260,147,28693,1,0,0:0:0:0:
324,22,28876,1,0,0:0:0:0:
159,129,29059,2,0,B|81:114|81:114|-3:147,1,160,2|0,0:0|0:0,0:0:0:0:
14,223,29608,1,0,0:0:0:0:
159,129,29791,6,0,B|139:173|158:207|158:207|179:246|153:297,1,160,4|0,0:0|0:0,0:0:0:0:
89,241,30340,1,0,0:0:0:0:
151,362,30523,2,0,P|88:319|89:243,1,160,2|0,0:0|0:0,0:0:0:0:
159,283,31071,1,0,0:0:0:0:
284,360,31254,6,0,L|282:262,1,80,0|0,0:0|0:0,0:0:0:0:
364,194,31620,1,0,0:0:0:0:
364,194,31803,1,0,0:0:0:0:
452,278,31986,2,0,P|412:290|366:279,1,80,2|0,0:0|0:0,0:0:0:0:
359,114,32352,2,0,L|364:207,1,80,0|0,0:0|0:0,0:0:0:0:
275,75,32718,6,0,P|266:119|281:162,1,80,4|0,0:0|0:0,0:0:0:0:
441,150,33083,2,0,P|450:111|441:72,1,80,2|0,0:0|0:0,0:0:0:0:
275,152,33449,1,2,0:0:0:0:
362,30,33632,1,0,0:0:0:0:
191,39,33815,2,0,L|109:35,1,80,2|0,0:0|0:0,0:0:0:0:
58,194,34181,6,0,P|110:251|94:341,1,160,8|0,0:0|0:0,0:0:0:0:
102,328,34730,1,8,0:3:0:0:
259,253,34913,2,0,L|353:259,1,80,10|0,0:1|0:0,0:0:0:0:
482,328,35279,2,0,L|376:337,1,80,2|0,0:1|0:0,0:0:0:0:
211,345,35644,5,4,0:0:0:0:
211,345,36010,1,2,0:0:0:0:
190,186,36376,2,0,L|181:98,1,80,8|0,0:0|0:0,0:0:0:0:
292,43,36742,1,0,0:0:0:0:
304,122,36925,1,0,0:0:0:0:
369,76,37108,2,0,L|463:81,1,80,2|0,0:0|0:0,0:0:0:0:
476,208,37474,1,0,0:0:0:0:
467,287,37657,1,0,0:0:0:0:
321,242,37840,2,0,L|401:240,1,80,8|0,0:0|0:0,0:0:0:0:
234,314,38205,1,0,0:0:0:0:
112,301,38388,1,8,0:3:0:0:
190,186,38571,6,0,P|200:145|187:89,1,80,2|0,0:1|0:0,0:0:0:0:
39,49,38937,2,0,P|73:66|121:62,1,80,8|0,0:3|0:0,0:0:0:0:
275,62,39303,2,0,P|355:36|412:84,1,160,8|0,0:0|0:0,0:0:0:0:
338,117,39852,1,0,0:0:0:0:
484,39,40035,2,0,P|493:87|481:122,1,80,0|0,1:0|0:0,0:0:0:0:
413,180,40401,1,0,0:0:0:0:
343,275,40583,1,8,0:3:0:0:
190,186,40766,2,0,L|276:202,1,80,2|0,0:1|0:0,0:0:0:0:
298,356,41132,1,2,0:3:0:0:
152,296,41315,1,2,0:3:0:0:
343,275,41498,6,0,B|417:256|417:256|430:270|430:270|501:252,2,160,6|4|8,0:1|0:1|0:0,0:0:0:0:
152,296,42596,1,0,0:0:0:0:
86,342,42779,1,0,0:0:0:0:
69,182,42962,2,0,L|80:262,1,80,8|0,0:3|0:0,0:0:0:0:
213,343,43327,1,8,0:3:0:0:
152,296,43510,1,0,0:0:0:0:
232,186,43693,2,0,L|226:266,1,80,8|0,0:0|0:0,0:0:0:0:
300,123,44059,1,0,0:0:0:0:
150,115,44242,1,8,0:3:0:0:
325,35,44425,6,0,B|385:26|385:26|489:44,1,160,4|0,0:1|1:0,0:0:0:0:
458,135,44974,1,0,1:0:0:0:
300,123,45157,1,8,0:3:0:0:
434,224,45340,1,2,0:1:0:0:
325,35,45523,1,2,0:1:0:0:
278,210,45705,1,0,0:0:0:0:
278,210,45797,1,0,0:0:0:0:
278,210,45888,6,0,L|255:299,1,80,8|8,0:0|0:0,0:0:0:0:
257,287,46620,6,0,P|217:284|179:297,2,53.3333333333333,0|0|0,0:0|0:0|0:0,0:0:0:0:
334,329,46986,2,0,P|368:334|398:328,2,53.3333333333333,0|0|0,0:0|0:0|0:0,0:0:0:0:
153,216,47352,6,0,L|163:385,1,160,6|2,0:1|0:1,0:0:0:0:
52,322,47901,1,0,0:0:0:0:
81,147,48083,2,0,P|122:121|169:121,1,80,10|0,0:0|0:0,0:0:0:0:
301,196,48449,2,0,P|257:190|228:167,1,80,0|0,0:0|0:0,0:0:0:0:
357,113,48815,6,0,P|323:187|365:256,1,160,2|2,0:1|0:1,0:0:0:0:
480,195,49364,1,0,0:0:0:0:
445,42,49547,1,10,0:0:0:0:
269,68,49730,1,0,0:0:0:0:
480,195,49913,2,0,P|440:179|394:187,1,80,0|0,0:0|0:0,0:0:0:0:
303,328,50279,6,0,L|470:336,1,160,6|2,0:1|0:1,0:0:0:0:
232,266,50827,1,0,0:0:0:0:
115,346,51010,2,0,L|100:173,1,160,10|0,0:0|0:0,0:0:0:0:
195,79,51559,1,2,0:3:0:0:
16,168,51742,2,0,L|0:82,1,80,2|0,0:1|0:1,0:0:0:0:
195,79,52108,2,0,L|190:166,1,80,2|0,0:1|0:1,0:0:0:0:
94,22,52474,2,0,P|169:35|276:15,1,160,10|2,0:0|0:1,0:0:0:0:
407,68,53023,1,0,0:0:0:0:
300,195,53205,5,6,0:1:0:0:
407,68,53388,1,0,0:0:0:0:
448,225,53571,2,0,L|456:307,1,80,2|0,0:1|0:0,0:0:0:0:
319,317,53937,2,0,P|354:284|462:313,1,160,10|0,0:0|0:0,0:0:0:0:
223,345,54486,1,0,0:0:0:0:
139,197,54669,5,2,0:1:0:0:
223,345,54852,1,0,0:0:0:0:
299,194,55035,2,0,L|310:115,1,80,2|0,0:1|0:0,0:0:0:0:
220,253,55401,2,0,B|168:243|139:197|139:197|114:220|72:220,1,160,10|0,0:0|0:0,0:0:0:0:
85,139,55949,1,0,0:0:0:0:
85,139,56041,1,0,0:0:0:0:
85,139,56132,5,2,0:1:0:0:
383,65,56498,1,2,0:1:0:0:
63,35,56864,1,10,0:0:0:0:
408,157,57230,1,0,0:0:0:0:
344,280,57413,1,2,0:3:0:0:
221,166,57596,2,0,P|206:117|215:69,1,80,2|0,0:1|0:0,0:0:0:0:
383,65,57962,1,8,0:3:0:0:
344,280,58144,1,8,0:3:0:0:
310,115,58327,1,10,0:0:0:0:
418,323,58510,2,0,P|336:314|250:343,1,160,4|0,0:1|0:0,0:0:0:0:
62,341,59059,6,0,P|52:300|58:253,1,80,6|0,0:1|0:0,0:0:0:0:
268,256,59425,2,0,P|271:296|262:335,1,80,2|0,0:1|0:0,0:0:0:0:
161,197,59791,2,0,B|145:154|158:116|158:116|172:78|149:33,1,160,10|0,0:0|0:0,0:0:0:0:
79,86,60340,1,0,0:0:0:0:
237,153,60523,2,0,L|320:146,1,80,2|0,0:1|0:0,0:0:0:0:
458,63,60888,2,0,L|360:59,1,80,2|0,0:1|0:0,0:0:0:0:
237,153,61254,1,10,0:0:0:0:
436,208,61437,1,0,0:0:0:0:
337,348,61620,2,0,P|330:295|340:263,1,80,0|0,0:0|0:0,0:0:0:0:
336,270,61894,1,0,0:0:0:0:
336,270,61986,6,0,L|246:281,1,80,6|0,0:1|0:0,0:0:0:0:
94,336,62352,2,0,L|188:341,1,80,2|0,0:1|0:0,0:0:0:0:
431,305,62718,2,0,P|428:222|366:172,1,160,10|2,0:0|0:3,0:0:0:0:
172,250,63266,1,2,0:3:0:0:
337,348,63449,1,2,0:1:0:0:
373,174,63632,1,0,1:0:0:0:
277,104,63815,2,0,P|236:117|176:102,1,80,2|0,0:1|0:0,0:0:0:0:
51,35,64181,2,0,L|43:198,1,160,10|2,0:0|0:1,0:0:0:0:
172,250,64730,1,0,0:0:0:0:
199,113,64913,6,0,L|193:23,1,80,6|0,0:1|0:0,0:0:0:0:
382,94,65279,2,0,L|371:185,1,80,2|0,0:1|0:0,0:0:0:0:
283,278,65644,2,0,B|333:260|333:260|397:274|397:274|454:255,1,160,10|0,0:0|0:0,0:0:0:0:
481,158,66193,1,0,0:0:0:0:
289,24,66376,2,0,L|295:107,1,80,2|8,0:1|0:3,0:0:0:0:
473,78,66742,2,0,L|481:169,1,80,2|0,0:1|0:0,0:0:0:0:
336,345,67108,2,0,B|286:363|286:363|222:349|222:349|165:368,1,160,10|0,0:0|0:0,0:0:0:0:
92,312,67657,1,0,0:0:0:0:
174,178,67840,5,4,0:0:0:0:
92,312,68023,1,0,1:0:0:0:
16,179,68205,2,0,L|11:95,1,80,2|0,0:1|0:0,0:0:0:0:
259,69,68571,1,10,0:0:0:0:
57,21,68754,1,8,0:0:0:0:
174,178,68937,2,0,P|212:185|256:178,1,80,4|0,0:0|0:0,0:0:0:0:
375,52,69303,1,2,0:1:0:0:
375,52,69669,1,2,0:1:0:0:
375,52,70035,1,10,0:0:0:0:
431,219,70218,1,0,1:0:0:0:
252,179,70401,1,8,0:0:0:0:
70,78,81742,5,0,1:0:0:0:
259,106,81925,1,0,1:0:0:0:
137,222,82108,2,0,L|132:128,1,80,8|0,0:0|0:0,0:0:0:0:
63,287,82474,6,0,P|134:319|213:286,1,160,4|0,0:0|0:0,0:0:0:0:
437,214,83205,2,0,L|354:211,1,80,8|0,0:0|0:0,0:0:0:0:
207,291,83571,2,0,L|311:289,1,80,0|0,0:0|0:0,0:0:0:0:
452,289,83937,2,0,P|434:240|439:205,1,80,0|0,0:0|1:0,0:0:0:0:
459,55,84303,1,8,0:3:0:0:
459,55,84669,2,0,L|288:51,1,160,8|0,0:0|0:0,0:0:0:0:
238,104,85218,1,0,0:0:0:0:
238,104,85309,1,0,0:0:0:0:
238,104,85401,5,0,0:0:0:0:
145,271,85766,1,0,1:0:0:0:
75,117,86132,2,0,L|61:29,1,80,8|0,0:0|0:0,0:0:0:0:
158,192,86498,2,0,L|144:275,1,80,0|0,0:0|0:0,0:0:0:0:
238,104,86864,1,0,0:0:0:0:
406,138,87047,1,2,0:3:0:0:
296,210,87230,1,0,1:0:0:0:
309,45,87413,1,0,0:0:0:0:
394,234,87596,2,0,P|405:278|395:333,1,80,8|0,0:0|0:0,0:0:0:0:
269,314,87962,2,0,L|179:309,1,80,0|0,0:0|0:0,0:0:0:0:
189,309,88236,1,0,0:0:0:0:
189,309,88327,6,0,P|124:329|60:274,1,160,4|0,0:0|0:0,0:0:0:0:
136,248,88876,1,0,0:0:0:0:
277,154,89059,2,0,L|268:313,1,160,8|0,0:0|0:0,0:0:0:0:
189,309,89608,1,0,0:0:0:0:
129,168,89791,2,0,L|136:254,1,80,0|2,0:0|0:3,0:0:0:0:
41,115,90157,2,0,L|53:32,1,80,0|0,1:0|0:0,0:0:0:0:
220,36,90523,1,8,0:0:0:0:
220,36,90888,2,0,L|233:119,1,80,0|0,0:0|0:0,0:0:0:0:
232,115,91163,1,0,0:0:0:0:
232,115,91254,6,0,P|286:103|395:117,1,160,0|0,0:0|1:0,0:0:0:0:
410,312,91986,1,8,0:0:0:0:
467,203,92169,1,0,0:0:0:0:
296,272,92352,2,0,P|243:269|204:278,1,80,0|0,0:0|0:0,0:0:0:0:
60,329,92718,2,0,P|101:335|154:325,1,80,0|2,0:0|0:3,0:0:0:0:
210,194,93083,2,0,L|217:281,1,80,0|0,1:0|0:0,0:0:0:0:
109,92,93449,1,8,0:0:0:0:
109,92,93815,2,0,L|205:83,1,80,0|0,0:0|0:0,0:0:0:0:
271,32,94181,6,0,P|320:118|418:80,1,210.000008010865,0|0,0:0|0:0,0:0:0:0:
348,45,94913,6,0,L|335:219,1,160,4|0,0:1|0:0,0:0:0:0:
329,284,95462,1,0,0:0:0:0:
476,244,95644,1,0,1:0:0:0:
329,284,95827,1,0,1:0:0:0:
475,348,96010,2,0,L|391:341,1,80,0|0,1:0|0:0,0:0:0:0:
243,302,96376,2,0,P|190:298|147:310,1,80,8|0,0:0|0:0,0:0:0:0:
61,352,96742,2,0,L|57:251,1,80,0|0,0:0|0:0,0:0:0:0:
57,272,97016,1,0,0:0:0:0:
57,272,97108,6,0,P|82:221|74:110,1,160,0|0,0:0|1:0,0:0:0:0:
255,45,97840,2,0,L|349:52,1,80,8|0,0:0|0:0,0:0:0:0:
470,107,98205,2,0,L|382:115,1,80,0|0,0:0|0:0,0:0:0:0:
269,192,98571,1,0,0:0:0:0:
399,248,98754,1,2,0:3:0:0:
390,114,98937,1,0,1:0:0:0:
269,192,99120,1,0,0:0:0:0:
457,305,99303,2,0,P|365:282|295:311,1,160,8|0,0:0|0:0,0:0:0:0:
189,353,99852,1,0,0:0:0:0:
189,353,99943,1,0,0:0:0:0:
189,353,100035,6,0,B|196:325|188:297|188:297|179:267|188:239|188:239|197:209|188:179,1,160,4|0,0:0|0:0,0:0:0:0:
112,210,100583,1,0,0:0:0:0:
209,117,100766,2,0,P|135:136|111:209,1,160,8|0,0:0|0:0,0:0:0:0:
191,195,101315,1,0,0:0:0:0:
302,128,101498,2,0,L|297:37,1,80,0|2,0:0|0:3,0:0:0:0:
396,136,101864,2,0,L|386:223,1,80,0|0,1:0|0:0,0:0:0:0:
305,341,102230,1,8,0:0:0:0:
305,341,102596,2,0,L|400:338,1,80,0|0,0:0|0:0,0:0:0:0:
425,337,102870,1,0,0:0:0:0:
425,337,102962,5,4,0:1:0:0:
71,284,103693,1,4,0:0:0:0:
429,66,104425,1,4,0:0:0:0:
429,66,104791,1,2,0:1:0:0:
205,99,105157,1,2,0:1:0:0:
205,99,105523,1,8,0:0:0:0:
343,200,105705,1,0,1:0:0:0:
210,316,105888,6,0,L|216:237,2,80,4|4|2,0:1|0:0|0:0,0:0:0:0:
66,335,106986,1,0,0:0:0:0:
135,285,107169,1,0,0:0:0:0:
210,316,107352,2,0,L|263:323,1,40,2|0,0:0|0:0,0:0:0:0:
441,251,107718,1,4,0:1:0:0:
475,331,107901,1,0,0:0:0:0:
361,217,108083,1,8,0:0:0:0:
475,331,108266,2,0,L|420:338,2,40,4|0|0,0:1|0:0|0:0,0:0:0:0:
460,125,108815,6,0,L|375:136,1,80,4|4,0:1|0:1,0:0:0:0:
258,68,109364,1,0,0:0:0:0:
258,68,109547,2,0,L|204:63,1,40,2|0,0:0|0:0,0:0:0:0:
116,132,109913,2,0,L|165:126,1,40,2|0,0:0|0:0,0:0:0:0:
251,199,110279,2,0,L|202:192,1,40,2|2,0:0|0:0,0:0:0:0:
63,248,110644,2,0,P|97:269|113:321,1,80,4|8,0:1|0:0,0:0:0:0:
257,361,111193,2,0,L|270:266,1,80,4|0,0:1|0:0,0:0:0:0:
373,124,111742,6,0,P|374:162|405:207,2,80,4|4|2,0:1|0:1|0:0,0:0:0:0:
485,33,112840,1,2,0:0:0:0:
399,43,113023,1,0,0:0:0:0:
373,124,113205,2,0,L|320:117,1,40,2|2,0:0|0:0,0:0:0:0:
180,140,113571,1,0,0:1:0:0:
254,88,113754,1,0,0:0:0:0:
109,88,113937,1,8,0:0:0:0:
250,199,114120,2,0,L|251:246,1,40,4|0,0:1|0:0,0:0:0:0:
147,323,114486,1,0,1:0:0:0:
147,323,114577,1,0,1:0:0:0:
147,323,114669,6,0,P|101:315|60:321,1,80,4|0,0:1|0:0,0:0:0:0:
266,351,115035,1,0,1:0:0:0:
431,313,115218,1,0,1:0:0:0:
322,183,115401,1,0,1:0:0:0:
356,363,115583,1,2,0:1:0:0:
405,147,115766,1,2,0:1:0:0:
431,313,115949,1,0,0:0:0:0:
462,72,116132,6,0,P|433:42|347:34,1,120.000004577637,8|8,0:0|0:0,0:0:0:0:
156,117,116864,6,0,L|215:112,2,53.3333333333333,0|0|0,0:0|0:0|0:0,0:0:0:0:
78,56,117230,2,0,L|15:51,2,53.3333333333333,0|0|0,0:0|0:0|0:0,0:0:0:0:
265,49,117596,6,0,P|244:124|269:217,1,160,6|2,0:1|0:1,0:0:0:0:
388,191,118144,1,0,0:0:0:0:
438,32,118327,2,0,L|349:29,1,80,10|0,0:0|0:0,0:0:0:0:
187,43,118693,2,0,P|236:55|271:46,1,80,0|0,0:0|0:0,0:0:0:0:
438,32,119059,2,0,L|429:119,1,80,2|0,0:1|0:0,0:0:0:0:
392,268,119425,2,0,P|381:226|392:182,1,80,2|0,0:1|0:0,0:0:0:0:
464,325,119791,1,10,0:0:0:0:
318,324,119974,1,0,0:0:0:0:
467,186,120157,2,0,L|381:191,1,80,0|0,0:0|0:0,0:0:0:0:
221,273,120523,6,0,P|176:263|126:276,1,80,6|0,0:1|0:0,0:0:0:0:
14,366,120888,2,0,P|48:347|69:308,1,80,2|0,0:1|0:0,0:0:0:0:
29,94,121254,2,0,P|20:157|78:239,1,160,10|0,0:0|0:0,0:0:0:0:
220,183,121803,1,2,0:3:0:0:
125,44,121986,2,0,L|215:57,1,80,2|0,0:1|0:1,0:0:0:0:
384,106,122352,2,0,L|291:112,1,80,2|0,0:1|0:1,0:0:0:0:
455,46,122718,2,0,P|475:123|427:189,1,160,10|2,0:0|0:1,0:0:0:0:
306,199,123266,1,0,0:0:0:0:
204,55,123449,5,6,0:1:0:0:
384,106,123632,1,0,0:0:0:0:
306,278,123815,2,0,L|305:190,1,80,2|0,0:1|0:0,0:0:0:0:
377,328,124181,2,0,P|313:315|211:338,1,160,10|0,0:0|0:0,0:0:0:0:
89,277,124730,1,0,0:0:0:0:
199,161,124913,5,2,0:1:0:0:
221,333,125096,1,0,0:0:0:0:
112,183,125279,2,0,P|72:183|29:201,1,80,2|0,0:1|0:0,0:0:0:0:
279,194,125644,2,0,P|318:194|355:179,1,80,10|0,0:0|0:0,0:0:0:0:
444,46,126010,1,0,0:0:0:0:
465,199,126193,1,0,0:0:0:0:
299,100,126376,5,2,0:1:0:0:
490,343,126742,1,2,0:1:0:0:
444,46,127108,1,10,0:0:0:0:
342,351,127474,2,0,P|304:337|257:344,1,80,0|2,0:0|0:3,0:0:0:0:
51,353,127840,1,2,0:1:0:0:
215,256,128023,1,0,0:0:0:0:
54,173,128205,2,0,L|64:267,1,80,8|8,0:3|0:3,0:0:0:0:
165,352,128571,1,10,0:0:0:0:
146,127,128754,2,0,P|195:140|307:124,1,160,4|0,0:1|0:0,0:0:0:0:
462,53,129303,6,0,L|451:218,1,160,6|2,0:1|0:1,0:0:0:0:
356,33,129852,1,0,0:0:0:0:
346,226,130035,2,0,P|358:266|339:320,1,80,10|0,0:0|0:0,0:0:0:0:
181,258,130401,2,0,L|274:267,1,80,0|0,0:0|0:0,0:0:0:0:
99,316,130766,2,0,P|81:243|132:170,1,160,2|2,0:1|0:1,0:0:0:0:
181,258,131315,1,0,0:0:0:0:
5,332,131498,1,10,0:0:0:0:
180,367,131681,1,0,0:0:0:0:
123,174,131864,2,0,L|117:87,1,80,0|0,0:0|0:0,0:0:0:0:
283,43,132230,6,0,P|370:32|436:68,1,160,6|2,0:1|0:1,0:0:0:0:
339,168,132779,1,0,0:0:0:0:
205,87,132962,2,0,P|193:33|200:0,2,80,10|0|2,0:0|0:0|0:3,0:0:0:0:
339,168,133510,1,2,0:3:0:0:
461,260,133693,2,0,L|451:346,1,80,2|0,0:1|1:0,0:0:0:0:
330,247,134059,2,0,L|339:168,1,80,2|0,0:1|0:0,0:0:0:0:
366,328,134425,2,0,P|293:327|244:255,1,160,10|2,0:0|0:1,0:0:0:0:
339,168,134974,1,0,0:0:0:0:
461,260,135157,5,6,0:1:0:0:
244,261,135340,1,0,0:0:0:0:
427,87,135523,2,0,L|432:180,1,80,2|0,0:1|0:0,0:0:0:0:
244,261,135888,2,0,P|166:280|85:258,1,160,10|0,0:0|0:0,0:0:0:0:
165,128,136437,1,0,0:0:0:0:
244,261,136620,2,0,L|251:351,1,80,2|8,0:1|0:3,0:0:0:0:
330,247,136986,2,0,L|339:168,1,80,2|0,0:1|0:0,0:0:0:0:
430,41,137352,2,0,P|349:28|261:50,1,160,10|0,0:0|0:0,0:0:0:0:
165,128,137901,1,0,0:0:0:0:
339,168,138083,5,4,0:0:0:0:
273,44,138266,1,0,1:0:0:0:
85,137,138449,2,0,L|189:124,1,80,2|0,0:1|0:0,0:0:0:0:
339,168,138815,1,10,0:0:0:0:
166,242,138998,1,8,0:0:0:0:
153,33,139181,2,0,L|68:42,1,80,4|0,0:0|0:0,0:0:0:0:
24,220,139547,5,0,1:0:0:0:
166,242,139730,1,0,1:0:0:0:
81,316,139913,1,8,0:0:0:0:
24,220,140096,1,2,0:1:0:0:
164,127,140279,1,8,0:0:0:0:
276,295,140462,1,8,0:3:0:0:
81,316,140644,1,8,0:0:0:0:
164,127,140827,1,8,0:0:0:0:
339,168,141010,6,0,L|500:177,2,160,4|2|8,0:1|0:3|0:0,0:0:0:0:
236,44,142108,1,4,0:1:0:0:
236,44,142474,2,0,P|169:52|146:49,1,80,2|0,0:3|0:0,0:0:0:0:
329,71,142840,2,0,P|373:66|413:73,1,80,8|0,0:0|0:0,0:0:0:0:
457,256,143205,1,4,0:1:0:0:
457,256,143571,1,0,1:0:0:0:
486,84,143754,1,0,0:0:0:0:
362,298,143937,5,8,0:0:0:0:
362,298,144303,2,0,L|272:307,1,80,0|0,1:0|1:0,0:0:0:0:
118,246,144669,2,0,L|206:256,1,80,8|0,0:0|1:0,0:0:0:0:
69,323,145035,1,8,0:0:0:0:
70,283,145126,1,0,1:0:0:0:
71,243,145217,1,0,1:0:0:0:
72,203,145309,1,0,1:0:0:0:
47,171,145401,6,0,B|47:117|47:117|16:12,2,160,4|2|8,0:1|0:3|0:0,0:0:0:0:
201,127,146498,1,8,0:0:0:0:
201,127,146864,1,4,0:0:0:0:
368,108,147047,1,0,0:0:0:0:
275,265,147230,2,0,L|269:168,1,80,8|0,0:0|0:0,0:0:0:0:
323,31,147596,1,4,0:1:0:0:
323,31,147962,2,0,P|361:19|404:26,1,80,0|0,1:0|0:0,0:0:0:0:
452,197,148327,5,8,0:0:0:0:
486,31,148510,1,8,0:3:0:0:
284,105,148693,1,8,0:0:0:0:
452,197,148876,1,0,1:0:0:0:
452,197,148968,1,0,1:0:0:0:
452,197,149059,2,0,L|453:261,3,40,0|0|0|0,1:0|1:0|1:0|1:0,0:0:0:0:
352,298,149425,1,0,1:0:0:0:
352,298,149516,1,0,1:0:0:0:
352,298,149608,2,0,L|298:299,1,40,2|0,0:1|1:0,0:0:0:0:
164,207,149791,6,0,P|215:255|205:345,2,160,4|2|8,0:0|0:3|0:0,0:0:0:0:
5,228,150888,1,4,0:1:0:0:
5,228,151254,1,0,0:0:0:0:
141,290,151437,1,0,0:0:0:0:
78,101,151620,2,0,L|83:196,1,80,8|0,0:0|0:0,0:0:0:0:
83,360,151986,5,0,1:0:0:0:
181,73,152352,1,0,1:0:0:0:
347,344,152718,1,12,0:0:0:0:
460,46,153083,1,0,1:0:0:0:
327,127,153266,1,8,0:0:0:0:
474,197,153449,1,4,0:0:0:0:
460,46,153632,1,0,0:0:0:0:
359,265,153815,1,8,0:0:0:0:
474,197,153998,1,0,1:0:0:0:
230,221,154181,6,0,B|179:212|179:212|65:245,1,160,4|8,0:1|0:0,0:0:0:0:
75,242,154913,1,8,0:0:0:0:
359,265,155279,2,0,P|366:182|307:106,1,160,8|8,0:0|0:0,0:0:0:0:
182,114,155827,1,0,0:0:0:0:
326,119,156010,1,8,0:0:0:0:
457,338,156376,5,4,0:0:0:0:
473,226,156742,1,2,0:1:0:0:
423,75,157108,1,2,0:1:0:0:
265,210,157474,1,2,0:1:0:0:
457,338,157840,1,2,0:1:0:0:
473,226,158205,1,2,0:1:0:0:
489,141,158571,5,0,0:0:0:0:
256,192,176132,12,0,179059,0:0:0:0:
147,85,181620,5,0,0:0:0:0:
147,85,181803,1,0,0:0:0:0:
147,85,181986,6,0,P|112:76|67:91,2,53.3333333333333,0|0|0,0:0|0:0|0:0,0:0:0:0:
226,147,182352,2,0,P|259:153|297:149,2,53.3333333333333,0|0|0,0:0|0:0|0:0,0:0:0:0:
45,24,182718,6,0,L|62:205,1,160,6|0,0:1|0:0,0:0:0:0:
175,287,183266,1,0,1:0:0:0:
226,147,183449,1,8,0:0:0:0:
82,273,183632,1,0,1:0:0:0:
246,232,183815,2,0,P|290:238|329:263,1,80,8|0,0:0|1:0,0:0:0:0:
441,344,184181,2,0,P|413:354|369:348,2,53.3333333333333,0|0|0,1:0|1:0|1:0,0:0:0:0:
462,263,184547,1,2,0:1:0:0:
440,247,184669,1,0,0:0:0:0:
427,223,184791,1,0,0:0:0:0:
420,197,184913,6,0,P|409:115|464:42,1,160,4|0,0:1|0:0,0:0:0:0:
327,164,185462,1,0,0:0:0:0:
230,61,185644,2,0,L|148:66,1,80,4|0,0:1|0:0,0:0:0:0:
71,193,186010,1,0,1:0:0:0:
44,42,186193,1,0,1:0:0:0:
184,193,186376,2,0,P|183:242|171:284,1,80,2|0,0:1|0:0,0:0:0:0:
71,193,186742,2,0,P|69:152|81:110,1,80,2|0,0:1|0:0,0:0:0:0:
248,142,187108,1,8,0:0:0:0:
71,193,187291,1,0,1:0:0:0:
255,278,187474,2,0,L|166:271,1,80,2|0,0:3|0:0,0:0:0:0:
91,285,187840,6,0,P|88:335|96:372,2,80,0|0|0,0:0|0:0|0:0,0:0:0:0:
248,142,188571,1,4,0:1:0:0:
400,123,188754,1,0,0:0:0:0:
177,58,188937,2,0,P|121:55|87:62,1,80,0|0,1:0|0:0,0:0:0:0:
90,145,189303,2,0,P|137:164|170:198,2,80,0|0|0,0:0|0:0|0:0,0:0:0:0:
249,301,190035,1,4,0:1:0:0:
400,277,190218,1,2,0:3:0:0:
160,276,190401,2,0,P|114:272|79:280,1,80,8|0,0:0|0:0,0:0:0:0:
249,301,190766,5,4,0:1:0:0:
477,63,191132,1,4,0:1:0:0:
84,69,191498,1,8,0:0:0:0:
471,219,191864,1,8,0:0:0:0:
477,63,192047,1,0,0:0:0:0:
311,130,192230,2,0,L|214:135,1,80,0|0,1:0|0:0,0:0:0:0:
215,146,192504,2,0,L|156:145,2,40,0|0|0,0:0|0:0|0:0,0:0:0:0:
263,218,192779,1,2,0:1:0:0:
263,218,192870,1,0,0:0:0:0:
263,218,192962,1,8,0:0:0:0:
361,291,193144,2,0,P|359:217|436:177,1,160,4|0,0:1|0:0,0:0:0:0:
453,332,193693,6,0,L|431:247,1,80,4|0,0:1|0:0,0:0:0:0:
404,104,194059,2,0,P|404:145|435:182,1,80,2|0,0:1|0:0,0:0:0:0:
472,39,194425,1,10,0:0:0:0:
472,39,194791,1,0,0:0:0:0:
426,176,194974,1,0,0:0:0:0:
326,51,195157,2,0,P|281:42|223:52,1,80,2|0,0:1|0:0,0:0:0:0:
160,171,195523,2,0,P|172:128|167:86,1,80,2|0,0:1|0:0,0:0:0:0:
27,44,195888,1,10,0:0:0:0:
168,93,196071,1,0,0:0:0:0:
75,232,196254,2,0,L|64:140,1,80,0|0,1:0|0:0,0:0:0:0:
149,304,196620,6,0,P|189:310|235:303,1,80,4|0,0:1|0:0,0:0:0:0:
376,253,196986,2,0,P|333:247|289:255,1,80,2|0,0:1|0:0,0:0:0:0:
426,329,197352,2,0,L|418:150,1,160,10|0,0:0|0:0,0:0:0:0:
315,54,197901,1,0,1:0:0:0:
226,225,198083,2,0,L|216:134,1,80,2|0,0:1|0:0,0:0:0:0:
315,54,198449,1,2,0:1:0:0:
315,54,198815,2,0,P|359:58|400:55,1,80,10|0,0:0|0:0,0:0:0:0:
217,49,199181,2,0,P|168:43|128:49,1,80,0|0,0:0|0:0,0:0:0:0:
48,185,199547,5,4,0:1:0:0:
217,145,199730,1,0,0:0:0:0:
141,295,199913,2,0,L|129:206,1,80,2|0,0:1|0:0,0:0:0:0:
228,343,200279,1,10,0:0:0:0:
228,343,200644,2,0,P|278:341|316:345,1,80,0|0,0:0|0:0,0:0:0:0:
455,259,201010,1,4,0:1:0:0:
455,259,201376,1,8,0:0:0:0:
230,235,201559,2,0,P|296:193|301:112,1,160,0|0,0:1|0:0,0:0:0:0:
145,39,202108,1,8,0:0:0:0:
217,145,202291,1,0,0:0:0:0:
383,88,202474,5,4,0:1:0:0:
217,145,202657,1,0,1:0:0:0:
383,88,202840,1,8,0:0:0:0:
232,59,203023,1,0,1:0:0:0:
372,236,203205,1,0,1:0:0:0:
383,88,203388,1,0,1:0:0:0:
455,259,203571,2,0,L|443:355,1,80,8|0,0:0|1:0,0:0:0:0:
235,328,203937,5,4,0:0:0:0:
160,242,204120,1,0,0:0:0:0:
129,344,204303,1,2,0:0:0:0:
235,328,204486,1,0,0:0:0:0:
160,242,204669,6,0,L|151:197,7,40,2|0|0|0|2|0|0|0,0:0|0:0|0:0|0:0|0:0|1:0|1:0|1:0,0:0:0:0:
235,328,205401,6,0,L|269:151,1,160,4|0,0:1|1:0,0:0:0:0:
357,37,206132,2,0,L|364:124,1,80,8|0,0:0|0:0,0:0:0:0:
415,262,206498,2,0,P|376:255|337:261,1,80,2|0,0:0|0:0,0:0:0:0:
160,242,206864,1,0,1:0:0:0:
235,328,207047,1,0,0:0:0:0:
415,262,207230,2,0,L|417:352,1,80,0|0,1:0|0:0,0:0:0:0:
235,328,207596,2,0,P|152:316|73:340,1,160,8|0,0:0|0:0,0:0:0:0:
323,362,208144,1,0,0:0:0:0:
340,186,208327,5,4,0:1:0:0:
105,70,208693,1,0,1:0:0:0:
409,52,209059,2,0,L|313:57,1,80,8|0,0:0|0:0,0:0:0:0:
105,70,209425,2,0,P|145:95|166:140,1,80,2|0,0:0|0:0,0:0:0:0:
243,238,209791,1,0,1:0:0:0:
235,65,209974,1,0,0:0:0:0:
90,231,210157,2,0,L|81:144,1,80,0|0,1:0|0:0,0:0:0:0:
243,238,210523,2,0,B|299:224|299:224|342:242|342:242|403:227,1,160,8|0,0:0|1:0,0:0:0:0:
162,302,211071,1,0,1:0:0:0:
290,320,211254,5,4,0:1:0:0:
352,146,211620,1,0,1:0:0:0:
188,56,211986,2,0,B|227:48|227:48|267:57,1,80,8|0,0:0|0:0,0:0:0:0:
430,145,212352,2,0,B|390:154|390:154|333:141,1,80,2|0,0:0|0:0,0:0:0:0:
188,56,212718,1,0,1:0:0:0:
262,189,212901,1,0,1:0:0:0:
351,64,213083,1,0,0:0:0:0:
188,56,213266,1,0,0:0:0:0:
141,244,213449,2,0,B|171:271|216:265|216:265|250:288|300:271,1,160,8|0,0:0|1:0,0:0:0:0:
406,208,213998,1,0,0:0:0:0:
406,208,214090,1,0,0:0:0:0:
406,208,214181,6,0,L|415:373,1,160,4|0,0:1|1:0,0:0:0:0:
291,64,214913,2,0,P|251:57|206:65,1,80,8|0,0:0|0:0,0:0:0:0:
105,171,215279,2,0,L|93:89,1,80,2|0,0:0|1:0,0:0:0:0:
220,173,215644,2,0,L|202:262,1,80,8|0,0:3|1:0,0:0:0:0:
204,251,215919,1,0,1:0:0:0:
204,251,216010,1,0,1:0:0:0:
88,306,216193,1,0,1:0:0:0:
88,306,216285,1,0,1:0:0:0:
88,306,216376,1,0,1:0:0:0:
271,344,216559,1,2,0:1:0:0:
220,173,216742,2,0,P|168:161|126:173,1,80,2|0,0:1|0:0,0:0:0:0:
142,165,217016,1,0,0:0:0:0:
142,165,217108,6,0,P|124:125|148:13,1,160,4|0,0:1|1:0,0:0:0:0:
431,98,217840,2,0,B|398:113|366:96|366:96|345:119|345:119|313:101|269:114,1,160,8|0,0:0|0:0,0:0:0:0:
401,27,218388,1,0,0:0:0:0:
301,188,218571,1,0,1:0:0:0:
465,224,218754,1,0,0:0:0:0:
331,307,218937,2,0,L|246:302,1,80,2|0,0:1|0:0,0:0:0:0:
83,219,219303,2,0,P|141:271|131:351,1,160,8|0,0:0|0:0,0:0:0:0:
35,127,219852,1,0,0:0:0:0:
35,127,219943,1,0,0:0:0:0:
35,127,220035,6,0,L|28:43,1,80,4|0,0:1|0:0,0:0:0:0:
125,141,220401,2,0,L|166:71,1,80,0|0,1:0|0:0,0:0:0:0:
199,198,220766,2,0,L|280:167,1,80,8|0,0:0|0:0,0:0:0:0:
452,237,221132,2,0,P|399:230|355:241,1,80,2|0,0:0|1:0,0:0:0:0:
291,352,221498,1,0,0:1:0:0:
273,169,221681,1,0,1:0:0:0:
451,316,221864,2,0,L|452:225,1,80,0|0,1:0|0:0,0:0:0:0:
352,72,222230,2,0,L|355:169,1,80,8|0,0:0|0:0,0:0:0:0:
443,33,222596,1,0,1:0:0:0:
443,33,222779,1,0,1:0:0:0:
258,54,222962,6,0,P|179:32|93:64,1,160,4|2,0:1|0:1,0:0:0:0:
106,54,223693,2,0,L|114:133,1,80,2|0,0:1|0:0,0:0:0:0:
187,273,224059,1,2,0:1:0:0:
265,143,224242,1,0,0:0:0:0:
81,240,224425,2,0,P|75:282|88:326,1,80,2|0,0:1|0:0,0:0:0:0:
266,279,224791,2,0,L|174:271,1,80,8|0,0:0|0:0,0:0:0:0:
354,345,225157,2,0,P|376:275|335:192,1,160,8|8,0:0|0:0,0:0:0:0:
266,279,225705,1,0,0:0:0:0:
475,210,225888,6,0,L|484:116,1,80,2|0,0:1|0:0,0:0:0:0:
488,90,226163,1,0,0:0:0:0:
488,90,226254,1,8,0:0:0:0:
306,62,226437,1,2,0:1:0:0:
475,210,226620,1,8,0:3:0:0:
395,74,226803,1,8,0:0:0:0:
342,198,226986,1,8,0:0:0:0:
488,90,227169,1,4,0:1:0:0:
256,192,227260,12,0,231742,0:0:0:0:
