osu file format v14

[General]
AudioFilename: audio.mp3
AudioLeadIn: 0
PreviewTime: 46620
Countdown: 1
SampleSet: Soft
StackLeniency: 0.7
Mode: 0
LetterboxInBreaks: 0
WidescreenStoryboard: 1

[Editor]
Bookmarks: 9303,47352,82474,117596,141010
DistanceSpacing: 0.7
BeatDivisor: 4
GridSize: 4
TimelineZoom: 1

[Metadata]
Title:Jougen no Tsuki
TitleUnicode:上弦の月
Artist:KurousaP feat. KAITO V3
ArtistUnicode:黒うさP feat. KAITO V3
Creator:Lobelia
Version:Easy
Source:
Tags:
BeatmapID:1077868
BeatmapSetID:506737

[Difficulty]
HPDrainRate:3
CircleSize:3
OverallDifficulty:2
ApproachRate:3
SliderMultiplier:1.6
SliderTickRate:1

[Events]
//Background and Video events
0,0,"kaito.jpg",0,0
//Break Periods
2,70600,80302
2,158405,174692
//Storyboard Layer 0 (Background)
//Storyboard Layer 1 (Fail)
//Storyboard Layer 2 (Pass)
//Storyboard Layer 3 (Foreground)
//Storyboard Sound Samples

[TimingPoints]
523,731.707317073171,4,2,1,30,1,0
12230,-100,4,2,2,40,0,0
29791,-100,4,2,2,40,0,0
31254,-100,4,2,2,40,0,0
33083,-100,4,2,1,40,0,0
33449,-100,4,2,2,40,0,0
33815,-100,4,2,1,40,0,0
34181,-100,4,2,2,45,0,0
34730,-100,4,2,2,50,0,0
45888,-100,4,2,2,60,0,0
47352,-100,4,2,3,70,0,0
58327,-100,4,2,3,80,0,0
59059,-100,4,2,3,70,0,0
67474,-100,4,2,1,70,0,0
67840,-100,4,2,3,70,0,0
81742,-100,4,2,3,50,0,0
82474,-100,4,2,2,50,0,0
94181,-100,4,2,2,5,0,0
94913,-100,4,2,2,50,0,0
102962,-100,4,2,2,50,0,0
106620,-100,4,2,1,50,0,0
107718,-100,4,2,2,50,0,0
109547,-100,4,2,1,50,0,0
110644,-100,4,2,2,50,0,0
112474,-100,4,2,1,50,0,0
113571,-100,4,2,2,50,0,0
117596,-100,4,2,3,70,0,0
139547,-100,4,2,2,50,0,0
156742,-100,4,2,2,60,0,0
157108,-100,4,2,2,70,0,0
157474,-100,4,2,2,80,0,0
157840,-100,4,2,2,70,0,0
158205,-100,4,2,2,60,0,0
158571,-100,4,2,2,50,0,0
182718,-100,4,2,3,70,0,0
203937,-100,4,2,1,30,0,0
205401,-100,4,2,2,50,0,0
225888,-100,4,2,2,20,0,0
226254,-100,4,2,2,50,0,0
227718,-100,4,2,2,40,0,0
228266,-100,4,2,2,30,0,0
228815,-100,4,2,2,20,0,0

[HitObjects]
68,55,523,5,2,0:0:0:0:
149,131,1254,2,0,B|134:191|134:191|156:298,1,160,8|0,0:0|0:0,0:0:0:0:
256,333,2718,1,8,0:0:0:0:
358,287,3449,2,0,B|378:191|378:191|363:131,1,160,2|8,0:3|0:0,0:0:0:0:
320,94,4547,2,0,P|226:167|120:127,1,240,0|8,0:0|0:0,0:0:0:0:
74,27,6376,6,0,L|64:197,1,160,2|8,0:0|0:0,0:0:0:0:
58,298,7840,1,0,0:0:0:0:
156,244,8571,1,8,0:0:0:0:
236,166,9303,2,0,P|266:244|233:329,1,160,2|8,0:0|0:0,0:0:0:0:
192,335,10401,2,0,L|449:317,1,240
441,206,12230,5,4,0:0:0:0:
404,100,12962,1,2,0:0:0:0:
307,44,13693,2,0,B|309:85|309:85|284:139,2,80,0|0|2,0:0|0:0|0:0,0:0:0:0:
195,58,15157,1,0,0:0:0:0:
134,151,15888,1,2,0:0:0:0:
163,259,16620,2,0,P|105:260|73:243,2,80,0|0|2,0:0|0:0|0:0,0:0:0:0:
261,204,18083,6,0,P|288:282|356:318,1,160,4|2,0:0|0:0,0:0:0:0:
371,206,19547,2,0,L|361:117,2,80,0|0|2,0:0|0:0|0:0,0:0:0:0:
457,277,21010,1,0,0:0:0:0:
472,166,21742,1,2,0:0:0:0:
449,56,22474,2,0,P|420:27|361:15,2,80,0|0|2,0:0|0:0|0:0,0:0:0:0:
362,126,23937,6,0,B|289:141|289:141|251:115|205:130,1,160,4|2,0:0|0:0,0:0:0:0:
233,238,25401,2,0,L|261:324,2,80,0|0|2,0:0|0:0|0:0,0:0:0:0:
126,203,26864,1,0,0:0:0:0:
93,95,27596,1,2,0:0:0:0:
204,82,28327,2,0,P|233:109|276:119,2,80,0|0|2,0:0|0:0|0:0,0:0:0:0:
289,9,29791,6,0,P|357:45|381:135,1,160,4|2,0:0|0:0,0:0:0:0:
350,227,31254,2,0,L|446:220,2,80,0|0|2,0:0|0:0|0:0,0:0:0:0:
266,301,32718,1,4,0:0:0:0:
158,270,33449,1,2,0:0:0:0:
86,183,34181,2,0,L|75:56,2,120,8|8|2,0:0|0:3|0:1,0:0:0:0:
90,238,35644,5,4,0:0:0:0:
163,322,36376,1,8,0:0:0:0:
275,325,37108,1,2,0:0:0:0:
349,241,37840,1,8,0:0:0:0:
302,139,38571,2,0,P|361:130|450:189,1,160,2|8,0:1|0:0,0:0:0:0:
447,291,40035,1,0,1:0:0:0:
335,285,40766,2,0,L|236:277,1,80,2|2,0:1|0:3,0:0:0:0:
201,293,41498,6,0,P|146:313|106:306,1,80,6|4,0:1|0:1,0:0:0:0:
74,289,42230,1,8,0:0:0:0:
51,179,42962,1,8,0:3:0:0:
116,88,43693,1,8,0:0:0:0:
226,68,44425,1,4,0:1:0:0:
317,132,45157,2,0,L|408:126,1,80,8|2,0:3|0:1,0:0:0:0:
452,126,45888,2,0,L|462:214,1,80,8|8,0:0|0:0,0:0:0:0:
303,264,47352,6,0,P|268:291|218:295,1,80,6|2,0:1|0:1,0:0:0:0:
177,293,48083,1,10,0:0:0:0:
113,200,48815,2,0,L|98:113,1,80,2|2,0:1|0:1,0:0:0:0:
89,65,49547,1,10,0:0:0:0:
200,69,50279,2,0,P|250:91|292:86,1,80,6|2,0:1|0:1,0:0:0:0:
330,86,51010,2,0,P|385:66|452:79,2,120,10|2|2,0:0|0:3|0:1,0:0:0:0:
308,137,52474,1,10,0:0:0:0:
394,208,53205,6,0,B|403:248|403:248|395:299,1,80,6|2,0:1|0:1,0:0:0:0:
381,340,53937,1,10,0:0:0:0:
279,292,54669,2,0,B|241:280|241:280|191:288,1,80,2|2,0:1|0:1,0:0:0:0:
145,295,55401,1,10,0:0:0:0:
92,196,56132,2,0,L|77:112,1,80,2|2,0:1|0:1,0:0:0:0:
68,61,56864,1,10,0:0:0:0:
180,62,57596,2,0,P|244:108|327:90,1,160,2|10,0:1|0:0,0:0:0:0:
425,56,59059,6,0,L|416:150,1,80,6|2,0:1|0:1,0:0:0:0:
410,191,59791,1,10,0:0:0:0:
460,291,60523,2,0,P|421:304|379:297,1,80,2|2,0:1|0:1,0:0:0:0:
329,281,61254,1,10,0:0:0:0:
225,323,61986,2,0,P|214:282|225:234,1,80,6|2,0:1|0:1,0:0:0:0:
246,196,62718,2,0,L|99:175,2,120,10|2|2,0:0|0:3|0:1,0:0:0:0:
301,205,64181,1,10,0:0:0:0:
412,217,64913,6,0,L|430:122,1,80,6|2,0:1|0:1,0:0:0:0:
439,83,65644,1,10,0:0:0:0:
330,53,66376,2,0,P|289:79|250:80,1,80,2|2,0:1|0:1,0:0:0:0:
202,82,67108,1,10,0:0:0:0:
91,63,67840,2,0,B|95:105|95:105|114:146,1,80,4|2,0:0|0:1,0:0:0:0:
146,182,68571,2,0,B|160:220|160:220|164:270,1,80,10|4,0:0|0:0,0:0:0:0:
148,313,69303,2,0,L|244:313,1,80,2|2,0:1|0:1,0:0:0:0:
283,318,70035,2,0,L|295:266,2,40,10|0|8,0:0|1:0|0:0,0:0:0:0:
438,74,81742,6,0,L|422:171,1,80,0|8,1:0|0:0,0:0:0:0:
411,207,82474,6,0,P|349:160|259:178,1,160,4|8,0:0|0:0,0:0:0:0:
318,271,83937,2,0,P|328:303|321:359,2,80,0|8|8,0:0|0:3|0:0,0:0:0:0:
207,254,85401,1,0,0:0:0:0:
128,174,86132,1,8,0:0:0:0:
31,117,86864,2,0,P|16:152|22:211,2,80,0|0|8,0:0|1:0|0:0,0:0:0:0:
124,55,88327,6,0,B|157:78|203:67|203:67|239:93|287:78,1,160,4|8,0:0|0:0,0:0:0:0:
387,61,89791,2,0,P|426:49|470:59,2,80,0|0|8,0:0|1:0|0:0,0:0:0:0:
355,168,91254,1,0,0:0:0:0:
358,279,91986,1,8,0:0:0:0:
465,248,92718,2,0,P|470:293|459:332,2,80,0|0|8,0:0|1:0|0:0,0:0:0:0:
380,174,94181,6,0,B|339:194|299:183|299:183|256:170|208:187,1,160,0|4,0:0|0:1,0:0:0:0:
259,288,95644,2,0,L|274:372,2,80,0|0|8,1:0|1:0|0:0,0:0:0:0:
150,260,97108,1,0,0:0:0:0:
64,187,97840,1,8,0:0:0:0:
78,76,98571,2,0,L|160:62,2,80,0|0|8,0:0|1:0|0:0,0:0:0:0:
64,187,100035,6,0,L|240:156,1,160,4|8,0:0|0:0,0:0:0:0:
332,177,101498,2,0,P|309:227|276:250,2,80,0|0|8,0:0|1:0|0:0,0:0:0:0:
336,64,102962,1,4,0:1:0:0:
447,74,103693,1,4,0:0:0:0:
434,185,104425,2,0,L|442:274,1,80,4|2,0:0|0:1,0:0:0:0:
446,320,105157,2,0,L|349:330,1,80,2|8,0:1|0:0,0:0:0:0:
318,298,105888,6,0,P|268:283|225:293,1,80,4|4,0:1|0:0,0:0:0:0:
190,309,106620,1,2,0:0:0:0:
82,340,107352,1,2,0:0:0:0:
73,284,107718,2,0,L|53:147,1,120,4|4,0:1|0:1,0:0:0:0:
101,95,108815,2,0,B|139:123|140:172|140:172|179:191|241:190,2,160,4|2|2,0:1|0:0|0:0,0:0:0:0:
49,72,110644,2,0,L|170:45,1,120,4|4,0:1|0:1,0:0:0:0:
242,82,111742,6,0,P|303:110|334:108,1,80,4|4,0:1|0:1,0:0:0:0:
370,107,112474,1,2,0:0:0:0:
472,61,113205,1,2,0:0:0:0:
464,116,113571,2,0,L|447:240,1,120,0|4,0:1|0:1,0:0:0:0:
364,245,114669,2,0,P|393:300|484:309,2,160,4|0|8,0:1|1:0|0:0,0:0:0:0:
350,190,116498,1,8,0:0:0:0:
330,137,116864,2,0,L|232:129,1,80,0|0,0:0|0:0,0:0:0:0:
209,169,117596,6,0,L|120:177,1,80,6|2,0:1|0:1,0:0:0:0:
73,184,118327,1,10,0:0:0:0:
78,295,119059,2,0,L|169:288,1,80,2|2,0:1|0:1,0:0:0:0:
213,283,119791,1,10,0:0:0:0:
323,262,120523,2,0,P|342:304|379:329,1,80,6|2,0:1|0:1,0:0:0:0:
420,342,121254,1,10,0:0:0:0:
424,230,121986,2,0,L|437:146,1,80,2|2,0:1|0:1,0:0:0:0:
449,96,122718,1,10,0:0:0:0:
342,60,123449,6,0,L|326:150,1,80,6|2,0:1|0:1,0:0:0:0:
317,193,124181,1,10,0:0:0:0:
259,289,124913,2,0,P|211:265|172:267,1,80,2|2,0:1|0:1,0:0:0:0:
130,275,125644,1,10,0:0:0:0:
34,334,126376,2,0,L|30:237,1,80,2|2,0:1|0:1,0:0:0:0:
27,197,127108,1,10,0:0:0:0:
62,90,127840,2,0,P|96:127|203:108,1,160,2|10,0:1|0:0,0:0:0:0:
290,53,129303,6,0,P|306:92|303:146,1,80,6|2,0:1|0:1,0:0:0:0:
300,185,130035,1,10,0:0:0:0:
211,253,130766,2,0,P|243:282|294:293,1,80,2|2,0:1|0:1,0:0:0:0:
333,293,131498,1,10,0:0:0:0:
427,233,132230,2,0,L|443:137,1,80,6|2,0:1|0:1,0:0:0:0:
422,100,132962,2,0,P|366:126|306:114,2,120,10|2|2,0:0|0:3|0:1,0:0:0:0:
459,58,134425,1,10,0:0:0:0:
350,28,135157,6,0,P|302:18|250:35,1,80,6|2,0:1|0:1,0:0:0:0:
232,63,135888,1,10,0:0:0:0:
154,144,136620,2,0,P|126:106|120:65,1,80,2|2,0:1|0:1,0:0:0:0:
119,18,137352,1,10,0:0:0:0:
33,90,138083,2,0,L|46:182,1,80,4|2,0:0|0:1,0:0:0:0:
82,210,138815,2,0,B|86:251|86:251|120:289,1,80,10|4,0:0|0:0,0:0:0:0:
165,295,139547,2,0,L|249:288,1,80,0|8,1:0|0:0,0:0:0:0:
291,319,140279,2,0,L|381:310,1,80,8|8,0:0|0:0,0:0:0:0:
426,305,141010,6,0,B|442:253|442:253|430:134,1,160,4|8,0:1|0:0,0:0:0:0:
392,107,142108,2,0,P|349:154|252:125,1,160,4|8,0:1|0:0,0:0:0:0:
227,93,143205,2,0,L|141:85,1,80,4|0,0:1|1:0,0:0:0:0:
91,82,143937,2,0,L|77:184,1,80,8|0,0:0|1:0,0:0:0:0:
126,192,144669,2,0,B|164:241|135:295|135:295|165:338,1,160,8|4,0:0|0:1,0:0:0:0:
275,328,146132,2,0,L|365:316,1,80,8|8,0:0|0:0,0:0:0:0:
410,312,146864,6,0,B|445:273|445:273|438:147,1,160,4|4,0:0|0:1,0:0:0:0:
382,71,148327,2,0,L|293:66,1,80,8|8,0:0|0:0,0:0:0:0:
250,88,149059,2,0,L|160:89,1,80,0|0,1:0|1:0,0:0:0:0:
120,115,149791,2,0,P|151:159|133:269,1,160,4|8,0:0|0:0,0:0:0:0:
90,287,150888,2,0,L|267:277,1,160,4|8,0:1|0:0,0:0:0:0:
298,250,151986,2,0,P|339:274|381:274,1,80,0|0,1:0|1:0,0:0:0:0:
426,281,152718,5,12,0:0:0:0:
455,233,153083,2,0,L|482:70,1,160,0|8,1:0|0:0,0:0:0:0:
444,32,154181,2,0,P|400:74|291:72,1,160,4|8,0:1|0:0,0:0:0:0:
251,56,155279,1,8,0:0:0:0:
140,37,156010,1,8,0:0:0:0:
102,78,156376,2,0,B|91:157|91:157|115:248,1,160,4|2,0:0|0:1,0:0:0:0:
149,275,157474,1,2,0:1:0:0:
204,282,157840,2,0,L|294:277,1,80,2|2,0:1|0:1,0:0:0:0:
256,192,176132,12,0,179059,0:0:0:0:
423,325,181986,6,0,B|406:284|406:284|416:210|416:210|399:154,1,160,0|6,0:0|0:1,0:0:0:0:
304,222,183449,1,8,0:0:0:0:
200,178,184181,2,0,P|191:219|197:257,1,80,0|2,1:0|0:1,0:0:0:0:
222,306,184913,2,0,L|122:314,1,80,4|0,0:1|0:0,0:0:0:0:
86,319,185644,1,4,0:1:0:0:
84,206,186376,2,0,P|89:166|80:127,1,80,2|2,0:1|0:1,0:0:0:0:
54,77,187108,2,0,L|147:65,1,80,8|2,0:0|0:3,0:0:0:0:
298,96,188571,6,0,B|294:138|316:176|316:176|340:221|329:263,1,160,4|0,0:1|0:0,0:0:0:0:
220,236,190035,1,4,0:1:0:0:
127,299,190766,2,0,P|108:259|107:211,1,80,4|4,0:1|0:1,0:0:0:0:
139,179,191498,2,0,P|154:128|151:92,1,80,8|8,0:0|0:0,0:0:0:0:
107,68,192230,2,0,L|289:55,1,160,0|8,1:0|0:0,0:0:0:0:
340,140,193693,6,0,L|422:151,1,80,4|2,0:1|0:1,0:0:0:0:
474,162,194425,1,10,0:0:0:0:
460,273,195157,2,0,L|365:262,1,80,2|2,0:1|0:1,0:0:0:0:
325,254,195888,1,10,0:0:0:0:
221,296,196620,2,0,P|212:257|218:218,1,80,4|2,0:1|0:1,0:0:0:0:
241,166,197352,2,0,P|260:123|247:42,2,120,10|0|2,0:0|1:0|0:1,0:0:0:0:
185,174,198815,1,10,0:0:0:0:
79,136,199547,6,0,P|70:175|87:229,1,80,4|2,0:1|0:1,0:0:0:0:
106,262,200279,1,10,0:0:0:0:
213,229,201010,2,0,P|253:264|332:273,2,120,4|0|8,0:1|0:1|0:0,0:0:0:0:
193,176,202474,2,0,P|182:138|193:81,1,80,4|8,0:1|0:0,0:0:0:0:
219,53,203205,2,0,P|261:29|316:30,1,80,0|8,1:0|0:0,0:0:0:0:
333,63,203937,2,0,P|377:98|415:102,1,80,4|2,0:0|0:0,0:0:0:0:
451,82,204669,2,0,L|462:190,1,80,2|2,0:0|0:0,0:0:0:0:
469,216,205401,5,4,0:1:0:0:
397,302,206132,1,8,0:0:0:0:
344,320,206498,2,0,B|294:337|257:298|257:298|206:298|206:298|170:340|105:321,1,240,2|8,0:0|0:0,0:0:0:0:
132,213,208327,1,4,0:1:0:0:
88,109,209059,1,8,0:0:0:0:
136,80,209425,2,0,B|191:71|222:111|222:111|274:112|274:112|307:76|360:87,1,240,2|8,0:0|0:0,0:0:0:0:
442,159,211254,5,4,0:1:0:0:
376,250,211986,1,8,0:0:0:0:
338,291,212352,2,0,B|278:323|221:296|221:296|172:342|91:310,1,240,2|8,0:0|0:0,0:0:0:0:
149,211,214181,1,4,0:1:0:0:
94,113,214913,1,8,0:0:0:0:
128,69,215279,2,0,B|189:43|238:89|238:89|295:62|355:94,1,240,2|0,0:0|1:0,0:0:0:0:
404,193,217108,5,4,0:1:0:0:
421,303,217840,1,8,0:0:0:0:
316,262,218571,2,0,B|264:255|264:255|150:284,1,160,0|8,1:0|0:0,0:0:0:0:
60,333,220035,2,0,P|46:287|51:243,1,80,4|0,0:1|1:0,0:0:0:0:
77,208,220766,2,0,P|89:160|80:121,1,80,8|2,0:0|0:0,0:0:0:0:
46,88,221498,2,0,L|226:94,1,160,0|8,0:1|0:0,0:0:0:0:
314,121,222962,6,0,P|343:179|361:194,2,80,4|2|2,0:1|0:1|0:1,0:0:0:0:
422,92,224425,2,0,P|464:101|508:92,2,80,2|8|8,0:1|0:0|0:0,0:0:0:0:
332,24,225888,2,0,L|208:20,2,120,2|2|8,0:1|0:1|0:0,0:0:0:0:
256,192,227169,12,0,234669,0:0:0:0:
