osu file format v14

[General]
AudioFilename: Infinite Rebellion.mp3
AudioLeadIn: 0
PreviewTime: 14490
Countdown: 0
SampleSet: None
StackLeniency: 0.7
Mode: 1
LetterboxInBreaks: 0
WidescreenStoryboard: 1

[Editor]
Bookmarks: 115130
DistanceSpacing: 1.8
BeatDivisor: 6
GridSize: 32
TimelineZoom: 1.4

[Metadata]
Title:Infinite Rebellion
TitleUnicode:Infinite Rebellion
Artist:Kurosawa daisuke
ArtistUnicode:黒沢ダイスケ
Creator:Firce777
Version:Firce777's Taiko
Source:Taiko no Tatsujin
Tags:幽玄ノ乱 世阿弥 yuugen no ran Tatsh Zeami 96
BeatmapID:1390631
BeatmapSetID:655550

[Difficulty]
HPDrainRate:5
CircleSize:5
OverallDifficulty:7
ApproachRate:5
SliderMultiplier:1.4
SliderTickRate:3

[Events]
//Background and Video events
0,0,"995cfeaac63a09c5151a37a55d315a57.jpg",0,130
//Break Periods
//Storyboard Layer 0 (Background)
//Storyboard Layer 1 (Fail)
//Storyboard Layer 2 (Pass)
//Storyboard Layer 3 (Foreground)
//Storyboard Sound Samples

[TimingPoints]
890,600,16,1,0,90,1,8
12890,200,8,1,0,90,1,0
14490,200,4,1,0,90,1,0
49690,-100,4,1,0,90,0,1
62490,-100,4,1,0,90,0,0
67290,-100,4,1,0,90,0,1
80090,-100,4,1,0,90,0,0
86490,-100,4,1,0,90,0,1
92890,-100,4,1,0,90,0,0
105690,-100,4,1,0,90,0,1
115290,8955.22388059702,4,1,0,90,1,9
116036,375,4,1,0,90,1,0
122786,-100,4,1,0,90,0,1
125036,8955.22388059702,4,1,0,90,1,8
125782,750,7,1,0,90,1,1
125782,-80,7,1,0,90,0,1
130282,-80,7,1,0,90,0,0

[HitObjects]
256,192,890,5,0,0:0:0:0:
256,192,1490,1,2,0:0:0:0:
256,192,2090,1,0,0:0:0:0:
256,192,2390,1,0,0:0:0:0:
256,192,2540,1,0,0:0:0:0:
256,192,2690,1,0,0:0:0:0:
256,192,2990,1,2,0:0:0:0:
256,192,3290,1,0,0:0:0:0:
256,192,3590,1,0,0:0:0:0:
256,192,4190,1,0,0:0:0:0:
256,192,4490,1,0,0:0:0:0:
256,192,4790,1,2,0:0:0:0:
256,192,4940,1,2,0:0:0:0:
256,192,5090,1,2,0:0:0:0:
256,192,5390,1,2,0:0:0:0:
256,192,5690,1,0,0:0:0:0:
256,192,6290,1,2,0:0:0:0:
256,192,6890,1,0,0:0:0:0:
256,192,7190,1,0,0:0:0:0:
256,192,7340,1,0,0:0:0:0:
256,192,7490,1,0,0:0:0:0:
256,192,7790,1,2,0:0:0:0:
256,192,8090,1,0,0:0:0:0:
256,192,8390,1,0,0:0:0:0:
256,192,8990,1,0,0:0:0:0:
256,192,9290,1,0,0:0:0:0:
256,192,9590,1,2,0:0:0:0:
256,192,9740,1,2,0:0:0:0:
256,192,9890,1,2,0:0:0:0:
256,192,10040,1,2,0:0:0:0:
256,192,10190,1,2,0:0:0:0:
256,192,10490,1,0,0:0:0:0:
256,192,14490,1,2,0:0:0:0:
256,192,14590,1,0,0:0:0:0:
256,192,14690,1,0,0:0:0:0:
256,192,14790,1,2,0:0:0:0:
256,192,14890,1,2,0:0:0:0:
256,192,14990,1,2,0:0:0:0:
256,192,15090,1,0,0:0:0:0:
256,192,15190,1,0,0:0:0:0:
256,192,15290,1,2,0:0:0:0:
256,192,15390,1,0,0:0:0:0:
256,192,15490,1,0,0:0:0:0:
256,192,15590,1,2,0:0:0:0:
256,192,15690,1,2,0:0:0:0:
256,192,15790,1,2,0:0:0:0:
256,192,15890,1,0,0:0:0:0:
256,192,15990,1,0,0:0:0:0:
256,192,16090,1,2,0:0:0:0:
256,192,16190,1,0,0:0:0:0:
256,192,16290,1,0,0:0:0:0:
256,192,16390,1,2,0:0:0:0:
256,192,16490,1,2,0:0:0:0:
256,192,16590,1,0,0:0:0:0:
256,192,16690,1,2,0:0:0:0:
256,192,16790,1,0,0:0:0:0:
256,192,16890,1,2,0:0:0:0:
256,192,16940,1,2,0:0:0:0:
256,192,16990,1,2,0:0:0:0:
256,192,17090,1,0,0:0:0:0:
256,192,17190,1,0,0:0:0:0:
256,192,17290,1,2,0:0:0:0:
256,192,17340,1,2,0:0:0:0:
256,192,17390,1,2,0:0:0:0:
256,192,17490,1,0,0:0:0:0:
256,192,17590,1,0,0:0:0:0:
256,192,17690,1,2,0:0:0:0:
256,192,17790,1,0,0:0:0:0:
256,192,17890,1,0,0:0:0:0:
256,192,17990,1,2,0:0:0:0:
256,192,18090,1,2,0:0:0:0:
256,192,18190,1,2,0:0:0:0:
256,192,18290,1,0,0:0:0:0:
256,192,18390,1,0,0:0:0:0:
256,192,18490,1,2,0:0:0:0:
256,192,18590,1,0,0:0:0:0:
256,192,18690,1,0,0:0:0:0:
256,192,18790,1,2,0:0:0:0:
256,192,18890,1,0,0:0:0:0:
256,192,18990,1,0,0:0:0:0:
256,192,19090,1,2,0:0:0:0:
256,192,19190,1,0,0:0:0:0:
256,192,19290,1,0,0:0:0:0:
256,192,19390,1,0,0:0:0:0:
256,192,19490,1,2,0:0:0:0:
256,192,19590,1,0,0:0:0:0:
256,192,19690,1,2,0:0:0:0:
256,192,19790,1,0,0:0:0:0:
256,192,19890,1,0,0:0:0:0:
256,192,19990,1,0,0:0:0:0:
256,192,20090,1,2,0:0:0:0:
256,192,20140,1,2,0:0:0:0:
256,192,20190,1,2,0:0:0:0:
256,192,20290,1,0,0:0:0:0:
256,192,20390,1,0,0:0:0:0:
256,192,20490,1,2,0:0:0:0:
256,192,20540,1,2,0:0:0:0:
256,192,20590,1,2,0:0:0:0:
256,192,20690,1,2,0:0:0:0:
256,192,20790,1,2,0:0:0:0:
256,192,20890,1,0,0:0:0:0:
256,192,21090,1,2,0:0:0:0:
256,192,21290,1,0,0:0:0:0:
256,192,21490,1,2,0:0:0:0:
256,192,21590,1,0,0:0:0:0:
256,192,21690,1,0,0:0:0:0:
256,192,21890,1,2,0:0:0:0:
256,192,22090,1,0,0:0:0:0:
256,192,22190,1,0,0:0:0:0:
256,192,22290,1,2,0:0:0:0:
256,192,22390,1,0,0:0:0:0:
256,192,22490,1,0,0:0:0:0:
256,192,22690,1,2,0:0:0:0:
256,192,22890,1,0,0:0:0:0:
256,192,23090,1,2,0:0:0:0:
256,192,23290,1,0,0:0:0:0:
256,192,23490,1,0,0:0:0:0:
256,192,23590,1,0,0:0:0:0:
256,192,23690,1,2,0:0:0:0:
256,192,23890,1,2,0:0:0:0:
256,192,24090,1,0,0:0:0:0:
256,192,24290,1,2,0:0:0:0:
256,192,24490,1,0,0:0:0:0:
256,192,24690,1,2,0:0:0:0:
256,192,24790,1,0,0:0:0:0:
256,192,24890,1,0,0:0:0:0:
256,192,25090,1,2,0:0:0:0:
256,192,25290,1,0,0:0:0:0:
256,192,25390,1,0,0:0:0:0:
256,192,25490,1,2,0:0:0:0:
256,192,25590,1,0,0:0:0:0:
256,192,25690,1,0,0:0:0:0:
256,192,25890,1,2,0:0:0:0:
256,192,26090,1,0,0:0:0:0:
256,192,26290,1,2,0:0:0:0:
256,192,26490,1,0,0:0:0:0:
256,192,26690,1,0,0:0:0:0:
256,192,26790,1,0,0:0:0:0:
256,192,26890,1,2,0:0:0:0:
256,192,27090,1,2,0:0:0:0:
256,192,27190,1,2,0:0:0:0:
256,192,27290,1,2,0:0:0:0:
256,192,27390,1,0,0:0:0:0:
256,192,27490,1,0,0:0:0:0:
256,192,27590,1,0,0:0:0:0:
256,192,27690,1,2,0:0:0:0:
256,192,27790,1,0,0:0:0:0:
256,192,27890,1,0,0:0:0:0:
256,192,27990,1,0,0:0:0:0:
256,192,28090,1,2,0:0:0:0:
256,192,28190,1,0,0:0:0:0:
256,192,28290,1,0,0:0:0:0:
256,192,28390,1,0,0:0:0:0:
256,192,28490,1,2,0:0:0:0:
256,192,28590,1,0,0:0:0:0:
256,192,28690,1,0,0:0:0:0:
256,192,28790,1,0,0:0:0:0:
256,192,28840,1,0,0:0:0:0:
256,192,28890,1,2,0:0:0:0:
256,192,28990,1,0,0:0:0:0:
256,192,29090,1,0,0:0:0:0:
256,192,29190,1,0,0:0:0:0:
256,192,29290,1,2,0:0:0:0:
256,192,29390,1,2,0:0:0:0:
256,192,29490,1,0,0:0:0:0:
256,192,29590,1,0,0:0:0:0:
256,192,29690,1,6,0:0:0:0:
256,192,29890,1,6,0:0:0:0:
256,192,29990,1,6,0:0:0:0:
256,192,30190,1,6,0:0:0:0:
256,192,30290,1,6,0:0:0:0:
256,192,30490,1,0,0:0:0:0:
256,192,30590,1,0,0:0:0:0:
256,192,30690,1,0,0:0:0:0:
256,192,30790,1,0,0:0:0:0:
256,192,30890,1,2,0:0:0:0:
256,192,30990,1,2,0:0:0:0:
256,192,31090,1,2,0:0:0:0:
256,192,31190,1,2,0:0:0:0:
256,192,31290,1,0,0:0:0:0:
256,192,31390,1,0,0:0:0:0:
256,192,31490,1,0,0:0:0:0:
256,192,31590,1,0,0:0:0:0:
256,192,31690,1,2,0:0:0:0:
256,192,31740,1,2,0:0:0:0:
256,192,31790,1,0,0:0:0:0:
256,192,31890,1,2,0:0:0:0:
256,192,31990,1,0,0:0:0:0:
256,192,32090,1,0,0:0:0:0:
256,192,32190,1,0,0:0:0:0:
256,192,32290,1,0,0:0:0:0:
256,192,32390,1,0,0:0:0:0:
256,192,32490,1,2,0:0:0:0:
256,192,32590,1,2,0:0:0:0:
256,192,32690,1,2,0:0:0:0:
256,192,32790,1,2,0:0:0:0:
256,192,32890,1,0,0:0:0:0:
256,192,32990,1,0,0:0:0:0:
256,192,33090,1,0,0:0:0:0:
256,192,33190,1,0,0:0:0:0:
256,192,33290,1,2,0:0:0:0:
256,192,33340,1,2,0:0:0:0:
256,192,33390,1,0,0:0:0:0:
256,192,33490,1,2,0:0:0:0:
256,192,33590,1,0,0:0:0:0:
256,192,33690,1,0,0:0:0:0:
256,192,33790,1,0,0:0:0:0:
256,192,33890,1,0,0:0:0:0:
256,192,33990,1,0,0:0:0:0:
256,192,34090,1,2,0:0:0:0:
256,192,34190,1,2,0:0:0:0:
256,192,34290,1,2,0:0:0:0:
256,192,34390,1,2,0:0:0:0:
256,192,34490,1,0,0:0:0:0:
256,192,34590,1,0,0:0:0:0:
256,192,34690,1,0,0:0:0:0:
256,192,34790,1,0,0:0:0:0:
256,192,34890,1,2,0:0:0:0:
256,192,34940,1,2,0:0:0:0:
256,192,34990,1,2,0:0:0:0:
256,192,35090,1,0,0:0:0:0:
256,192,35190,1,2,0:0:0:0:
256,192,35290,1,0,0:0:0:0:
256,192,35390,1,0,0:0:0:0:
256,192,35490,1,0,0:0:0:0:
256,192,35590,1,0,0:0:0:0:
256,192,35690,1,2,0:0:0:0:
256,192,35790,1,2,0:0:0:0:
256,192,35890,1,2,0:0:0:0:
256,192,35990,1,2,0:0:0:0:
256,192,36090,1,0,0:0:0:0:
256,192,36190,1,0,0:0:0:0:
256,192,36290,1,0,0:0:0:0:
256,192,36390,1,0,0:0:0:0:
256,192,36490,1,2,0:0:0:0:
256,192,36540,1,2,0:0:0:0:
256,192,36590,1,0,0:0:0:0:
256,192,36690,1,2,0:0:0:0:
256,192,36790,1,0,0:0:0:0:
256,192,36890,1,2,0:0:0:0:
256,192,36990,1,2,0:0:0:0:
256,192,37090,1,0,0:0:0:0:
256,192,37190,1,0,0:0:0:0:
256,192,37290,1,2,0:0:0:0:
256,192,37390,1,0,0:0:0:0:
256,192,37490,1,2,0:0:0:0:
256,192,37590,1,0,0:0:0:0:
256,192,37690,1,2,0:0:0:0:
256,192,37790,1,2,0:0:0:0:
256,192,37890,1,0,0:0:0:0:
256,192,37990,1,0,0:0:0:0:
256,192,38090,1,2,0:0:0:0:
256,192,38190,1,0,0:0:0:0:
256,192,38290,1,2,0:0:0:0:
256,192,38390,1,0,0:0:0:0:
256,192,38490,1,2,0:0:0:0:
256,192,38590,1,0,0:0:0:0:
256,192,38690,1,0,0:0:0:0:
256,192,38790,1,0,0:0:0:0:
256,192,38890,1,2,0:0:0:0:
256,192,38990,1,0,0:0:0:0:
256,192,39090,1,0,0:0:0:0:
256,192,39190,1,0,0:0:0:0:
256,192,39290,1,0,0:0:0:0:
256,192,39590,1,0,0:0:0:0:
256,192,39690,1,2,0:0:0:0:
256,192,39890,1,0,0:0:0:0:
256,192,40090,1,0,0:0:0:0:
256,192,40390,1,0,0:0:0:0:
256,192,40490,1,2,0:0:0:0:
256,192,40690,1,0,0:0:0:0:
256,192,40790,1,2,0:0:0:0:
256,192,40890,1,0,0:0:0:0:
256,192,41190,1,0,0:0:0:0:
256,192,41290,1,2,0:0:0:0:
256,192,41490,1,0,0:0:0:0:
256,192,41690,1,0,0:0:0:0:
256,192,41890,1,2,0:0:0:0:
256,192,42090,1,0,0:0:0:0:
256,192,42190,1,0,0:0:0:0:
256,192,42290,1,2,0:0:0:0:
256,192,42490,1,0,0:0:0:0:
256,192,42790,1,0,0:0:0:0:
256,192,42890,1,2,0:0:0:0:
256,192,43090,1,0,0:0:0:0:
256,192,43290,1,0,0:0:0:0:
256,192,43590,1,0,0:0:0:0:
256,192,43690,1,2,0:0:0:0:
256,192,43890,1,0,0:0:0:0:
256,192,43990,1,2,0:0:0:0:
256,192,44090,1,0,0:0:0:0:
256,192,44390,1,0,0:0:0:0:
256,192,44490,1,2,0:0:0:0:
256,192,44690,1,2,0:0:0:0:
256,192,44790,1,2,0:0:0:0:
256,192,44890,1,0,0:0:0:0:
256,192,45090,1,2,0:0:0:0:
256,192,45290,1,0,0:0:0:0:
256,192,45390,1,2,0:0:0:0:
256,192,45490,1,0,0:0:0:0:
256,192,45690,1,2,0:0:0:0:
256,192,45740,1,2,0:0:0:0:
256,192,45790,1,2,0:0:0:0:
256,192,45890,1,2,0:0:0:0:
256,192,45990,1,2,0:0:0:0:
256,192,46090,1,2,0:0:0:0:
256,192,46190,1,0,0:0:0:0:
256,192,46290,1,0,0:0:0:0:
256,192,46390,1,0,0:0:0:0:
256,192,46490,1,0,0:0:0:0:
256,192,46690,1,2,0:0:0:0:
256,192,46890,1,0,0:0:0:0:
256,192,46990,1,0,0:0:0:0:
256,192,47090,1,2,0:0:0:0:
256,192,47290,1,0,0:0:0:0:
256,192,47490,1,2,0:0:0:0:
256,192,47690,1,0,0:0:0:0:
256,192,47790,1,0,0:0:0:0:
256,192,47890,1,2,0:0:0:0:
256,192,48090,1,0,0:0:0:0:
256,192,48290,1,2,0:0:0:0:
256,192,48390,1,0,0:0:0:0:
256,192,48490,1,0,0:0:0:0:
256,192,48590,1,0,0:0:0:0:
256,192,48690,1,2,0:0:0:0:
256,192,48890,1,6,0:0:0:0:
256,192,49090,1,6,0:0:0:0:
256,192,49190,1,6,0:0:0:0:
256,192,49390,1,6,0:0:0:0:
256,192,49490,1,6,0:0:0:0:
256,192,49690,1,0,0:0:0:0:
256,192,49890,1,2,0:0:0:0:
256,192,50090,1,0,0:0:0:0:
256,192,50290,1,2,0:0:0:0:
256,192,50490,1,0,0:0:0:0:
256,192,50690,1,2,0:0:0:0:
256,192,50790,1,0,0:0:0:0:
256,192,50890,1,0,0:0:0:0:
256,192,51090,1,2,0:0:0:0:
256,192,51290,1,0,0:0:0:0:
256,192,51490,1,0,0:0:0:0:
256,192,51590,1,0,0:0:0:0:
256,192,51690,1,2,0:0:0:0:
256,192,51890,1,0,0:0:0:0:
256,192,52090,1,2,0:0:0:0:
256,192,52290,1,0,0:0:0:0:
256,192,52390,1,2,0:0:0:0:
256,192,52490,1,2,0:0:0:0:
256,192,52590,1,0,0:0:0:0:
256,192,52690,1,0,0:0:0:0:
256,192,52890,1,2,0:0:0:0:
256,192,53090,1,0,0:0:0:0:
256,192,53290,1,2,0:0:0:0:
256,192,53490,1,0,0:0:0:0:
256,192,53590,1,0,0:0:0:0:
256,192,53690,1,2,0:0:0:0:
256,192,53890,1,0,0:0:0:0:
256,192,54090,1,2,0:0:0:0:
256,192,54190,1,0,0:0:0:0:
256,192,54290,1,2,0:0:0:0:
256,192,54490,1,0,0:0:0:0:
256,192,54690,1,0,0:0:0:0:
256,192,54790,1,2,0:0:0:0:
256,192,54890,1,2,0:0:0:0:
256,192,54990,1,0,0:0:0:0:
256,192,55090,1,2,0:0:0:0:
256,192,55290,1,4,0:0:0:0:
256,192,55590,1,4,0:0:0:0:
256,192,55890,1,4,0:0:0:0:
256,192,56090,1,0,0:0:0:0:
256,192,56290,1,2,0:0:0:0:
256,192,56490,1,0,0:0:0:0:
256,192,56690,1,2,0:0:0:0:
256,192,56890,1,0,0:0:0:0:
256,192,57090,1,2,0:0:0:0:
256,192,57190,1,0,0:0:0:0:
256,192,57290,1,0,0:0:0:0:
256,192,57490,1,2,0:0:0:0:
256,192,57690,1,0,0:0:0:0:
256,192,57890,1,0,0:0:0:0:
256,192,57990,1,0,0:0:0:0:
256,192,58090,1,2,0:0:0:0:
256,192,58290,1,0,0:0:0:0:
256,192,58490,1,2,0:0:0:0:
256,192,58690,1,0,0:0:0:0:
256,192,58790,1,2,0:0:0:0:
256,192,58890,1,2,0:0:0:0:
256,192,58990,1,0,0:0:0:0:
256,192,59090,1,0,0:0:0:0:
256,192,59290,1,2,0:0:0:0:
256,192,59490,1,0,0:0:0:0:
256,192,59690,1,2,0:0:0:0:
256,192,59890,1,0,0:0:0:0:
256,192,59990,1,0,0:0:0:0:
256,192,60090,1,2,0:0:0:0:
256,192,60290,1,0,0:0:0:0:
256,192,60490,1,2,0:0:0:0:
256,192,60590,1,0,0:0:0:0:
256,192,60690,1,2,0:0:0:0:
256,192,60890,1,0,0:0:0:0:
256,192,61090,1,0,0:0:0:0:
256,192,61190,1,2,0:0:0:0:
256,192,61290,1,2,0:0:0:0:
256,192,61390,1,0,0:0:0:0:
256,192,61490,1,2,0:0:0:0:
256,192,61690,1,4,0:0:0:0:
256,192,61990,1,4,0:0:0:0:
256,192,62290,1,4,0:0:0:0:
256,192,62490,1,2,0:0:0:0:
256,192,62590,1,0,0:0:0:0:
256,192,62690,1,0,0:0:0:0:
256,192,62790,1,2,0:0:0:0:
256,192,62890,1,0,0:0:0:0:
256,192,62990,1,0,0:0:0:0:
256,192,63090,1,2,0:0:0:0:
256,192,63190,1,0,0:0:0:0:
256,192,63290,1,2,0:0:0:0:
256,192,63390,1,0,0:0:0:0:
256,192,63490,1,0,0:0:0:0:
256,192,63590,1,2,0:0:0:0:
256,192,63690,1,0,0:0:0:0:
256,192,63790,1,0,0:0:0:0:
256,192,63890,1,2,0:0:0:0:
256,192,63990,1,2,0:0:0:0:
256,192,64090,1,0,0:0:0:0:
256,192,64190,1,2,0:0:0:0:
256,192,64290,1,2,0:0:0:0:
256,192,64390,1,0,0:0:0:0:
256,192,64490,1,2,0:0:0:0:
256,192,64590,1,2,0:0:0:0:
256,192,64690,1,0,0:0:0:0:
256,192,64790,1,2,0:0:0:0:
256,192,64890,1,0,0:0:0:0:
256,192,64990,1,2,0:0:0:0:
256,192,65090,1,2,0:0:0:0:
256,192,65190,1,0,0:0:0:0:
256,192,65290,1,2,0:0:0:0:
256,192,65390,1,2,0:0:0:0:
256,192,65490,1,0,0:0:0:0:
256,192,65590,1,2,0:0:0:0:
256,192,65640,1,2,0:0:0:0:
256,192,65690,1,2,0:0:0:0:
256,192,65790,1,2,0:0:0:0:
256,192,65890,1,0,0:0:0:0:
256,192,65990,1,2,0:0:0:0:
256,192,66090,1,2,0:0:0:0:
256,192,66190,1,0,0:0:0:0:
256,192,66290,1,2,0:0:0:0:
256,192,66390,1,0,0:0:0:0:
256,192,66490,1,0,0:0:0:0:
256,192,66590,1,2,0:0:0:0:
256,192,66640,1,2,0:0:0:0:
256,192,66690,1,2,0:0:0:0:
256,192,66790,1,2,0:0:0:0:
256,192,66890,1,0,0:0:0:0:
256,192,66990,1,0,0:0:0:0:
256,192,67090,1,0,0:0:0:0:
256,192,67190,1,0,0:0:0:0:
256,192,67290,1,0,0:0:0:0:
256,192,67490,1,0,0:0:0:0:
256,192,67590,1,0,0:0:0:0:
256,192,67690,1,2,0:0:0:0:
256,192,67890,1,2,0:0:0:0:
256,192,67990,1,0,0:0:0:0:
256,192,68090,1,0,0:0:0:0:
256,192,68290,1,0,0:0:0:0:
256,192,68390,1,2,0:0:0:0:
256,192,68690,1,4,0:0:0:0:
256,192,69090,1,2,0:0:0:0:
256,192,69190,1,0,0:0:0:0:
256,192,69290,1,0,0:0:0:0:
256,192,69490,1,2,0:0:0:0:
256,192,69690,1,0,0:0:0:0:
256,192,69790,1,2,0:0:0:0:
256,192,69890,1,0,0:0:0:0:
256,192,69990,1,2,0:0:0:0:
256,192,70090,1,0,0:0:0:0:
256,192,70190,1,0,0:0:0:0:
256,192,70290,1,2,0:0:0:0:
256,192,70390,1,2,0:0:0:0:
256,192,70490,1,0,0:0:0:0:
256,192,70690,1,0,0:0:0:0:
256,192,70790,1,0,0:0:0:0:
256,192,70890,1,2,0:0:0:0:
256,192,71090,1,2,0:0:0:0:
256,192,71190,1,0,0:0:0:0:
256,192,71290,1,0,0:0:0:0:
256,192,71490,1,0,0:0:0:0:
256,192,71590,1,2,0:0:0:0:
256,192,71890,1,6,0:0:0:0:
256,192,72290,1,2,0:0:0:0:
256,192,72390,1,0,0:0:0:0:
256,192,72490,1,0,0:0:0:0:
256,192,72590,1,0,0:0:0:0:
256,192,72690,1,2,0:0:0:0:
256,192,72790,1,2,0:0:0:0:
256,192,72890,1,0,0:0:0:0:
256,192,72990,1,2,0:0:0:0:
256,192,73040,1,2,0:0:0:0:
256,192,73090,1,0,0:0:0:0:
256,192,73190,1,2,0:0:0:0:
256,192,73290,1,0,0:0:0:0:
256,192,73340,1,2,0:0:0:0:
256,192,73390,1,2,0:0:0:0:
256,192,73490,1,2,0:0:0:0:
256,192,73590,1,2,0:0:0:0:
256,192,73690,1,0,0:0:0:0:
256,192,73890,1,0,0:0:0:0:
256,192,73990,1,0,0:0:0:0:
256,192,74090,1,2,0:0:0:0:
256,192,74290,1,2,0:0:0:0:
256,192,74390,1,0,0:0:0:0:
256,192,74490,1,0,0:0:0:0:
256,192,74690,1,0,0:0:0:0:
256,192,74790,1,2,0:0:0:0:
256,192,75090,1,4,0:0:0:0:
256,192,75490,1,2,0:0:0:0:
256,192,75590,1,0,0:0:0:0:
256,192,75690,1,0,0:0:0:0:
256,192,75890,1,2,0:0:0:0:
256,192,76090,1,0,0:0:0:0:
256,192,76190,1,2,0:0:0:0:
256,192,76290,1,0,0:0:0:0:
256,192,76390,1,2,0:0:0:0:
256,192,76490,1,0,0:0:0:0:
256,192,76590,1,0,0:0:0:0:
256,192,76690,1,2,0:0:0:0:
256,192,76790,1,2,0:0:0:0:
256,192,76890,1,0,0:0:0:0:
256,192,77090,1,0,0:0:0:0:
256,192,77190,1,0,0:0:0:0:
256,192,77290,1,2,0:0:0:0:
256,192,77490,1,0,0:0:0:0:
256,192,77590,1,0,0:0:0:0:
256,192,77690,1,2,0:0:0:0:
256,192,77890,1,0,0:0:0:0:
256,192,77990,1,0,0:0:0:0:
256,192,78090,1,2,0:0:0:0:
256,192,78190,1,0,0:0:0:0:
256,192,78290,1,2,0:0:0:0:
256,192,78390,1,2,0:0:0:0:
256,192,78490,1,0,0:0:0:0:
256,192,78590,1,0,0:0:0:0:
256,192,78640,1,0,0:0:0:0:
256,192,78690,1,2,0:0:0:0:
256,192,78790,1,2,0:0:0:0:
256,192,78890,1,0,0:0:0:0:
256,192,78990,1,0,0:0:0:0:
256,192,79040,1,0,0:0:0:0:
256,192,79090,1,2,0:0:0:0:
256,192,79190,1,0,0:0:0:0:
256,192,79290,1,0,0:0:0:0:
256,192,79340,1,2,0:0:0:0:
256,192,79390,1,2,0:0:0:0:
256,192,79490,1,2,0:0:0:0:
256,192,79590,1,0,0:0:0:0:
256,192,79690,1,2,0:0:0:0:
256,192,79790,1,2,0:0:0:0:
256,192,79890,1,2,0:0:0:0:
256,192,79990,1,2,0:0:0:0:
256,192,80090,1,0,0:0:0:0:
256,192,80290,1,2,0:0:0:0:
256,192,80490,1,0,0:0:0:0:
256,192,80690,1,2,0:0:0:0:
256,192,80790,1,0,0:0:0:0:
256,192,80890,1,0,0:0:0:0:
256,192,81090,1,2,0:0:0:0:
256,192,81290,1,0,0:0:0:0:
256,192,81390,1,0,0:0:0:0:
256,192,81490,1,2,0:0:0:0:
256,192,81690,1,0,0:0:0:0:
256,192,81890,1,2,0:0:0:0:
256,192,81990,1,2,0:0:0:0:
256,192,82090,1,0,0:0:0:0:
256,192,82290,1,2,0:0:0:0:
256,192,82390,1,0,0:0:0:0:
256,192,82490,1,0,0:0:0:0:
256,192,82690,1,2,0:0:0:0:
256,192,82890,1,0,0:0:0:0:
256,192,82990,1,0,0:0:0:0:
256,192,83090,1,2,0:0:0:0:
256,192,83290,1,0,0:0:0:0:
256,192,83490,1,0,0:0:0:0:
256,192,83690,1,2,0:0:0:0:
256,192,83890,1,0,0:0:0:0:
256,192,83990,1,2,0:0:0:0:
256,192,84090,1,0,0:0:0:0:
256,192,84290,1,0,0:0:0:0:
256,192,84490,1,0,0:0:0:0:
256,192,84690,1,2,0:0:0:0:
256,192,84790,1,2,0:0:0:0:
256,192,84890,1,2,0:0:0:0:
256,192,85090,1,0,0:0:0:0:
256,192,85290,1,2,0:0:0:0:
256,192,85390,1,2,0:0:0:0:
256,192,85490,1,2,0:0:0:0:
256,192,85690,1,0,0:0:0:0:
256,192,85890,1,0,0:0:0:0:
256,192,85990,1,0,0:0:0:0:
256,192,86090,1,2,0:0:0:0:
256,192,86190,1,2,0:0:0:0:
256,192,86290,1,2,0:0:0:0:
256,192,86490,1,0,0:0:0:0:
256,192,86690,1,0,0:0:0:0:
256,192,86890,1,0,0:0:0:0:
256,192,86990,1,2,0:0:0:0:
256,192,87190,1,4,0:0:0:0:
256,192,87390,1,2,0:0:0:0:
256,192,87490,1,0,0:0:0:0:
256,192,87590,1,0,0:0:0:0:
256,192,87690,1,2,0:0:0:0:
256,192,87890,1,2,0:0:0:0:
256,192,88090,1,0,0:0:0:0:
256,192,88290,1,0,0:0:0:0:
256,192,88490,1,0,0:0:0:0:
256,192,88590,1,2,0:0:0:0:
256,192,88790,1,4,0:0:0:0:
256,192,88990,1,2,0:0:0:0:
256,192,89090,1,2,0:0:0:0:
256,192,89190,1,0,0:0:0:0:
256,192,89290,1,2,0:0:0:0:
256,192,89490,1,2,0:0:0:0:
256,192,89690,1,0,0:0:0:0:
256,192,89890,1,0,0:0:0:0:
256,192,90090,1,0,0:0:0:0:
256,192,90190,1,2,0:0:0:0:
256,192,90390,1,4,0:0:0:0:
256,192,90590,1,2,0:0:0:0:
256,192,90690,1,0,0:0:0:0:
256,192,90790,1,0,0:0:0:0:
256,192,90890,1,2,0:0:0:0:
256,192,91090,1,2,0:0:0:0:
256,192,91290,1,0,0:0:0:0:
256,192,91490,1,0,0:0:0:0:
256,192,91690,1,0,0:0:0:0:
256,192,91790,1,2,0:0:0:0:
256,192,91990,1,6,0:0:0:0:
256,192,92190,1,2,0:0:0:0:
256,192,92290,1,0,0:0:0:0:
256,192,92390,1,0,0:0:0:0:
256,192,92490,1,2,0:0:0:0:
256,192,92590,1,2,0:0:0:0:
256,192,92690,1,0,0:0:0:0:
256,192,92790,1,0,0:0:0:0:
256,192,92890,1,0,0:0:0:0:
256,192,93090,1,0,0:0:0:0:
256,192,93190,1,0,0:0:0:0:
256,192,93290,1,2,0:0:0:0:
256,192,93490,1,0,0:0:0:0:
256,192,93590,1,0,0:0:0:0:
256,192,93690,1,2,0:0:0:0:
256,192,93890,1,0,0:0:0:0:
256,192,93990,1,2,0:0:0:0:
256,192,94090,1,2,0:0:0:0:
256,192,94290,1,0,0:0:0:0:
256,192,94490,1,2,0:0:0:0:
256,192,94690,1,0,0:0:0:0:
256,192,94790,1,0,0:0:0:0:
256,192,94890,1,2,0:0:0:0:
256,192,95090,1,0,0:0:0:0:
256,192,95190,1,2,0:0:0:0:
256,192,95290,1,2,0:0:0:0:
256,192,95490,1,0,0:0:0:0:
256,192,95590,1,2,0:0:0:0:
256,192,95690,1,2,0:0:0:0:
256,192,95790,1,0,0:0:0:0:
256,192,95890,1,0,0:0:0:0:
256,192,96090,1,0,0:0:0:0:
256,192,96290,1,0,0:0:0:0:
256,192,96390,1,0,0:0:0:0:
256,192,96490,1,2,0:0:0:0:
256,192,96690,1,0,0:0:0:0:
256,192,96790,1,0,0:0:0:0:
256,192,96890,1,2,0:0:0:0:
256,192,97090,1,0,0:0:0:0:
256,192,97190,1,2,0:0:0:0:
256,192,97290,1,2,0:0:0:0:
256,192,97490,1,0,0:0:0:0:
256,192,97690,1,2,0:0:0:0:
256,192,97890,1,2,0:0:0:0:
256,192,97990,1,0,0:0:0:0:
256,192,98090,1,2,0:0:0:0:
256,192,98290,1,0,0:0:0:0:
256,192,98390,1,2,0:0:0:0:
256,192,98490,1,0,0:0:0:0:
256,192,98590,1,2,0:0:0:0:
256,192,98690,1,2,0:0:0:0:
256,192,98790,1,0,0:0:0:0:
256,192,98890,1,2,0:0:0:0:
256,192,98940,1,2,0:0:0:0:
256,192,98990,1,2,0:0:0:0:
256,192,99090,1,2,0:0:0:0:
256,192,99190,1,2,0:0:0:0:
256,192,99290,1,0,0:0:0:0:
256,192,99490,1,2,0:0:0:0:
256,192,99690,1,0,0:0:0:0:
256,192,99890,1,0,0:0:0:0:
256,192,99990,1,0,0:0:0:0:
256,192,100090,1,2,0:0:0:0:
256,192,100190,1,0,0:0:0:0:
256,192,100290,1,0,0:0:0:0:
256,192,100390,1,2,0:0:0:0:
256,192,100490,1,0,0:0:0:0:
256,192,100590,1,0,0:0:0:0:
256,192,100690,1,2,0:0:0:0:
256,192,101090,1,2,0:0:0:0:
256,192,101290,1,0,0:0:0:0:
256,192,101490,1,0,0:0:0:0:
256,192,101590,1,0,0:0:0:0:
256,192,101690,1,2,0:0:0:0:
256,192,101790,1,0,0:0:0:0:
256,192,101890,1,0,0:0:0:0:
256,192,101990,1,2,0:0:0:0:
256,192,102090,1,0,0:0:0:0:
256,192,102190,1,0,0:0:0:0:
256,192,102290,1,2,0:0:0:0:
256,192,102690,1,2,0:0:0:0:
256,192,102890,1,0,0:0:0:0:
256,192,103090,1,0,0:0:0:0:
256,192,103190,1,0,0:0:0:0:
256,192,103290,1,2,0:0:0:0:
256,192,103390,1,0,0:0:0:0:
256,192,103490,1,0,0:0:0:0:
256,192,103590,1,2,0:0:0:0:
256,192,103690,1,0,0:0:0:0:
256,192,103790,1,0,0:0:0:0:
256,192,103890,1,2,0:0:0:0:
256,192,104290,1,2,0:0:0:0:
256,192,104490,1,0,0:0:0:0:
256,192,104690,1,0,0:0:0:0:
256,192,104790,1,0,0:0:0:0:
256,192,104890,1,2,0:0:0:0:
256,192,105090,1,0,0:0:0:0:
256,192,105190,1,2,0:0:0:0:
256,192,105390,1,0,0:0:0:0:
256,192,105490,1,2,0:0:0:0:
256,192,105590,1,2,0:0:0:0:
256,192,105690,1,0,0:0:0:0:
256,192,105890,1,2,0:0:0:0:
256,192,106090,1,0,0:0:0:0:
256,192,106190,1,2,0:0:0:0:
256,192,106290,1,2,0:0:0:0:
256,192,106390,1,0,0:0:0:0:
256,192,106490,1,0,0:0:0:0:
256,192,106690,1,2,0:0:0:0:
256,192,106890,1,0,0:0:0:0:
256,192,106990,1,0,0:0:0:0:
256,192,107090,1,2,0:0:0:0:
256,192,107290,1,0,0:0:0:0:
256,192,107490,1,2,0:0:0:0:
256,192,107690,1,0,0:0:0:0:
256,192,107790,1,2,0:0:0:0:
256,192,107890,1,2,0:0:0:0:
256,192,107990,1,0,0:0:0:0:
256,192,108090,1,0,0:0:0:0:
256,192,108290,1,2,0:0:0:0:
256,192,108490,1,0,0:0:0:0:
256,192,108590,1,2,0:0:0:0:
256,192,108690,1,2,0:0:0:0:
256,192,108890,1,4,0:0:0:0:
256,192,109090,1,4,0:0:0:0:
256,192,109290,1,2,0:0:0:0:
256,192,109390,1,4,0:0:0:0:
256,192,109590,1,4,0:0:0:0:
256,192,109790,1,4,0:0:0:0:
256,192,109990,1,4,0:0:0:0:
256,192,110090,1,4,0:0:0:0:
256,192,110490,1,4,0:0:0:0:
256,192,110690,1,4,0:0:0:0:
256,192,110890,1,2,0:0:0:0:
256,192,110990,1,4,0:0:0:0:
256,192,111190,1,4,0:0:0:0:
256,192,111390,1,4,0:0:0:0:
256,192,111590,1,4,0:0:0:0:
256,192,111690,1,6,0:0:0:0:
256,192,112090,1,4,0:0:0:0:
256,192,112290,1,4,0:0:0:0:
256,192,112490,1,2,0:0:0:0:
256,192,112590,1,4,0:0:0:0:
256,192,112790,1,4,0:0:0:0:
256,192,112990,1,4,0:0:0:0:
256,192,113190,1,4,0:0:0:0:
256,192,113290,1,4,0:0:0:0:
256,192,113690,1,4,0:0:0:0:
256,192,113890,1,4,0:0:0:0:
256,192,114090,1,2,0:0:0:0:
256,192,114190,1,4,0:0:0:0:
256,192,114390,1,4,0:0:0:0:
256,192,114790,1,2,0:0:0:0:
256,192,114890,1,2,0:0:0:0:
256,192,114990,1,0,0:0:0:0:
256,192,115090,1,0,0:0:0:0:
256,192,115190,1,0,0:0:0:0:
256,192,116036,1,0,0:0:0:0:
256,192,116161,1,0,0:0:0:0:
256,192,116286,1,0,0:0:0:0:
256,192,116411,1,2,0:0:0:0:
256,192,116786,1,2,0:0:0:0:
256,192,116911,1,0,0:0:0:0:
256,192,117036,1,0,0:0:0:0:
256,192,117161,1,2,0:0:0:0:
256,192,117536,1,0,0:0:0:0:
256,192,117661,1,0,0:0:0:0:
256,192,117786,1,0,0:0:0:0:
256,192,117911,1,2,0:0:0:0:
256,192,118161,1,0,0:0:0:0:
256,192,118223,1,0,0:0:0:0:
256,192,118286,1,2,0:0:0:0:
256,192,118411,1,0,0:0:0:0:
256,192,118536,1,0,0:0:0:0:
256,192,118661,1,2,0:0:0:0:
256,192,118786,1,0,0:0:0:0:
256,192,118911,1,0,0:0:0:0:
256,192,119036,1,0,0:0:0:0:
256,192,119161,1,0,0:0:0:0:
256,192,119286,1,0,0:0:0:0:
256,192,119411,1,2,0:0:0:0:
256,192,119786,1,2,0:0:0:0:
256,192,119911,1,0,0:0:0:0:
256,192,120036,1,0,0:0:0:0:
256,192,120161,1,2,0:0:0:0:
256,192,120536,1,0,0:0:0:0:
256,192,120661,1,0,0:0:0:0:
256,192,120786,1,0,0:0:0:0:
256,192,120911,1,2,0:0:0:0:
256,192,121161,1,0,0:0:0:0:
256,192,121223,1,0,0:0:0:0:
256,192,121286,1,2,0:0:0:0:
256,192,121411,1,2,0:0:0:0:
256,192,121536,1,0,0:0:0:0:
256,192,121661,1,2,0:0:0:0:
256,192,121786,1,2,0:0:0:0:
256,192,121911,1,0,0:0:0:0:
256,192,122036,1,2,0:0:0:0:
256,192,122098,1,2,0:0:0:0:
256,192,122161,1,0,0:0:0:0:
256,192,122286,1,2,0:0:0:0:
256,192,122411,1,0,0:0:0:0:
256,192,122536,1,2,0:0:0:0:
256,192,122598,1,2,0:0:0:0:
256,192,122661,1,2,0:0:0:0:
256,192,122786,1,0,0:0:0:0:
256,192,122911,1,0,0:0:0:0:
256,192,122973,1,0,0:0:0:0:
256,192,123036,1,2,0:0:0:0:
256,192,123161,1,0,0:0:0:0:
256,192,123286,1,2,0:0:0:0:
256,192,123348,1,2,0:0:0:0:
256,192,123411,1,2,0:0:0:0:
256,192,123536,1,0,0:0:0:0:
256,192,123661,1,0,0:0:0:0:
256,192,123723,1,0,0:0:0:0:
256,192,123786,1,2,0:0:0:0:
256,192,123911,1,0,0:0:0:0:
256,192,124036,1,2,0:0:0:0:
256,192,124098,1,2,0:0:0:0:
256,192,124161,1,2,0:0:0:0:
256,192,124286,1,0,0:0:0:0:
256,192,124411,1,2,0:0:0:0:
256,192,124473,1,0,0:0:0:0:
256,192,124536,1,2,0:0:0:0:
256,192,124661,1,0,0:0:0:0:
256,192,124786,1,2,0:0:0:0:
256,192,124848,1,0,0:0:0:0:
256,192,124911,1,2,0:0:0:0:
256,192,125782,2,0,B|512:192|512:192|0:192|0:192|288:192,1,1050
