osu file format v14

[General]
AudioFilename: unchain..mp3
AudioLeadIn: 0
PreviewTime: 67420
Countdown: 0
SampleSet: Soft
StackLeniency: 0.7
Mode: 0
LetterboxInBreaks: 0
WidescreenStoryboard: 1

[Editor]
Bookmarks: 33098,105087,115754,177087,187754,198420,209087
DistanceSpacing: 1.3
BeatDivisor: 4
GridSize: 4
TimelineZoom: 1

[Metadata]
Title:unchain.
TitleUnicode:unchain.
Artist:Kurosaki Maon
ArtistUnicode:黒崎真音
Creator:CXu
Version:insane.
Source:
Tags:x-encounter tokyo ravens keada CelsiusLK xChippy
BeatmapID:376429
BeatmapSetID:131202

[Difficulty]
HPDrainRate:6
CircleSize:4
OverallDifficulty:7
ApproachRate:8
SliderMultiplier:1.6
SliderTickRate:2

[Events]
//Background and Video events
0,0,"06327e97f6657d9a64681af36f653a802a1997d01383148977.jpg",0,0
//Break Periods
2,97283,104333
2,198416,206416
//Storyboard Layer 0 (Background)
//Storyboard Layer 1 (Fail)
//Storyboard Layer 2 (Pass)
//Storyboard Layer 3 (Foreground)
//Storyboard Sound Samples

[TimingPoints]
6417,333.333333333333,4,2,1,5,1,0
7083,-100,4,2,1,10,0,0
7750,-100,4,2,1,15,0,0
8416,-100,4,2,1,20,0,0
9083,-100,4,2,1,25,0,0
9750,-100,4,2,1,30,0,0
10416,-100,4,2,1,35,0,0
11083,-100,4,2,1,5,0,0
11750,-100,4,2,1,70,0,0
19750,-100,4,2,1,40,0,0
20416,-100,4,2,1,45,0,0
21083,-100,4,2,1,50,0,0
21750,-100,4,2,1,55,0,0
22084,-100,4,2,1,5,0,0
22417,-100,4,2,1,90,0,0
33083,-100,4,2,1,70,0,0
43750,-100,4,2,1,80,0,0
63083,-100,4,2,1,85,0,0
63750,-100,4,2,1,90,0,0
64416,-100,4,2,1,95,0,0
65083,-100,4,2,1,100,0,0
67750,-100,4,2,1,100,0,1
89083,-100,4,2,1,70,0,0
90416,-100,4,2,1,80,0,0
91750,-100,4,2,1,90,0,0
93083,-100,4,2,1,100,0,0
93250,-100,4,2,1,50,0,0
93416,-100,4,2,1,60,0,0
93583,-100,4,2,1,70,0,0
93750,-100,4,2,1,80,0,0
93916,-100,4,2,1,90,0,0
94083,-100,4,2,1,100,0,0
94417,-100,4,2,1,100,0,1
97084,-100,4,2,1,100,0,0
105083,-133.333333333333,4,2,1,70,0,0
114916,-133.333333333333,4,2,1,80,0,0
115250,-100,4,2,1,80,0,0
135083,-100,4,2,1,85,0,0
135750,-100,4,2,1,90,0,0
136416,-100,4,2,1,95,0,0
137083,-100,4,2,1,80,0,0
137750,-100,4,2,1,85,0,0
138416,-100,4,2,1,90,0,0
139083,-100,4,2,1,95,0,0
139750,-100,4,2,1,100,0,1
161084,-100,4,2,1,70,0,0
162416,-100,4,2,1,80,0,0
163750,-100,4,2,1,90,0,0
165083,-100,4,2,1,50,0,0
165250,-100,4,2,1,60,0,0
165416,-100,4,2,1,70,0,0
165583,-100,4,2,1,80,0,0
165750,-100,4,2,1,90,0,0
165916,-100,4,2,1,100,0,0
166417,-100,4,2,1,100,0,1
166500,-100,4,2,1,80,0,0
187750,-100,4,2,1,90,0,0
193083,-100,4,2,1,80,0,0
194416,-100,4,2,1,90,0,0
195750,-100,4,2,1,100,0,0
209083,-133.333333333333,4,2,1,80,0,0
212972,-133.333333333333,4,2,1,60,0,0
213750,-133.333333333333,4,2,1,80,0,0
214416,-100,4,2,1,80,0,0
219583,-100,4,2,1,90,0,0
227750,-100,4,2,1,80,0,0
228416,-100,4,2,1,85,0,0
229083,-100,4,2,1,90,0,0
229750,-100,4,2,1,95,0,0
230416,-100,4,2,1,100,0,0
232250,-100,4,2,1,60,0,0
234750,-100,4,2,1,5,0,0
235416,-100,4,2,1,100,0,0
235750,-100,4,2,1,100,0,1
257084,-100,4,2,1,70,0,0
258416,-100,4,2,1,80,0,0
259750,-100,4,2,1,90,0,0
261083,-100,4,2,1,100,0,0
262417,-100,4,2,1,80,0,1
281583,-100,4,2,1,85,0,1
282083,-100,4,2,1,90,0,1
282583,-100,4,2,1,95,0,1
283083,-100,4,2,1,100,0,1
283584,-100,4,2,1,100,0,0
283750,-100,4,2,1,5,0,0

[Colours]
Combo1 : 128,0,128
Combo2 : 192,192,192
Combo3 : 235,235,148
Combo4 : 64,103,162

[HitObjects]
256,192,6416,12,0,11083,0:0:0:0:
68,112,11750,6,0,P|116:56|204:48,1,160,4|8,0:0|0:0,0:0:0:0:
240,124,12250,2,0,P|192:180|104:188,1,160,2|0,0:0|0:0,0:0:0:0:
20,188,12750,1,10,0:0:0:0:
104,344,13083,2,0,P|148:352|196:344,1,80,0|2,0:0|0:0,0:0:0:0:
256,296,13416,1,0,0:0:0:0:
408,344,13750,2,0,P|364:352|316:344,1,80,0|0,0:0|0:0,0:0:0:0:
256,296,14083,1,10,0:0:0:0:
428,256,14416,6,0,B|372:224|372:224|356:192|356:192|300:168,1,160,2|8,0:0|0:0,0:0:0:0:
211,168,14916,2,0,B|155:192|155:192|139:224|139:224|83:255,1,160,2|0,0:0|0:0,0:0:0:0:
83,254,15416,1,10,0:0:0:0:
36,84,15750,2,0,L|8:0,2,80,0|2|8,0:0|0:0|0:0,0:0:0:0:
212,40,16750,2,0,P|252:32|308:40,1,80,2|0,0:0|0:0,0:0:0:0:
360,92,17083,6,0,B|360:176|360:176|340:216|296:220,1,160,2|0,0:0|0:0,0:0:0:0:
213,219,17583,2,0,B|174:215|154:175|154:175|154:91,1,160,2|0,0:0|0:0,0:0:0:0:
154,92,18083,1,2,0:0:0:0:
256,336,18583,1,2,0:0:0:0:
357,92,19416,5,2,0:0:0:0:
256,192,19750,12,0,22083,0:0:0:0:
185,78,22416,6,0,B|156:128|156:128|104:104|60:144,1,160,4|8,0:0|0:0,0:0:0:0:
120,208,22916,2,0,B|172:228|208:200|208:200|240:260,1,160,2|0,0:0|0:0,0:0:0:0:
256,344,23416,2,0,P|304:320|316:216,1,160,10|0,0:0|0:0,0:0:0:0:
272,148,23916,2,0,B|304:88|304:88|360:104|404:48,1,160,2|0,2:2|2:2,0:0:0:0:
464,112,24416,2,0,P|420:160|376:172,1,80,2|0,0:0|0:0,0:0:0:0:
407,254,24750,2,0,P|440:275|463:307,1,80,10|0,0:0|0:0,0:0:0:0:
388,352,25083,6,0,L|224:368,1,160,2|8,0:0|0:0,0:0:0:0:
140,368,25583,2,0,B|84:364|64:312|64:312|120:248,1,160,2|0,0:0|0:0,0:0:0:0:
192,264,26083,2,0,B|231:219|231:219|211:167|155:163,1,160,10|0,0:0|0:0,0:0:0:0:
68,168,26583,2,0,P|80:116|176:80,1,160,2|0,0:0|0:0,0:0:0:0:
252,112,27083,2,0,P|296:116|336:104,1,80,2|0,0:0|0:0,0:0:0:0:
418,106,27416,2,0,P|456:115|496:111,1,80,10|0,0:0|0:0,0:0:0:0:
492,200,27750,6,0,B|448:208|404:192|404:192|368:280,1,160,4|8,0:0|0:0,0:0:0:0:
384,344,28250,2,0,B|320:352|292:288|292:288|244:320,1,160,2|0,0:0|0:0,0:0:0:0:
176,348,28750,2,0,B|156:288|200:248|200:248|160:216,1,160,10|0,0:0|0:0,0:0:0:0:
84,264,29250,2,0,B|72:304|80:348|80:348|0:300,1,160,2|0,0:2|0:2,0:0:0:0:
8,220,29750,2,0,P|40:188|84:180,1,80,2|0,0:0|0:0,0:0:0:0:
140,124,30083,2,0,P|102:112|75:83,1,80,10|0,0:0|0:0,0:0:0:0:
152,36,30416,6,0,L|252:36,2,80,4|0|8,0:0|0:0|0:0,0:0:0:0:
232,120,30916,2,0,B|284:124|312:88|320:56|320:56|352:96,1,160,4|0,0:0|0:0,0:0:0:0:
392,164,31416,1,8,0:0:0:0:
404,32,31583,2,0,L|460:112,1,80,4|0,0:0|0:0,0:0:0:0:
492,176,31916,1,0,0:0:0:0:
436,244,32083,2,0,P|416:292|420:336,1,80,8|0,0:0|0:0,0:0:0:0:
344,372,32416,1,8,0:0:0:0:
328,284,32583,2,0,P|312:280|280:288,5,40,0|0|8|0|0|0,0:0|0:0|0:0|0:0|0:0|0:0,0:0:0:0:
252,308,33083,6,0,P|160:332|88:304,1,160,6|8,0:0|0:0,0:0:0:0:
24,268,33583,2,0,B|52:224|108:228|108:228|80:164,1,160,0|0,0:0|0:0,0:0:0:0:
44,92,34083,1,8,0:0:0:0:
208,32,34416,6,0,P|252:20|308:28,2,80,2|0|8,0:0|0:0|0:0,0:0:0:0:
292,188,35083,2,0,P|336:200|392:192,2,80,0|0|10,0:0|0:0|0:0,0:0:0:0:
432,80,35750,6,0,P|492:144|488:244,1,160,2|8,0:0|0:0,0:0:0:0:
472,296,36250,2,0,B|424:312|400:332|400:332|368:312|320:312,1,160,0|0,0:0|0:0,0:0:0:0:
248,352,36750,2,0,L|156:352,1,80,8|0,0:0|0:0,0:0:0:0:
32,244,37250,2,0,L|124:244,1,80,0|8,0:0|0:0,0:0:0:0:
248,136,37750,2,0,L|156:136,2,80,2|0|8,0:0|0:0|0:0,0:0:0:0:
388,32,38416,6,0,B|440:52|444:112|444:112|504:96,1,160,2|8,0:0|0:0,0:0:0:0:
484,184,38916,2,0,B|452:196|452:196|376:204|364:120,1,160,0|0,0:0|0:0,0:0:0:0:
308,60,39416,2,0,P|268:60|216:84,1,80,8|0,0:0|0:0,0:0:0:0:
64,136,39916,2,0,L|112:224,1,80,0|8,0:0|2:2,0:0:0:0:
220,340,40416,2,0,P|248:312|292:304,1,80,0|0,2:2|0:0,0:0:0:0:
372,324,40750,1,10,0:0:0:0:
480,196,41083,6,0,P|472:148|360:80,1,160,2|8,0:0|0:0,0:0:0:0:
308,116,41583,2,0,L|132:64,1,160,0|0,0:0|0:0,0:0:0:0:
72,100,42083,2,0,P|92:152|88:188,1,80,8|4,0:0|0:0,0:0:0:0:
32,340,42583,5,2,0:0:0:0:
32,340,42666,1,0,0:0:0:0:
32,340,42750,1,8,0:0:0:0:
96,280,42916,1,6,0:0:0:0:
96,280,43250,2,0,B|128:252|164:276|164:276|188:244|188:244|252:256,1,160,0|0,0:0|0:0,0:0:0:0:
312,292,43750,6,0,P|388:312|456:272,1,160,4|10,0:0|0:0,0:0:0:0:
440,188,44250,2,0,P|364:168|296:208,1,160,0|2,0:0|0:0,0:0:0:0:
312,292,44750,2,0,B|240:300|216:240|216:240|156:260,1,160,8|0,0:0|0:0,0:0:0:0:
96,288,45250,1,2,0:0:0:0:
16,252,45416,2,0,P|4:208|12:172,1,80,8|0,0:0|0:0,0:0:0:0:
90,211,45750,2,0,P|102:248|96:288,1,80,2|0,0:0|0:0,0:0:0:0:
24,340,46083,1,10,0:0:0:0:
96,120,46416,6,0,B|148:128|164:160|164:160|204:132|256:144,1,160,0|10,0:0|0:0,0:0:0:0:
364,244,46916,2,0,P|292:264|224:216,1,160,0|2,0:0|0:0,0:0:0:0:
308,176,47416,2,0,L|272:340,2,160,8|0|8,0:0|0:0|0:0,0:0:0:0:
380,124,48250,1,2,0:0:0:0:
392,212,48416,2,0,P|432:236|472:244,1,80,0|0,0:0|0:0,0:0:0:0:
296,88,48750,2,0,P|256:64|216:56,1,80,10|0,0:0|0:0,0:0:0:0:
44,72,49083,6,0,B|40:128|84:160|84:160|72:228,1,160,0|10,0:0|0:0,0:0:0:0:
16,284,49583,2,0,B|76:216|76:216|140:256,1,160,0|2,0:0|0:0,0:0:0:0:
92,328,50083,2,0,B|64:364|64:364|140:384|180:328,1,160,8|0,0:0|0:0,0:0:0:0:
216,264,50583,1,2,0:0:0:0:
292,308,50750,2,0,B|324:324|324:324|336:344|336:344|372:360,1,80,8|0,0:0|0:0,0:0:0:0:
408,280,51083,2,0,B|440:264|440:264|452:244|452:244|488:228,1,80,2|0,0:0|0:0,0:0:0:0:
488,148,51416,1,10,0:0:0:0:
328,208,51583,6,0,P|252:212|208:120,1,160,0|0,0:0|0:0,0:0:0:0:
236,68,52083,1,10,0:0:0:0:
148,52,52250,2,0,L|136:8,2,40,0|0|10,0:0|0:0|0:0,0:0:0:0:
108,132,52583,1,0,0:0:0:0:
172,196,52750,1,8,0:0:0:0:
248,156,52916,6,0,P|288:120|336:120,1,80,10|0,0:0|0:0,0:0:0:0:
364,256,53250,2,0,P|324:292|276:292,1,80,0|8,0:0|0:0,0:0:0:0:
120,200,53583,2,0,L|176:280,1,80,4|0,0:0|0:0,0:0:0:0:
32,224,53916,2,0,P|36:160|136:104,1,160,4|0,0:0|0:0,0:0:0:0:
196,100,54416,5,8,0:0:0:0:
196,100,54583,2,0,P|276:132|412:56,1,240,8|0,0:0|0:0,0:0:0:0:
488,176,55416,1,8,0:0:0:0:
488,176,55583,2,0,P|420:229|418:385,1,240,8|0,0:0|0:0,0:0:0:0:
411,374,56250,1,8,0:0:0:0:
324,360,56416,2,0,L|272:352,3,40,8|8|8|8,0:0|0:0|0:0|0:0,0:0:0:0:
244,340,56750,2,0,P|196:352|140:344,1,80,8|0,0:0|0:0,0:0:0:0:
88,312,57083,5,8,0:0:0:0:
88,312,57250,2,0,B|120:264|76:216|76:216|112:160|112:160|96:88,1,240,8|0,0:0|0:0,0:0:0:0:
260,24,58083,1,8,0:0:0:0:
260,24,58250,2,0,B|280:80|280:80|324:72|324:72|344:156|428:152,1,240,8|12,0:0|0:0,0:0:0:0:
420,64,58916,2,0,P|424:40|440:24,2,40,8|8|8,0:0|0:0|0:0,0:0:0:0:
472,136,59250,1,0,0:0:0:0:
484,224,59416,1,8,0:0:0:0:
444,304,59583,1,8,0:0:0:0:
444,304,59666,1,8,0:0:0:0:
444,304,59750,6,0,P|384:320|280:288,1,160,4|8,0:0|0:0,0:0:0:0:
208,140,60416,2,0,P|200:84|216:56,1,80,8|0,0:0|0:0,0:0:0:0:
288,104,60750,1,8,0:0:0:0:
288,104,60916,2,0,B|308:168|264:208|264:208|312:248,1,160,0|0,0:0|0:0,0:0:0:0:
364,300,61416,1,8,0:0:0:0:
280,328,61583,2,0,B|204:272|204:272|128:320,1,160,0|0,0:0|0:0,0:0:0:0:
72,348,62083,1,8,0:0:0:0:
68,260,62250,1,0,0:0:0:0:
68,260,62333,1,0,0:0:0:0:
68,260,62416,6,0,P|60:200|32:152,1,80,12|8,0:0|0:0,0:0:0:0:
140,160,62750,2,0,P|103:112|54:84,1,80,8|8,0:0|0:0,0:0:0:0:
160,48,63083,2,0,P|196:95|245:123,1,80,8|8,0:0|0:0,0:0:0:0:
300,107,63416,2,0,P|330:80|352:47,1,80,8|8,0:0|0:0,0:0:0:0:
424,100,63750,2,0,P|394:126|372:160,1,80,8|8,0:0|0:0,0:0:0:0:
443,259,64084,2,0,P|446:220|459:182,1,80,8|8,0:0|0:0,0:0:0:0:
356,236,64416,2,0,P|316:256|260:256,1,80,8|8,0:0|0:0,0:0:0:0:
200,228,64750,1,8,0:0:0:0:
188,212,64833,1,8,0:0:0:0:
176,196,64916,1,8,0:0:0:0:
164,180,65000,1,8,0:0:0:0:
152,164,65083,5,12,0:0:0:0:
152,164,65250,1,8,0:0:0:0:
360,164,65583,1,12,0:0:0:0:
196,52,65916,1,8,0:0:0:0:
256,232,66250,1,12,0:0:0:0:
316,52,66583,1,8,0:0:0:0:
316,52,66750,1,12,0:0:0:0:
256,128,67416,5,2,0:0:0:0:
256,128,67750,6,0,P|176:128|116:200,1,160,4|8,0:0|0:0,0:0:0:0:
192,352,68250,2,0,P|232:282|199:194,1,160,0|0,0:0|0:0,0:0:0:0:
140,272,68750,1,8,0:0:0:0:
140,272,68916,2,0,B|224:272|224:272|304:308,1,160,0|0,0:0|0:0,0:0:0:0:
372,344,69416,1,8,0:0:0:0:
472,168,69750,2,0,P|480:124|472:88,1,80,2|0,0:0|0:0,0:0:0:0:
392,128,70083,2,0,P|357:99|322:88,1,80,8|0,0:0|0:0,0:0:0:0:
220,132,70416,6,0,B|172:152|172:152|120:124|60:156,1,160,4|8,0:0|0:0,0:0:0:0:
72,328,70916,2,0,B|128:284|124:220|124:220|188:256,1,160,0|0,0:0|0:0,0:0:0:0:
200,312,71416,1,8,0:0:0:0:
200,312,71583,2,0,P|168:368|144:384,2,80,0|0|0,0:0|0:0|0:0,0:0:0:0:
256,244,72083,1,8,0:0:0:0:
256,244,72250,1,8,0:0:0:0:
308,312,72416,1,0,0:0:0:0:
364,244,72583,1,0,0:0:0:0:
420,312,72750,2,0,P|452:368|476:384,1,80,8|0,0:0|0:0,0:0:0:0:
452,236,73083,6,0,P|440:184|336:156,1,160,4|8,0:0|0:0,0:0:0:0:
164,151,73583,2,0,P|88:164|60:236,1,160,4|0,0:0|0:0,0:0:0:0:
104,312,74083,1,8,0:0:0:0:
144,232,74250,2,0,P|196:252|216:276,1,80,4|0,0:0|0:0,0:0:0:0:
368,232,74583,2,0,P|316:252|296:276,1,80,4|8,0:0|0:0,0:0:0:0:
256,360,74916,2,0,L|256:192,1,160,4|0,0:0|0:0,0:0:0:0:
316,136,75416,1,8,0:0:0:0:
392,176,75583,1,0,0:0:0:0:
460,120,75750,6,0,B|488:160|468:216|468:216|484:252|484:252|464:284,1,160,4|8,0:0|0:0,0:0:0:0:
408,372,76250,2,0,B|368:352|352:308|352:308|304:316|304:316|288:284,1,160,4|0,0:0|0:0,0:0:0:0:
280,208,76750,1,8,0:0:0:0:
180,312,76916,2,0,B|136:356|96:344|96:344|60:280,1,160,4|0,0:0|0:0,0:0:0:0:
24,208,77416,1,8,0:0:0:0:
52,124,77583,1,0,0:0:0:0:
120,68,77750,2,0,L|160:60,3,40,2|0|0|0,0:0|0:0|0:0|0:0,0:0:0:0:
224,88,78083,2,0,L|264:96,3,40,8|0|0|0,0:0|0:0|0:0|0:0,0:0:0:0:
324,56,78416,6,0,P|376:56|460:132,1,160,4|8,0:0|0:0,0:0:0:0:
356,220,78916,2,0,B|376:256|416:264|416:264|316:284,1,160,0|0,0:0|0:0,0:0:0:0:
248,292,79416,1,8,0:0:0:0:
120,224,79583,2,0,P|64:236|32:328,1,160,0|0,0:0|0:0,0:0:0:0:
116,308,80083,1,8,0:0:0:0:
212,128,80416,2,0,B|180:100|180:100|136:96,1,80,2|0,0:0|0:0,0:0:0:0:
276,44,80750,2,0,B|308:72|308:72|352:76,1,80,8|0,0:0|0:0,0:0:0:0:
468,176,81083,6,0,B|492:224|468:272|468:272|433:264|396:300,1,160,4|8,0:0|0:0,0:0:0:0:
256,248,81583,2,0,B|282:223|282:223|320:248|320:248|348:216|392:204,1,160,0|0,0:0|0:0,0:0:0:0:
468,176,82083,1,8,0:0:0:0:
396,124,82250,2,0,P|356:128|312:152,1,80,0|0,0:0|0:0,0:0:0:0:
256,88,82583,1,0,0:0:0:0:
192,144,82750,1,8,0:0:0:0:
192,144,82916,1,8,0:0:0:0:
120,92,83083,2,0,P|104:136|116:188,1,80,0|0,0:0|0:0,0:0:0:0:
40,308,83416,2,0,P|56:264|44:212,1,80,8|0,0:0|0:0,0:0:0:0:
160,264,83750,6,0,P|212:304|304:288,1,160,4|8,0:0|0:0,0:0:0:0:
480,204,84250,2,0,P|428:164|336:180,1,160,4|0,0:0|0:0,0:0:0:0:
256,212,84750,1,8,0:0:0:0:
188,156,84916,2,0,B|164:156|164:156|140:144|140:144|108:144,1,80,4|0,0:0|0:0,0:0:0:0:
36,240,85250,2,0,B|60:240|60:240|84:228|84:228|116:228,1,80,4|8,0:0|0:0,0:0:0:0:
268,128,85583,2,0,B|252:80|200:72|200:72|216:32|260:32,1,160,4|0,0:0|0:0,0:0:0:0:
332,60,86083,1,8,0:0:0:0:
436,204,86416,6,0,B|404:248|404:248|404:280|404:280|352:296|344:344,1,160,4|8,0:0|0:0,0:0:0:0:
254,326,86916,2,0,B|252:276|252:276|264:240|264:240|248:224|248:224|256:176,1,160,4|0,0:0|0:0,0:0:0:0:
160,116,87416,1,8,0:0:0:0:
76,204,87583,2,0,B|108:248|108:248|108:280|108:280|160:296|168:344,1,160,4|0,0:0|0:0,0:0:0:0:
80,356,88083,2,0,P|40:352|0:360,1,80,8|0,0:0|0:0,0:0:0:0:
162,326,88416,2,0,P|202:330|242:322,1,80,2|0,0:0|0:0,0:0:0:0:
312,272,88750,1,8,0:0:0:0:
356,196,88916,6,0,P|360:156|348:112,1,80,0|12,0:0|0:0,0:0:0:0:
192,40,89416,2,0,P|204:96|192:144,1,80,8|8,0:0|0:0,0:0:0:0:
148,188,89750,1,8,0:0:0:0:
64,216,89916,2,0,P|56:264|88:312,1,80,8|8,0:0|0:0,0:0:0:0:
144,336,90250,1,8,0:0:0:0:
228,316,90416,2,0,P|284:328|316:352,1,80,8|8,0:0|0:0,0:0:0:0:
384,300,90750,1,8,0:0:0:0:
448,240,90916,2,0,L|464:148,1,80,8|8,0:0|0:0,0:0:0:0:
424,80,91250,1,8,0:0:0:0:
340,104,91416,2,0,P|280:112|244:92,1,80,8|8,0:0|0:0,0:0:0:0:
192,52,91750,6,0,L|84:84,1,80,8|0,0:0|0:0,0:0:0:0:
56,192,92083,2,0,L|164:160,1,80,8|0,0:0|0:0,0:0:0:0:
280,196,92416,2,0,L|172:228,1,80,8|0,0:0|0:0,0:0:0:0:
144,336,92749,2,0,L|252:304,1,80,8|0,0:0|0:0,0:0:0:0:
308,336,93083,5,8,0:0:0:0:
352,260,93250,1,0,0:0:0:0:
352,260,93333,1,0,0:0:0:0:
352,260,93416,2,0,P|376:272|404:280,3,40,8|0|0|0,0:0|0:0|0:0|0:0,0:0:0:0:
460,264,93749,2,0,P|448:244|444:220,3,40,8|0|8|0,0:0|0:0|0:0|0:0,0:0:0:0:
452,156,94083,2,0,P|484:168|512:168,3,40,8|8|8|8,0:0|0:0|0:0|0:0,0:0:0:0:
508,164,94416,1,4,0:0:0:0:
256,192,94500,12,4,97083,0:0:0:0:
416,40,105083,6,0,B|384:80|444:108|408:152,1,120.000004577637,6|0,0:0|0:0,0:0:0:0:
332,172,105583,2,0,B|344:220|392:232|392:232|376:272,1,120.000004577637,0|0,0:0|0:0,0:0:0:0:
304,280,106083,2,0,B|316:320|344:332|344:332|284:348,1,120.000004577637,0|2,0:0|0:0,0:0:0:0:
144,304,106750,2,0,P|104:296|80:296,1,60.0000022888184,0|2,0:0|0:0,0:0:0:0:
20,340,107083,1,0,0:0:0:0:
220,288,107416,1,2,0:0:0:0:
72,156,107750,6,0,P|72:112|136:52,1,120.000004577637,2|0,0:0|0:0,0:0:0:0:
148,132,108250,2,0,B|180:152|180:152|224:140|264:164,1,120.000004577637
308,220,108750,1,0,0:0:0:0:
392,92,109083,5,2,0:0:0:0:
392,92,109750,1,2,0:0:0:0:
460,216,110416,6,0,P|472:288|448:336,1,120.000004577637,2|0,0:0|0:0,0:0:0:0:
376,316,110916,2,0,P|320:295|262:309,1,120.000004577637
192,340,111416,2,0,B|172:340|172:340|152:328|152:328|128:328,1,60.0000022888184
24,116,112083,6,0,P|60:152|140:148,1,120.000004577637,0|0,0:0|0:0,1:0:0:0:
280,172,112750,2,0,P|256:144|228:136,1,60.0000022888184,2|0,0:0|0:0,0:0:0:0:
212,212,113083,6,0,P|212:252|232:292,1,60.0000022888184,2|0,0:0|0:0,0:0:0:0:
288,304,113416,2,0,P|308:338|345:363,1,60.0000022888184,0|0,0:0|0:0,0:0:0:0:
472,300,113916,2,0,L|496:240,2,60.0000022888184,0|0|0,0:0|0:0|0:0,0:0:0:0:
400,272,114416,1,0,0:0:0:0:
376,196,114583,1,0,0:0:0:0:
352,120,114750,1,0,0:0:0:0:
428,140,114916,1,8,0:0:0:0:
240,20,115250,6,0,B|192:56|200:120|200:120|172:132|172:132|188:156,1,160,2|0,0:0|0:0,0:0:0:0:
204,232,115750,6,0,B|184:288|184:288|108:272|72:336,1,160,4|10,0:0|0:0,0:0:0:0:
28,248,116250,2,0,B|72:208|128:204|128:204|68:168,1,160,0|2,0:0|0:0,0:0:0:0:
88,92,116750,2,0,B|192:151|192:151|252:136,1,160,8|0,0:0|0:0,0:0:0:0:
312,112,117250,1,2,0:0:0:0:
396,132,117416,2,0,P|440:184|452:232,1,80,8|0,0:0|0:0,0:0:0:0:
376,340,117750,2,0,P|332:288|320:240,1,80,2|0,0:0|0:0,0:0:0:0:
336,192,118083,1,10,0:0:0:0:
192,292,118416,6,0,B|120:324|120:324|44:292,1,160,0|10,0:0|0:0,0:0:0:0:
44,204,118916,2,0,B|108:228|108:228|112:168|156:148,1,160,0|2,0:0|0:0,0:0:0:0:
208,216,119416,2,0,P|276:220|340:148,2,160,8|0|8,0:0|0:0|0:0,0:0:0:0:
244,136,120250,1,2,0:0:0:0:
304,72,120416,2,0,P|356:72|404:100,1,80,2|0,0:0|0:0,0:0:0:0:
443,273,120750,2,0,L|464:196,1,80,10|0,0:0|0:0,0:0:0:0:
352,244,121083,6,0,B|336:288|352:320|352:320|256:320,1,160,0|10,0:0|0:0,0:0:0:0:
184,316,121583,2,0,B|192:264|244:240|244:240|192:188,1,160,0|2,0:0|0:0,0:0:0:0:
124,236,122083,2,0,B|96:276|96:320|96:320|76:248,1,160,8|0,0:0|0:0,0:0:0:0:
48,168,122583,1,2,0:0:0:0:
24,84,122750,1,8,0:0:0:0:
192,36,123083,6,0,P|244:32|312:132,1,160,2|10,0:0|0:0,0:0:0:0:
256,176,123583,1,0,0:0:0:0:
336,216,123750,2,0,L|416:252,1,80,2|0,0:0|0:0,0:0:0:0:
344,312,124083,2,0,L|424:348,1,80,10|0,0:0|0:0,0:0:0:0:
416,344,124333,1,0,0:0:0:0:
416,344,124416,1,8,0:0:0:0:
492,300,124583,1,0,0:0:0:0:
488,212,124750,1,8,0:0:0:0:
416,164,124916,6,0,P|392:120|392:76,1,80,10|0,0:0|0:0,0:0:0:0:
196,40,125250,2,0,L|300:76,1,80,2|8,0:0|0:0,0:0:0:0:
180,160,125583,2,0,P|164:200|168:252,1,80,4|0,0:0|0:0,0:0:0:0:
256,352,125916,6,0,P|288:304|408:280,1,160,4|0,0:0|0:0,0:0:0:0:
464,240,126416,5,8,0:0:0:0:
464,240,126583,2,0,B|479:170|431:98|431:98|383:126|346:97,1,240,8|0,0:0|0:0,0:0:0:0:
165,97,127416,1,8,0:0:0:0:
165,97,127582,2,0,B|128:126|80:98|80:98|32:170|48:240,1,240,8|0,0:0|0:0,0:0:0:0:
96,316,128250,1,8,0:0:0:0:
180,288,128416,2,0,P|192:264|192:236,3,40,8|8|8|8,0:0|0:0|0:0|0:0,0:0:0:0:
228,224,128750,2,0,P|280:208|316:216,1,80,8|0,0:0|0:0,0:0:0:0:
384,252,129083,5,8,0:0:0:0:
384,252,129250,2,0,B|376:276|364:296|316:304|316:304|272:296|248:328|248:328|320:372,1,240,8|0,0:0|0:0,0:0:0:0:
304,216,130083,1,8,0:0:0:0:
304,216,130250,2,0,B|312:192|324:172|372:164|372:164|416:172|440:140|440:140|368:96,1,240,8|12,0:0|0:0,0:0:0:0:
312,44,130916,1,8,0:0:0:0:
312,44,131000,1,8,0:0:0:0:
312,44,131083,1,8,0:0:0:0:
236,88,131250,1,0,0:0:0:0:
160,40,131416,1,8,0:0:0:0:
84,88,131583,1,8,0:0:0:0:
84,88,131666,1,8,0:0:0:0:
84,88,131750,6,0,P|48:156|56:180,1,80,12|0,0:0|0:0,0:0:0:0:
48,244,132083,2,0,B|72:280|72:280|76:328,1,80,8|0,0:0|0:0,0:0:0:0:
160,332,132416,2,0,L|152:232,1,80,8|0,0:0|0:0,0:0:0:0:
180,168,132750,1,8,0:0:0:0:
264,148,132916,6,0,P|308:152|364:252,1,160,0|0,0:0|0:0,0:0:0:0:
348,328,133416,1,8,0:0:0:0:
432,304,133583,2,0,B|456:244|440:184|440:184|472:136,1,160,0|0,0:0|0:0,0:0:0:0:
488,68,134083,1,8,0:0:0:0:
400,88,134250,1,0,0:0:0:0:
400,88,134333,1,0,0:0:0:0:
400,88,134416,6,0,P|348:88|312:56,1,80,12|8,0:0|0:0,0:0:0:0:
248,32,134750,2,0,L|164:68,1,80,8|8,0:0|0:0,0:0:0:0:
196,196,135083,2,0,P|244:244|248:280,1,80,8|8,0:0|0:0,0:0:0:0:
212,336,135416,2,0,P|179:313|161:278,1,80,8|8,0:0|0:0,0:0:0:0:
296,324,135750,2,0,L|376:388,1,80,8|8,0:0|0:0,0:0:0:0:
432,328,136083,2,0,L|352:264,1,80,8|8,0:0|0:0,0:0:0:0:
328,200,136416,1,8,0:0:0:0:
352,116,136583,1,8,0:0:0:0:
436,88,136750,1,8,0:0:0:0:
424,176,136916,1,8,0:0:0:0:
424,176,137000,1,0,0:0:0:0:
424,176,137083,6,0,P|340:168|264:124,1,160,12|8,0:0|0:0,0:0:0:0:
212,68,137583,1,0,0:0:0:0:
128,96,137750,2,0,B|83:115|83:115|64:148,1,80,4|0,0:0|0:0,0:0:0:0:
76,232,138083,1,8,0:0:0:0:
124,304,138250,1,0,0:0:0:0:
208,324,138416,5,4,0:0:0:0:
332,232,138583,1,0,0:0:0:0:
180,232,138750,1,8,0:0:0:0:
304,324,138916,1,0,0:0:0:0:
256,172,139083,1,14,0:0:0:0:
396,304,139250,1,0,0:0:0:0:
412,292,139333,1,0,0:0:0:0:
420,276,139416,1,8,0:0:0:0:
424,256,139500,1,0,0:0:0:0:
424,236,139583,1,0,0:0:0:0:
424,216,139666,1,0,0:0:0:0:
424,196,139750,6,0,B|424:108|424:108|380:40,1,160,4|8,0:0|0:0,0:0:0:0:
176,84,140250,2,0,B|224:116|224:116|272:80|328:112,1,160,0|0,0:0|0:0,0:0:0:0:
280,184,140750,1,8,0:0:0:0:
280,184,140916,2,0,B|216:212|172:184|172:184|136:240,1,160,0|0,0:0|0:0,0:0:0:0:
100,300,141416,1,8,0:0:0:0:
272,348,141750,6,0,P|320:352|356:332,1,80,2|0,0:0|0:0,0:0:0:0:
408,276,142083,1,8,0:0:0:0:
424,188,142250,1,0,0:0:0:0:
380,112,142416,6,0,B|328:64|328:64|296:72|296:72|244:36,1,160,4|8,0:0|0:0,0:0:0:0:
92,64,142916,2,0,B|72:120|72:120|112:172|180:148,1,160,0|0,0:0|0:0,0:0:0:0:
248,148,143416,1,8,0:0:0:0:
248,148,143583,2,0,P|236:196|204:228,2,80,0|0|0,0:0|0:0|0:0,0:0:0:0:
336,148,144083,1,8,0:0:0:0:
336,148,144250,1,8,0:0:0:0:
400,208,144416,2,0,P|440:224|480:224,1,80,0|0,0:0|0:0,0:0:0:0:
316,236,144750,2,0,P|316:284|344:328,1,80,8|0,0:0|0:0,0:0:0:0:
408,352,145083,6,0,P|332:320|244:344,1,160,4|8,0:0|0:0,0:0:0:0:
136,328,145583,2,0,B|136:280|168:248|168:248|96:216,1,160,4|0,0:0|0:0,0:0:0:0:
24,184,146083,1,8,0:0:0:0:
156,140,146250,2,0,L|244:180,1,80,4|0,0:0|0:0,0:0:0:0:
356,96,146583,2,0,L|268:56,1,80,4|8,0:0|0:0,0:0:0:0:
336,184,146916,2,0,B|402:210|342:284|427:319,1,160,4|0,0:0|0:0,0:0:0:0:
492,272,147416,1,8,0:0:0:0:
492,272,147583,1,0,0:0:0:0:
432,208,147750,6,0,P|356:228|344:316,1,160,4|8,0:0|0:0,0:0:0:0:
256,176,148250,2,0,L|256:336,1,160,4|0,0:0|0:0,0:0:0:0:
174,299,148750,1,8,0:0:0:0:
174,299,148916,2,0,P|154:226|80:208,1,160,4|0,0:0|0:0,0:0:0:0:
88,296,149416,1,8,0:0:0:0:
124,376,149583,1,0,0:0:0:0:
212,376,149750,2,0,P|240:356|260:324,3,40,2|0|0|0,0:0|0:0|0:0|0:0,0:0:0:0:
280,288,150083,2,0,P|296:268|316:256,3,40,8|0|0|0,0:0|0:0|0:0|0:0,0:0:0:0:
380,256,150416,6,0,P|416:216|380:104,1,160,4|8,0:0|0:0,0:0:0:0:
247,55,150916,2,0,B|260:92|304:104|304:104|304:148|332:180,1,160,0|0,0:0|0:0,0:0:0:0:
288,256,151416,1,8,0:0:0:0:
288,256,151583,2,0,B|236:216|224:164|224:164|172:192,1,160,0|0,0:0|0:0,0:0:0:0:
108,228,152083,1,8,0:0:0:0:
24,16,152416,2,0,L|60:108,1,80,2|0,0:0|0:0,0:0:0:0:
140,48,152750,2,0,L|128:132,1,80,8|0,0:0|0:0,0:0:0:0:
240,84,153083,6,0,P|284:72|376:132,1,160,4|8,0:0|0:0,0:0:0:0:
320,268,153583,2,0,B|292:332|292:332|408:332,1,160,0|0,0:0|0:0,0:0:0:0:
456,284,154083,1,8,0:0:0:0:
424,204,154250,2,0,P|424:156|440:120,1,80,0|0,0:0|0:0,0:0:0:0:
476,48,154583,1,0,0:0:0:0:
388,60,154750,1,8,0:0:0:0:
388,60,154916,1,8,0:0:0:0:
304,32,155083,2,0,L|208:32,1,80,0|0,0:0|0:0,0:0:0:0:
84,108,155416,2,0,L|180:108,1,80,8|0,0:0|0:0,0:0:0:0:
288,156,155750,6,0,B|316:188|316:188|304:224|304:224|320:256|320:256|288:296,1,160,4|8,0:0|0:0,0:0:0:0:
108,308,156250,2,0,P|140:248|240:252,1,160,4|0,0:0|0:0,0:0:0:0:
196,324,156750,1,8,0:0:0:0:
108,308,156916,2,0,P|56:280|40:240,1,80,4|0,0:0|0:0,0:0:0:0:
46,174,157250,2,0,P|74:122|114:106,1,80,4|8,0:0|0:0,0:0:0:0:
176,132,157583,2,0,P|236:140|300:72,1,160,4|0,0:0|0:0,0:0:0:0:
216,52,158083,1,8,0:0:0:0:
420,148,158416,6,0,P|428:220|372:188,1,160,4|8,0:0|0:0,0:0:0:0:
200,228,158916,2,0,P|256:276|312:228,1,160,4|0,0:0|0:0,0:0:0:0:
92,148,159416,1,8,0:0:0:0:
92,148,159583,2,0,P|84:220|140:188,1,160,4|0,0:0|0:0,0:0:0:0:
172,116,160083,1,8,0:0:0:0:
104,60,160250,1,0,0:0:0:0:
188,40,160416,2,0,P|216:40|240:48,3,40,2|0|0|0,0:0|0:0|0:0|0:0,0:0:0:0:
288,80,160750,2,0,P|316:84|336:80,3,40,8|0|0|0,0:0|0:0|0:0|0:0,0:0:0:0:
392,48,161083,5,12,0:0:0:0:
484,196,161416,2,0,P|472:244|436:272,1,80,8|8,0:0|0:0,0:0:0:0:
364,272,161750,1,8,0:0:0:0:
288,316,161916,2,0,L|192:308,1,80,8|8,0:0|0:0,0:0:0:0:
120,304,162250,1,8,0:0:0:0:
64,236,162416,2,0,L|48:148,1,80,8|8,0:0|0:0,0:0:0:0:
100,84,162750,1,8,0:0:0:0:
188,96,162916,2,0,P|236:96|276:80,1,80,8|8,0:0|0:0,0:0:0:0:
340,36,163250,1,8,0:0:0:0:
412,84,163416,2,0,P|450:95|489:94,1,80,8|8,0:0|0:0,0:0:0:0:
489,94,163666,1,0,0:0:0:0:
489,94,163750,6,0,L|476:184,1,80,12|0,0:0|0:0,0:0:0:0:
420,328,164083,2,0,L|406:238,1,80,8|0,0:0|0:0,0:0:0:0:
350,94,164416,2,0,L|336:183,1,80,8|0,0:0|0:0,0:0:0:0:
280,327,164750,2,0,L|266:237,1,80,8|8,0:0|0:0,0:0:0:0:
228,168,165083,6,0,P|148:132|56:248,1,240,12|8,0:0|0:0,0:0:0:0:
148,224,165750,2,0,B|132:128|48:120|48:120|88:36,1,240,12|8,0:0|0:0,0:0:0:0:
171,45,166416,5,12,0:0:0:0:
464,48,167416,2,0,L|348:64,1,80,8|8,0:0|0:0,0:0:0:0:
192,148,168416,2,0,L|308:164,1,80,8|8,0:0|0:0,0:0:0:0:
384,124,168916,2,0,P|388:196|296:264,1,160,12|8,0:0|0:0,0:0:0:0:
264,316,169416,2,0,P|300:344|340:344,2,80,8|8|0,0:0|0:0|0:0,0:0:0:0:
200,256,169916,2,0,B|168:256|168:256|152:272|152:272|120:272,1,80,10|0,0:0|0:0,0:0:0:0:
44,244,170250,2,0,B|64:196|104:188|104:188|40:104,1,160,10|8,0:0|0:0,0:0:0:0:
108,56,170750,6,0,L|160:124,1,80,0|8,0:0|0:0,0:0:0:0:
184,36,171083,2,0,L|236:104,1,80,0|8,0:0|0:0,0:0:0:0:
308,52,171416,2,0,B|334:96|312:139|312:139|348:128|384:158,1,160,2|8,0:0|0:0,0:0:0:0:
440,212,171916,5,8,0:0:0:0:
256,356,172750,1,8,0:0:0:0:
256,356,172916,1,8,0:0:0:0:
72,212,173750,1,8,0:0:0:0:
72,212,173916,1,8,0:0:0:0:
136,84,174416,6,0,P|188:48|288:52,1,160,12|8,0:0|0:0,0:0:0:0:
332,120,174916,1,0,0:0:0:0:
420,108,175083,2,0,P|448:144|444:192,1,80,8|8,0:0|0:0,0:0:0:0:
400,252,175416,1,8,0:0:0:0:
464,312,175583,2,0,B|424:352|360:332|360:332|316:364,1,160,10|0,0:0|0:0,0:0:0:0:
232,360,176083,1,2,0:0:0:0:
164,300,176250,1,8,0:0:0:0:
164,300,176583,2,0,P|184:244|132:164,1,160,10|0,0:0|0:0,0:0:0:0:
100,244,177083,5,12,0:0:0:0:
100,244,177250,1,8,0:0:0:0:
40,184,177416,2,0,P|48:120|128:72,2,160,0|2|8,0:0|0:0|0:0,0:0:0:0:
124,160,178250,2,0,L|228:128,1,80,8|0,0:0|0:0,0:0:0:0:
284,112,178583,2,0,P|352:132|384:216,1,160,0|8,0:0|0:0,0:0:0:0:
296,200,179083,2,0,L|240:228,4,40,8|8|8|8|8,0:0|0:0|0:0|0:0|0:0,0:0:0:0:
256,372,179750,5,8,0:0:0:0:
256,372,179916,2,0,B|200:372|200:372|152:336|104:376,1,160,8|0,0:0|0:0,0:0:0:0:
32,328,180416,2,0,P|76:288|120:276,1,80,2|0,0:0|0:0,0:0:0:0:
184,272,180750,1,8,0:0:0:0:
184,272,180916,2,0,P|172:208|68:172,1,160,8|0,0:0|0:0,0:0:0:0:
8,184,181416,1,0,0:0:0:0:
32,100,181583,2,0,L|16:64,2,40,8|8|8,0:0|0:0|0:0,0:0:0:0:
116,76,181916,1,0,0:0:0:0:
188,128,182083,1,8,0:0:0:0:
256,72,182250,1,8,0:0:0:0:
256,72,182333,1,8,0:0:0:0:
256,72,182416,6,0,L|340:84,1,80,12|0,0:0|0:0,0:0:0:0:
456,188,183083,2,0,P|384:200|328:272,1,160,2|8,0:0|0:0,0:0:0:0:
156,272,183583,1,8,0:0:0:0:
156,272,183750,2,0,P|228:284|284:356,1,160,0|0,0:0|0:0,0:0:0:0:
281,348,184250,1,8,0:0:0:0:
368,340,184416,2,0,L|412:364,4,40,8|8|8|8|8,0:0|0:0|0:0|0:0|0:0,0:0:0:0:
220,208,185083,6,0,P|132:192|72:240,1,160,4|8,0:0|0:0,0:0:0:0:
220,208,185583,2,0,B|244:144|244:144|344:100,1,160,4|0,0:0|0:0,0:0:0:0:
396,164,186083,2,0,L|316:200,2,80,8|4|0,0:0|0:0|0:0,0:0:0:0:
280,48,186583,2,0,L|176:92,1,80,0|8,0:0|0:0,0:0:0:0:
120,68,186916,1,0,0:0:0:0:
152,172,187083,2,0,P|160:232|84:296,1,160,0|10,0:0|0:0,0:0:0:0:
292,352,187750,6,0,B|320:328|320:328|408:348|408:348|440:320,1,160,4|8,0:0|0:0,0:0:0:0:
476,252,188250,1,0,0:0:0:0:
436,172,188416,1,8,0:0:0:0:
256,260,188750,1,8,0:0:0:0:
184,308,188916,1,0,0:0:0:0:
180,220,189083,2,0,P|180:176|156:132,1,80,8|0,0:0|0:0,0:0:0:0:
92,96,189416,1,8,0:0:0:0:
92,196,189583,2,0,L|0:212,1,80,0|8,0:0|0:0,0:0:0:0:
200,72,189916,2,0,L|292:56,1,80,0|8,0:0|0:0,0:0:0:0:
452,36,190416,5,8,0:0:0:0:
452,36,190583,1,8,0:0:0:0:
488,116,190750,2,0,B|508:164|508:164|448:144|396:168,1,160,0|8,0:0|0:0,0:0:0:0:
320,192,191250,1,0,0:0:0:0:
272,264,191416,1,8,0:0:0:0:
308,344,191583,1,0,0:0:0:0:
384,300,191750,2,0,L|484:292,1,80,8|8,0:0|0:0,0:0:0:0:
216,360,192250,2,0,L|112:352,1,80,0|8,0:0|0:0,0:0:0:0:
116,268,192583,2,0,L|12:260,1,80,0|8,0:0|0:0,0:0:0:0:
36,261,193083,6,0,P|47:195|31:163,1,80,12|8,0:0|0:0,0:0:0:0:
101,113,193416,2,0,P|125:144|131:183,1,80,8|8,0:0|0:0,0:0:0:0:
174,67,193750,2,0,P|148:36|111:21,1,80,8|8,0:0|0:0,0:0:0:0:
212,140,194083,2,0,P|249:153|288:148,1,80,8|8,0:0|0:0,0:0:0:0:
444,100,194416,2,0,P|406:86|367:91,1,80,8|8,0:0|0:0,0:0:0:0:
224,240,194750,2,0,P|261:253|300:248,1,80,8|8,0:0|0:0,0:0:0:0:
456,200,195083,2,0,P|418:186|379:191,1,80,8|8,0:0|0:0,0:0:0:0:
300,156,195416,1,8,0:0:0:0:
300,156,195583,1,8,0:0:0:0:
256,80,195750,5,12,0:0:0:0:
256,80,195916,1,8,0:0:0:0:
190,282,196250,1,12,0:0:0:0:
362,157,196583,1,8,0:0:0:0:
149,157,196916,1,12,0:0:0:0:
321,282,197250,1,8,0:0:0:0:
321,282,197416,1,12,0:0:0:0:
256,192,207416,12,2,208750,0:0:0:0:
152,112,209083,6,0,P|257:61|360:112,1,240.000009155274,4|2,0:0|0:0,0:0:0:0:
256,192,210083,1,8,0:0:0:0:
256,192,210250,1,4,0:0:0:0:
256,324,210583,1,0,0:0:0:0:
256,324,210750,2,0,B|308:340|332:308|384:324,2,120.000004577637,8|8|8,0:0|0:0|0:0,0:0:0:0:
188,284,211583,1,2,0:0:0:0:
124,328,211750,6,0,P|60:328|12:268,2,120.000004577637,4|8|2,0:0|0:0|0:0,0:0:0:0:
200,192,212750,1,8,0:0:0:0:
200,192,212916,2,0,B|228:148|308:148|308:148|340:100|424:96,1,240.000009155274,2|2,0:0|0:0,0:0:0:0:
400,184,213750,2,0,P|368:216|352:272,2,90.0000034332277,2|2|2,0:0|0:0|0:0,0:0:0:0:
448,256,214416,6,0,L|484:348,1,80,4|0,0:0|0:0,0:0:0:0:
388,340,214750,1,8,0:0:0:0:
388,340,214916,2,0,P|344:360|228:328,1,160,4|0,0:0|0:0,0:0:0:0:
176,272,215416,1,8,0:0:0:0:
112,332,215583,2,0,B|72:332|72:332|28:308,1,80,4|0,0:0|0:0,0:0:0:0:
16,200,215916,2,0,L|96:248,1,80,4|8,0:0|0:0,0:0:0:0:
152,184,216250,2,0,B|156:128|112:104|112:104|152:40,1,160,4|0,0:0|0:0,0:0:0:0:
220,100,216750,2,0,P|240:148|240:192,1,80,8|0,0:0|0:0,0:0:0:0:
236,264,217083,6,0,P|272:320|368:324,1,160,2|8,0:0|0:0,0:0:0:0:
380,244,217583,2,0,B|400:132|400:132|440:184,1,160,2|0,0:0|0:0,0:0:0:0:
472,92,218083,2,0,P|444:60|340:80,1,160,10|0,0:0|0:0,0:0:0:0:
296,156,218583,2,0,P|244:156|204:136,1,80,0|8,0:0|0:0,0:0:0:0:
104,112,218916,2,0,P|130:157|132:201,1,80,8|0,0:0|0:0,0:0:0:0:
161,300,219250,2,0,P|187:254|224:230,1,80,0|8,0:0|0:0,0:0:0:0:
296,240,219583,1,0,0:0:0:0:
296,240,219750,6,0,B|352:228|352:228|456:260,1,160,4|8,0:0|0:0,0:0:0:0:
472,84,220416,1,0,0:0:0:0:
472,84,220583,2,0,B|432:68|432:68|400:80|400:80|360:72|360:72|324:100,1,160,0|6,0:0|0:0,0:0:0:0:
252,144,221083,2,0,P|192:156|100:108,1,160,0|10,0:0|0:0,0:0:0:0:
105,114,221750,6,0,P|68:164|60:200,1,80,0|0,0:0|0:0,0:0:0:0:
52,268,222083,1,8,0:0:0:0:
136,240,222250,2,0,B|192:256|192:312|192:312|252:272,1,160,4|0,0:0|0:0,0:0:0:0:
316,228,222750,2,0,P|376:228|428:336,2,160,8|8|8,0:0|0:0|0:0,0:0:0:0:
148,172,223750,2,0,B|168:92|168:92|260:68,1,160,8|8,0:0|0:0,0:0:0:0:
224,164,224250,2,0,L|48:188,1,160,0|8,0:0|0:0,0:0:0:0:
20,260,224750,1,8,0:0:0:0:
168,356,225083,6,0,B|208:328|208:328|264:364|320:328,1,160,12|8,0:0|0:0,0:0:0:0:
360,160,225750,1,0,0:0:0:0:
360,160,225916,2,0,P|280:196|264:264,1,160,0|0,0:0|0:0,0:0:0:0:
348,240,226416,2,0,L|200:116,1,160,4|8,0:0|0:0,0:0:0:0:
368,36,227083,1,0,0:0:0:0:
448,72,227250,2,0,P|472:128|464:164,1,80,0|8,0:0|0:0,0:0:0:0:
432,224,227583,1,0,0:0:0:0:
432,224,227750,6,0,B|440:260|420:292|420:292|436:304|436:304|420:336|444:372,1,160,4|8,0:0|0:0,0:0:0:0:
268,348,228416,2,0,P|220:320|120:344,1,160,8|8,0:0|0:0,0:0:0:0:
40,308,228916,1,8,0:0:0:0:
80,228,229083,2,0,P|128:200|157:101,1,160,8|8,0:0|0:0,0:0:0:0:
100,40,229583,1,8,0:0:0:0:
188,32,229750,2,0,L|372:24,1,160,10|10,0:0|0:0,0:0:0:0:
372,24,230166,1,0,0:0:0:0:
396,24,230250,1,2,0:0:0:0:
420,24,230333,1,0,0:0:0:0:
444,24,230416,6,0,P|496:68|508:108,1,80,12|8,0:0|0:0,0:0:0:0:
452,176,230916,1,12,0:0:0:0:
392,272,231250,1,8,0:0:0:0:
392,272,231416,5,8,0:0:0:0:
256,192,231583,1,12,0:0:0:0:
256,192,231916,5,8,0:0:0:0:
120,272,232083,1,12,0:0:0:0:
256,192,232416,12,0,234750,0:0:0:0:
140,48,235416,5,2,0:0:0:0:
140,48,235750,2,0,B|104:160|104:160|52:184,1,160,4|8,0:0|0:0,0:0:0:0:
204,276,236250,2,0,B|204:233|164:225|164:225|80:257,1,160,0|0,0:0|0:0,0:0:0:0:
148,356,236750,1,8,0:0:0:0:
148,356,236916,2,0,P|236:364|296:308,1,160,0|0,0:0|0:0,0:0:0:0:
276,236,237416,1,8,0:0:0:0:
428,144,237750,2,0,P|372:136|328:156,1,80,2|0,0:0|0:0,0:0:0:0:
452,268,238083,2,0,P|407:233|359:228,1,80,8|0,0:0|0:0,0:0:0:0:
192,236,238416,6,0,P|136:232|88:144,1,160,4|8,0:0|0:0,0:0:0:0:
304,80,238916,2,0,B|244:76|244:156|160:156,1,160,0|0,0:0|0:0,0:0:0:0:
132,76,239416,1,8,0:0:0:0:
132,76,239583,2,0,P|84:68|36:84,2,80,0|0|0,0:0|0:0|0:0,0:0:0:0:
200,20,240083,1,8,0:0:0:0:
200,20,240250,1,8,0:0:0:0:
220,104,240416,2,0,P|268:84|288:60,1,80,0|0,0:0|0:0,0:0:0:0:
372,60,240750,2,0,P|361:98|335:127,1,80,8|0,0:0|0:0,0:0:0:0:
256,212,241083,6,0,B|280:260|336:260|336:260|296:324,1,160,4|8,0:0|0:0,0:0:0:0:
404,216,241583,2,0,B|436:244|412:284|412:284|364:368,1,160,4|0,0:0|0:0,0:0:0:0:
284,384,242083,1,8,0:0:0:0:
224,320,242250,2,0,P|172:316|128:324,1,80,4|0,0:0|0:0,0:0:0:0:
24,252,242583,2,0,P|63:247|103:252,1,80,4|8,0:0|0:0,0:0:0:0:
224,168,242916,2,0,P|152:156|56:172,1,160,4|0,0:0|0:0,0:0:0:0:
20,92,243416,1,8,0:0:0:0:
20,92,243583,1,0,0:0:0:0:
88,36,243750,6,0,B|136:8|176:24|176:24|192:64|236:72,1,160,4|8,0:0|0:0,0:0:0:0:
360,88,244250,2,0,B|308:32|308:32|320:76|300:112,1,160,4|0,0:0|0:0,0:0:0:0:
224,156,244750,1,8,0:0:0:0:
344,192,244916,2,0,B|393:207|393:207|405:265|405:265|452:283,1,160,4|0,0:0|0:0,0:0:0:0:
452,372,245416,1,8,0:0:0:0:
368,348,245583,1,0,0:0:0:0:
280,348,245750,2,0,P|248:348|228:356,3,40,2|0|0|0,0:0|0:0|0:0|0:0,0:0:0:0:
172,364,246083,2,0,P|140:364|120:356,3,40,8|0|0|0,0:0|0:0|0:0|0:0,0:0:0:0:
68,332,246416,6,0,P|40:272|96:196,1,160,4|8,0:0|0:0,0:0:0:0:
216,264,246916,2,0,B|280:252|292:200|292:200|352:220,1,160,0|0,0:0|0:0,0:0:0:0:
424,252,247416,1,8,0:0:0:0:
344,124,247583,2,0,B|272:104|272:104|216:104|216:168,1,160,0|0,0:0|0:0,0:0:0:0:
136,192,248083,2,0,P|132:128|152:88,1,80,8|0,0:0|0:0,0:0:0:0:
184,40,248416,1,2,0:0:0:0:
184,40,248583,1,0,0:0:0:0:
268,20,248750,1,8,0:0:0:0:
268,20,248916,1,0,0:0:0:0:
368,28,249083,6,0,P|440:64|440:144,1,160,4|8,0:0|0:0,0:0:0:0:
428,328,249583,2,0,P|356:292|356:212,1,160,0|0,0:0|0:0,0:0:0:0:
268,252,250083,1,8,0:0:0:0:
268,252,250250,2,0,L|188:300,2,80,0|0|0,0:0|0:0|0:0,0:0:0:0:
284,164,250750,1,8,0:0:0:0:
284,164,250916,1,8,0:0:0:0:
204,200,251083,2,0,B|164:212|164:212|116:212,1,80,0|0,0:0|0:0,0:0:0:0:
24,104,251416,2,0,B|64:116|64:116|112:116,1,80,8|0,0:0|0:0,0:0:0:0:
216,36,251750,6,0,B|256:24|256:24|288:48|288:48|328:32|380:56,1,160,4|8,0:0|0:0,0:0:0:0:
392,192,252250,2,0,B|372:140|372:140|320:108|272:156,1,160,4|0,0:0|0:0,0:0:0:0:
220,220,252750,1,8,0:0:0:0:
376,280,252916,2,0,P|432:268|464:248,1,80,4|0,0:0|0:0,0:0:0:0:
256,356,253250,2,0,P|200:344|168:324,1,80,4|8,0:0|0:0,0:0:0:0:
108,212,253583,2,0,P|64:236|40:340,1,160,4|4,0:0|0:0,0:0:0:0:
38,336,254083,1,8,0:0:0:0:
196,192,254416,6,0,B|185:144|135:127|135:127|136:90|184:79,1,160,4|8,0:0|0:0,0:0:0:0:
286,140,254916,2,0,B|332:154|372:120|372:120|403:139|389:186,1,160,4|0,0:0|0:0,0:0:0:0:
286,243,255416,1,8,0:0:0:0:
286,243,255583,2,0,B|250:277|259:328|259:328|227:346|194:310,1,160,4|0,0:0|0:0,0:0:0:0:
340,308,256083,2,0,P|392:320|420:344,1,80,8|0,0:0|0:0,0:0:0:0:
492,300,256416,1,8,0:0:0:0:
456,220,256583,1,0,0:0:0:0:
472,132,256750,2,0,P|472:88|452:48,1,80,8|0,0:0|0:0,0:0:0:0:
372,40,257083,5,12,0:0:0:0:
196,20,257416,2,0,P|120:24|92:40,1,80,8|8,0:0|0:0,0:0:0:0:
52,84,257750,1,8,0:0:0:0:
32,168,257916,2,0,P|20:212|32:252,1,80,8|8,0:0|0:0,0:0:0:0:
68,324,258250,1,8,0:0:0:0:
120,256,258416,2,0,L|208:232,1,80,8|8,0:0|0:0,0:0:0:0:
284,260,258750,1,8,0:0:0:0:
324,184,258916,2,0,L|401:205,1,80,8|8,0:0|0:0,0:0:0:0:
464,268,259250,1,8,0:0:0:0:
484,184,259416,2,0,P|480:132|460:96,1,80,8|8,0:0|0:0,0:0:0:0:
440,72,259666,1,8,0:0:0:0:
400,52,259750,6,0,P|356:40|312:48,1,80,12|8,0:0|0:0,0:0:0:0:
256,120,260083,2,0,P|294:131|333:127,1,80,8|8,0:0|0:0,0:0:0:0:
204,44,260416,2,0,P|168:88|168:144,1,80,8|8,0:0|0:0,0:0:0:0:
164,260,260750,2,0,P|192:232|204:194,1,80,8|8,0:0|0:0,0:0:0:0:
64,296,261083,6,0,L|148:340,1,80,8|8,0:0|0:0,0:0:0:0:
296,352,261416,2,0,L|212:308,1,80,8|8,0:0|0:0,0:0:0:0:
252,232,261750,2,0,P|272:228|308:228,3,40,10|8|8|8,0:0|0:0|0:0|0:0,0:0:0:0:
360,248,262083,2,0,P|380:252|416:252,3,40,8|8|8|8,0:0|0:0|0:0|0:0,0:0:0:0:
464,224,262416,6,0,P|488:164|448:76,1,160,6|8,0:0|0:0,0:0:0:0:
368,52,262916,2,0,B|356:96|376:128|376:128|324:200,1,160,2|0,0:0|0:0,0:0:0:0:
280,268,263416,2,0,B|248:248|240:208|240:208|200:180|192:132,1,160,10|0,0:0|0:0,0:0:0:0:
260,92,263916,2,0,P|233:63|196:52,1,80,10|0,0:0|0:0,0:0:0:0:
120,100,264250,1,0,0:0:0:0:
260,92,264416,2,0,L|356:76,1,80,10|0,0:0|0:0,0:0:0:0:
224,192,264750,2,0,L|128:208,1,80,10|0,0:0|0:0,0:0:0:0:
36,320,265083,6,0,P|100:356|168:312,1,160,6|8,0:0|0:0,0:0:0:0:
240,268,265583,2,0,B|300:236|300:236|360:240|360:300,1,160,2|0,0:0|0:0,0:0:0:0:
332,376,266083,2,0,P|400:372|440:288,1,160,10|2,0:0|0:0,0:0:0:0:
424,212,266583,2,0,P|356:160|276:156,2,160,0|8|2,0:0|0:0|0:0,0:0:0:0:
424,212,267416,1,8,0:0:0:0:
464,132,267583,1,0,0:0:0:0:
464,132,267750,6,0,B|432:96|376:80|376:80|424:24,1,160,6|8,0:0|0:0,0:0:0:0:
324,24,268250,2,0,B|292:56|292:56|240:20|168:36,1,160,2|0,0:0|0:0,0:0:0:0:
172,120,268750,2,0,P|224:120|264:136,2,80,8|2|0,0:0|0:0|0:0,0:0:0:0:
132,200,269250,1,0,0:0:0:0:
96,280,269416,2,0,P|44:280|4:264,2,80,8|2|0,0:0|0:0|0:0,0:0:0:0:
184,268,269916,1,0,0:0:0:0:
216,188,270083,1,10,0:0:0:0:
216,188,270416,6,0,P|268:228|248:336,1,160,4|8,0:0|0:0,0:0:0:0:
352,300,270916,1,0,0:0:0:0:
352,300,271083,2,0,B|408:232|408:232|420:276|472:284,1,160,2|8,0:0|0:0,0:0:0:0:
496,200,271583,1,0,0:0:0:0:
424,148,271750,2,0,B|400:128|372:144|372:144|336:180|336:180|272:128,1,160,2|8,0:0|0:0,0:0:0:0:
236,80,272250,1,0,0:0:0:0:
176,144,272416,2,0,L|132:144,3,40,2|0|0|0,0:0|0:0|0:0|0:0,0:0:0:0:
84,188,272750,2,0,L|40:188,3,40,10|0|2|0,0:0|0:0|0:0|0:0,0:0:0:0:
8,248,273083,6,0,L|32:332,2,80,6|0|8,0:0|0:0|0:0,0:0:0:0:
92,272,273583,2,0,P|124:308|248:316,1,160,2|0,0:0|0:0,0:0:0:0:
300,268,274083,1,10,0:0:0:0:
372,320,274250,1,10,0:0:0:0:
428,252,274416,6,0,P|472:264|504:292,2,80,2|0|8,0:0|0:0|0:0,0:0:0:0:
376,180,274916,2,0,B|424:160|472:180|472:180|488:120,1,160,2|0,0:0|0:0,0:0:0:0:
412,80,275416,2,0,P|372:80|328:96,1,80,10|10,0:0|0:0,0:0:0:0:
260,140,275750,6,0,P|200:140|140:48,1,160,4|8,0:0|0:0,0:0:0:0:
208,24,276250,2,0,L|64:116,1,160,2|0,0:0|0:0,0:0:0:0:
40,192,276750,1,10,0:0:0:0:
136,340,277083,1,0,0:0:0:0:
136,340,277250,2,0,B|176:312|208:336|208:336|248:320|248:320|284:336|284:336|320:312|364:340,1,240,2|2,0:0|0:0,0:0:0:0:
444,348,277916,1,0,0:0:0:0:
464,264,278083,1,10,0:0:0:0:
460,240,278166,1,0,0:0:0:0:
456,216,278250,1,2,0:0:0:0:
452,192,278333,1,0,0:0:0:0:
448,168,278416,6,0,B|440:120|440:120|456:80,2,80,6|0|8,0:0|0:0|0:0,0:0:0:0:
364,148,278916,2,0,B|352:72|352:72|316:36|272:68,1,160,2|0,0:0|0:0,0:0:0:0:
240,144,279416,1,10,0:0:0:0:
164,100,279583,1,10,0:0:0:0:
132,180,279750,6,0,P|124:232|144:272,2,80,2|0|8,0:0|0:0|0:0,0:0:0:0:
208,220,280250,2,0,B|232:276|196:316|196:316|236:360,1,160,2|0,0:0|0:0,0:0:0:0:
312,312,280750,1,10,0:0:0:0:
448,200,281083,6,0,P|456:156|448:104,1,80,10|0,0:0|0:0,0:0:0:0:
408,44,281416,1,10,0:0:0:0:
364,152,281583,6,0,P|341:113|302:78,1,80,10|0,0:0|0:0,0:0:0:0:
233,58,281916,1,10,0:0:0:0:
72,148,282083,6,0,P|64:192|72:244,1,80,10|0,0:0|0:0,0:0:0:0:
112,304,282416,1,10,0:0:0:0:
156,196,282583,6,0,P|178:234|217:269,1,80,10|0,0:0|0:0,0:0:0:0:
287,289,282916,1,10,0:0:0:0:
173,132,283083,1,10,0:0:0:0:
358,192,283249,1,10,0:0:0:0:
173,252,283416,1,10,0:0:0:0:
287,94,283583,2,0,B|268:124|268:124|272:144|272:144|256:164,1,80,14|0,0:0|0:0,0:0:0:0:
