osu file format v14

[General]
AudioFilename: 01. .mp3
AudioLeadIn: 0
PreviewTime: 139193
Countdown: 0
SampleSet: Normal
StackLeniency: 0.5
Mode: 0
LetterboxInBreaks: 0
WidescreenStoryboard: 0

[Editor]
Bookmarks: 20523,39533,62107,90622,97751,116761,139335,165473,186860,210622,215380,229632
DistanceSpacing: 0.5
BeatDivisor: 4
GridSize: 4
TimelineZoom: 1.6

[Metadata]
Title:Setsuna no Kajitsu
TitleUnicode:刹那の果実
Artist:Kurosaki Maon
ArtistUnicode:黒崎真音
Creator:jonathanlfj
Version:Nyquilfj's Extra
Source:グリザイアの楽園 -LE EDEN DE LA GRISAIA-
Tags:Nyquill senpai CSLM captin1 bossandy Grisaia no Rakuen 8-Bit Tenshou frontwing opening visual novel
BeatmapID:735403
BeatmapSetID:332112

[Difficulty]
HPDrainRate:6.5
CircleSize:4
OverallDifficulty:8.5
ApproachRate:9.2
SliderMultiplier:1.8
SliderTickRate:1

[Events]
//Background and Video events
0,0,"Rakuen.jpg",0,0
//Break Periods
2,90829,97188
2,210829,214811
//Storyboard Layer 0 (Background)
//Storyboard Layer 1 (Fail)
//Storyboard Layer 2 (Pass)
//Storyboard Layer 3 (Foreground)
//Storyboard Sound Samples

[TimingPoints]
803,368.098159509202,4,2,1,30,1,0
803,-142.857142857143,4,2,1,30,0,0
2275,357.142857142857,4,2,1,35,1,0
2275,-142.857142857143,4,2,1,35,0,0
3703,337.078651685393,4,2,1,40,1,0
3703,-142.857142857143,4,2,1,40,0,0
5051,314.13612565445,4,2,1,45,1,0
5051,-142.857142857143,4,2,1,45,0,0
5679,297.029702970297,4,2,1,45,1,0
5679,-142.857142857143,4,2,1,45,0,0
6273,297.029702970297,4,2,1,50,1,0
6273,-125,4,2,1,50,0,0
8797,-125,4,2,1,60,0,0
9985,-111.111111111111,4,1,1,70,0,0
10579,-90.9090909090909,4,1,1,70,0,0
10876,-100,4,1,1,70,0,0
20530,-117.647058823529,4,1,1,70,0,0
22906,-100,4,1,1,70,0,0
29738,-117.647058823529,4,1,1,70,0,0
32411,-100,4,1,1,70,0,0
49342,-71.4285714285714,4,1,1,70,0,0
49787,-100,4,1,1,70,0,0
51718,-71.4285714285714,4,1,1,70,0,0
52015,-100,4,1,1,70,0,0
53797,-125,4,1,1,60,0,0
56173,-125,4,1,1,50,0,0
57362,-117.647058823529,4,1,1,55,0,0
58550,-111.111111111111,4,1,1,60,0,0
59589,-105.263157894737,4,1,1,65,0,0
61074,-100,4,1,1,70,0,0
61817,-80,4,1,1,80,0,0
62114,-90.9090909090909,4,1,1,80,0,1
75183,-83.3333333333333,4,1,1,80,0,1
75629,-76.9230769230769,4,1,1,80,0,1
76074,-71.4285714285714,4,1,1,80,0,1
76372,-100,4,1,1,80,0,1
80827,-125,4,1,1,80,0,1
81124,-125,4,1,1,70,0,0
85728,-100,4,1,1,70,0,0
86916,-117.647058823529,4,2,1,70,0,0
88253,-90.9090909090909,4,1,1,80,0,0
90629,-100,4,1,1,50,0,0
97758,-100,4,1,1,70,0,0
107263,-117.647058823529,4,1,1,50,0,0
108154,-111.111111111111,4,1,1,55,0,0
109045,-105.263157894737,4,1,1,60,0,0
109639,-100,4,1,1,70,0,0
126570,-66.6666666666667,4,1,1,70,0,0
127312,-100,4,1,1,70,0,0
128946,-66.6666666666667,4,1,1,70,0,0
129243,-100,4,1,1,70,0,0
131025,-125,4,1,1,70,0,0
133401,-125,4,1,1,50,0,0
134589,-111.111111111111,4,1,1,65,0,0
135777,-100,4,1,1,80,0,0
136817,-100,4,1,1,85,0,0
139045,-80,4,1,1,85,0,0
139342,-90.9090909090909,4,1,1,80,0,1
152411,-83.3333333333333,4,1,1,85,0,1
152857,-76.9230769230769,4,1,1,85,0,1
153302,-71.4285714285714,4,1,1,85,0,1
153599,-90.9090909090909,4,1,1,80,0,1
158352,-100,4,1,1,70,0,0
165480,-166.666666666667,4,1,1,25,0,0
172015,-166.666666666667,4,1,1,30,0,0
172312,-166.666666666667,4,1,1,45,0,0
172609,-105.263157894737,4,1,1,60,0,0
186421,-105.263157894737,4,1,1,70,0,0
186867,-100,4,1,1,70,0,0
187461,-71.4285714285714,4,1,1,70,0,0
188055,-100,4,1,1,70,0,0
189837,-71.4285714285714,4,1,1,70,0,0
190431,-100,4,1,1,70,0,0
191619,-125,4,1,1,70,0,0
192213,-71.4285714285714,4,1,1,70,0,0
192807,-125,4,1,1,70,0,0
193401,-71.4285714285714,4,1,1,70,0,0
193995,-125,4,1,1,40,0,0
194738,-125,4,2,1,40,0,0
194961,-125,4,2,1,10,0,0
195035,-100,4,2,1,50,0,0
195258,-100,4,2,1,10,0,0
195332,-83.3333333333333,4,1,1,60,0,0
195629,-71.4285714285714,4,1,1,70,0,0
196074,-83.3333333333333,4,1,1,70,0,0
196372,-100,4,1,1,70,0,0
196966,-71.4285714285714,4,1,1,70,0,0
197560,-100,4,1,1,70,0,0
199342,-71.4285714285714,4,1,1,70,0,0
199936,-100,4,1,1,70,0,0
202312,-90.9090909090909,4,1,1,70,0,0
202758,-83.3333333333333,4,1,1,70,0,0
203203,-76.9230769230769,4,1,1,70,0,0
203500,-100,4,1,1,70,0,0
204391,-125,4,1,1,70,0,0
204985,-100,4,1,1,70,0,0
208253,-100,4,1,1,60,0,0
209292,-100,4,1,1,50,0,0
210629,-100,4,2,1,40,0,0
215381,-117.647058823529,4,2,1,50,0,0
215975,-90.9090909090909,4,2,1,60,0,0
216570,-100,4,2,1,60,0,0
217164,-66.6666666666667,4,2,1,70,0,0
217906,-100,4,2,1,70,0,0
218797,-100,4,1,1,70,0,0
220134,-80,4,1,1,85,0,1
223698,-71.4285714285714,4,1,1,85,0,1
224144,-66.6666666666667,4,1,1,85,0,1
224886,-90.9090909090909,4,1,1,85,0,1
229639,-100,4,1,1,70,0,0

[Colours]
Combo1 : 255,203,45
Combo2 : 84,224,254
Combo3 : 72,126,253
Combo4 : 102,255,74

[HitObjects]
92,256,803,6,0,L|180:244,1,62.9999980773926,2|0,0:0|0:0,0:0:0:0:
364,324,1171,2,0,L|292:316,1,62.9999980773926
208,172,1539,1,2,0:0:0:0:
264,96,1723,1,0,0:0:0:0:
340,152,1907,1,0,0:0:0:0:
284,228,2091,1,2,0:0:0:0:
140,104,2275,6,0,P|136:64|140:32,1,62.9999980773926,2|0,0:0|0:0,0:0:0:0:
96,188,2632,2,0,P|112:232|116:260,1,62.9999980773926
240,344,2989,1,2,0:0:0:0:
264,252,3167,1,0,0:0:0:0:
388,176,3346,1,0,0:0:0:0:
424,264,3524,1,2,0:0:0:0:
292,160,3703,6,0,L|300:96,1,62.9999980773926,2|0,0:0|0:0,0:0:0:0:
486,267,4040,2,0,L|424:264,1,62.9999980773926
264,252,4377,1,2,0:0:0:0:
388,176,4545,1,0,0:0:0:0:
356,332,4714,1,0,0:0:0:0:
172,280,4882,1,2,0:0:0:0:
244,96,5051,6,0,P|256:132|260:168,1,62.9999980773926,2|0,0:0|0:0,0:0:0:0:
76,304,5365,2,0,P|80:260|88:236,1,62.9999980773926
132,184,5600,1,0,0:0:0:0:
132,184,5679,2,0,L|120:116,1,62.9999980773926,2|0,0:0|0:0,0:0:0:0:
252,313,5976,2,0,L|264:252,1,62.9999980773926,2|0,0:0|0:0,0:0:0:0:
244,96,6273,5,2,0:0:0:0:
451,179,6421,2,0,L|308:168,1,144,2|0,0:0|0:0,0:0:0:0:
64,244,6867,2,0,L|220:228,1,144,2|0,0:0|0:0,0:0:0:0:
368,312,7312,2,0,P|320:308|292:300,1,72,2|0,0:0|0:0,0:0:0:0:
240,224,7609,1,0,0:0:0:0:
380,76,7758,2,0,P|396:132|388:236,1,144,2|0,0:0|0:0,0:0:0:0:
380,76,8352,5,0,0:0:0:0:
280,88,8500,1,0,0:0:0:0:
180,104,8649,1,0,0:0:0:0:
380,76,8797,6,0,L|372:224,1,144,2|0,0:0|0:0,0:0:0:0:
148,304,9243,2,0,B|136:268|136:268|132:228,1,72,2|0,0:0|0:0,0:0:0:0:
244,332,9540,1,2,0:0:0:0:
40,292,9688,1,0,0:0:0:0:
40,292,9985,5,2,2:0:0:0:
264,240,10134,1,8,0:0:0:0:
300,252,10208,1,0,0:0:0:0:
328,280,10282,1,0,0:0:0:0:
340,320,10357,1,0,0:0:0:0:
336,360,10431,1,10,0:0:0:0:
228,236,10579,2,0,B|216:120|216:120|260:152,1,148.50000453186,2|0,0:0|2:0,0:0:0:0:
264,152,10876,6,2,P|188:176|76:168,1,180,6|0,0:0|0:0,0:0:0:0:
304,60,11322,2,0,L|400:68,1,90,8|2,0:0|0:0,0:0:0:0:
304,60,11619,1,2,0:0:0:0:
176,196,11768,1,0,0:0:0:0:
56,96,11916,2,0,L|156:104,1,90,8|2,0:0|2:1,0:0:0:0:
341,206,12213,6,2,P|260:171|176:196,1,180,2|8,0:0|0:0,0:0:0:0:
120,280,12659,1,0,2:0:0:0:
145,103,12807,1,2,0:0:0:0:
252,276,12956,2,0,L|240:372,1,90,2|8,0:0|0:0,0:0:0:0:
40,220,13253,6,2,B|16:148|40:80|40:80|64:120,1,180,2|0,0:0|0:0,0:0:0:0:
120,280,13698,2,0,P|116:324|104:368,1,90,8|0,0:0|2:0,0:0:0:0:
184,208,13995,1,2,0:0:0:0:
24,256,14144,1,2,0:0:0:0:
220,340,14292,1,8,0:0:0:0:
104,152,14441,6,2,P|97:98|184:12,1,180,2|0,0:0|0:0,0:0:0:0:
360,128,14886,2,0,P|296:140|256:136,1,90,10|0,0:0|2:0,0:0:0:0:
236,128,15109,1,0,2:0:0:0:
204,116,15183,1,2,0:0:0:0:
436,188,15332,1,4,2:0:0:0:
436,188,15629,6,2,B|444:236|444:236|432:368,1,180,6|0,0:0|0:0,0:0:0:0:
304,200,16074,2,0,B|308:156|308:156|324:108,1,90,8|0,0:0|2:0,0:0:0:0:
424,84,16372,1,0,0:0:0:0:
436,188,16520,1,2,0:0:0:0:
376,276,16669,1,10,0:0:0:0:
252,132,16817,6,2,P|246:93|348:16,1,180,4|0,0:2|0:0,0:0:0:0:
336,188,17263,1,8,0:0:0:0:
208,40,17411,2,2,P|162:30|116:32,1,90,2|0,2:1|0:0,0:0:0:0:
52,108,17708,1,0,0:0:0:0:
84,204,17857,1,10,0:0:0:0:
152,128,18005,1,0,2:0:0:0:
16,276,18154,6,2,P|100:300|172:240,1,180,4|2,0:0|2:1,0:0:0:0:
460,188,18599,2,2,P|372:212|308:152,1,180,8|0,0:3|2:0,0:0:0:0:
184,24,19045,6,0,P|196:100|184:212,1,180,8|0,0:3|2:0,0:0:0:0:
328,360,19490,2,0,P|316:284|328:172,1,180,8|0,0:3|2:0,0:0:0:0:
384,88,19936,1,2,0:0:0:0:
128,296,20084,1,2,0:0:0:0:
64,134,20530,6,0,L|244:154,1,153.000002918243,6|0,0:2|2:0,0:0:0:0:
380,108,20975,2,0,B|390:74|390:74|382:34,1,76.5000014591217,2|0,0:2|2:0,0:0:0:0:
308,220,21273,1,0,2:0:0:0:
404,328,21421,2,0,B|410:264|410:264|424:248|424:248|428:180,1,153.000002918243,2|0,0:2|2:0,0:0:0:0:
208,232,21867,6,0,L|199:307,1,76.5000014591217,2|0,0:2|2:0,0:0:0:0:
288,168,22164,1,0,0:0:0:0:
148,60,22312,2,0,L|136:160,1,76.5000014591217,8|0,0:0|0:0,0:0:0:0:
312,256,22609,1,0,0:0:0:0:
316,224,22683,1,0,0:0:0:0:
320,192,22758,1,0,0:0:0:0:
324,160,22832,1,0,0:0:0:0:
328,124,22906,6,0,P|324:64|308:20,1,90,4|0,0:0|2:0,0:0:0:0:
228,184,23203,2,0,P|272:240|392:212,1,180,8|0,0:0|0:0,0:0:0:0:
184,292,23649,1,0,0:0:0:0:
316,160,23797,1,8,0:0:0:0:
216,16,23946,2,0,P|211:66|208:144,1,90,0|0,0:0|2:0,0:0:0:0:
320,336,24243,5,0,0:0:0:0:
420,264,24391,2,0,P|424:214|428:136,1,90,10|0,0:2|2:0,0:0:0:0:
224,276,24688,1,0,0:0:0:0:
328,224,24837,2,0,P|332:174|336:96,1,90,2|0,0:2|2:0,0:0:0:0:
160,292,25134,6,0,B|256:276|236:348|348:324,1,180,4|0,0:2|0:0,0:0:0:0:
44,244,25579,2,0,B|36:292|36:292|52:356,1,90,10|0,0:2|2:0,0:0:0:0:
236,280,25876,2,0,B|244:232|244:232|228:168,1,90,0|0,0:2|1:0,0:0:0:0:
136,96,26173,1,10,0:2:0:0:
128,188,26322,1,0,0:0:0:0:
216,48,26471,6,0,P|104:48|44:0,1,180,4|8,0:2|0:0,0:0:0:0:
208,148,26916,2,0,P|212:220|124:300,1,180,2|0,0:2|0:0,0:0:0:0:
4,200,27362,2,0,L|104:208,1,90,10|0,0:2|2:0,0:0:0:0:
280,340,27659,6,0,B|222:345|222:345|178:369|178:369|100:376,2,180,4|8|0,0:2|0:0|0:0,0:0:0:0:
400,316,28401,1,0,0:0:0:0:
392,200,28550,1,8,0:0:0:0:
304,256,28698,1,0,0:0:0:0:
472,256,28847,6,0,P|472:204|468:156,1,90,12|0,0:2|0:0,0:0:0:0:
440,8,29144,1,0,0:0:0:0:
504,72,29292,2,0,P|412:88|348:4,1,180,4|0,0:2|0:0,0:0:0:0:
248,120,29738,1,0,0:0:0:0:
248,120,30035,6,0,P|268:172|280:304,1,153.000002918243
128,360,30480,2,0,P|136:284|160:211,1,153.000002918243,0|0,0:0|2:0,0:0:0:0:
300,292,30926,2,0,B|360:300|360:300|388:320|388:320|468:328,1,153.000002918243
445,325,31372,6,0,L|456:244,1,76.5000014591217,0|2,0:0|2:2,0:0:0:0:
360,240,31669,1,0,2:0:0:0:
500,172,31817,2,0,L|508:84,1,76.5000014591217,2|0,1:2|1:2,2:0:0:0:
325,93,32114,1,0,0:0:0:0:
318,122,32188,1,0,0:0:0:0:
324,155,32263,1,0,0:0:0:0:
415,125,32411,5,0,0:0:0:0:
405,37,32560,1,0,0:0:0:0:
330,90,32708,2,0,B|250:94|250:94|229:82|229:82|144:85,1,180,4|0,0:0|0:0,0:0:0:0:
208,180,33154,1,0,0:0:0:0:
130,257,33302,1,8,0:0:0:0:
43,185,33451,6,0,B|31:129|31:129|47:-15,1,180
208,180,33896,2,0,L|224:284,1,90,8|0,0:0|0:0,0:0:0:0:
113,114,34193,2,0,L|125:6,1,90
208,180,34490,1,8,0:0:0:0:
208,180,34787,6,0,B|120:168|120:168|24:216,1,180,4|8,0:0|0:0,0:0:0:0:
225,283,35233,1,0,0:0:0:0:
319,247,35381,2,0,L|295:139,1,90
176,52,35678,2,0,L|192:168,1,90,8|0,0:0|0:0,0:0:0:0:
391,166,35975,6,0,B|423:126|423:126|443:62|403:-6,1,180,4|8,0:0|0:0,0:0:0:0:
296,72,36421,2,0,B|396:120|384:40|508:92,1,180
496,208,36867,1,8,0:0:0:0:
404,268,37015,1,0,0:0:0:0:
352,168,37164,6,0,P|344:116|344:68,1,90,4|0,0:0|2:0,0:0:0:0:
124,8,37461,1,8,2:0:0:0:
184,92,37609,2,0,B|208:144|208:144|216:220|164:280,1,180
8,200,38055,2,0,P|64:156|116:152,1,90,8|0,0:0|0:0,0:0:0:0:
264,296,38352,5,8,0:0:0:0:
128,352,38500,2,0,P|84:296|80:244,1,90,8|0,0:0|0:0,0:0:0:0:
224,0,38797,2,0,P|272:76|232:180,1,180,12|0,0:0|0:0,0:0:0:0:
80,96,39243,2,0,L|176:88,1,90,8|0,0:0|2:0,0:0:0:0:
380,184,39540,6,0,P|308:220|216:188,1,180,4|8,0:0|0:0,0:0:0:0:
392,88,39985,1,0,2:0:0:0:
296,248,40134,2,0,P|284:296|284:344,1,90
460,240,40431,1,8,0:0:0:0:
288,140,40579,6,0,B|232:144|232:144|176:176|176:176|112:176,1,180,2|0,0:2|0:0,0:0:0:0:
48,32,41025,2,0,L|144:64,1,90,10|0,0:2|2:0,0:0:0:0:
224,200,41322,1,0,0:0:0:0:
60,140,41471,1,0,0:0:0:0:
228,16,41619,2,0,B|236:60|236:60|228:120,1,90,8|0,0:0|2:0,0:0:0:0:
172,280,41916,5,2,0:2:0:0:
144,152,42065,1,2,0:2:0:0:
80,328,42213,2,0,L|276:312,1,180,8|0,0:0|0:0,0:0:0:0:
472,344,42659,2,0,P|416:344|384:336,1,90,0|8,0:0|0:0,0:0:0:0:
384,88,42956,6,0,P|444:151|439:239,1,180,2|0,0:2|0:0,0:0:0:0:
252,200,43401,2,0,L|348:192,1,90,8|0,0:0|2:0,0:0:0:0:
184,280,43698,1,0,0:0:0:0:
148,180,43847,1,0,0:0:0:0:
112,80,43995,1,10,0:2:0:0:
184,280,44292,6,0,B|208:220|208:172|208:172|180:184,1,135,2|0,0:2|2:0,0:0:0:0:
94,241,44589,2,0,P|90:281|102:345,1,90,12|0,0:2|2:0,0:0:0:0:
186,181,44886,1,0,0:0:0:0:
308,272,45035,2,0,P|308:332|296:376,1,90,0|8,0:0|0:0,0:0:0:0:
448,204,45332,6,0,P|368:164|336:76,1,180,4|0,0:2|0:0,0:0:0:0:
154,192,45777,2,0,P|214:180|258:156,1,90,8|0,0:0|2:0,0:0:0:0:
336,256,46074,1,0,0:0:0:0:
256,140,46223,1,0,0:0:0:0:
372,32,46372,2,0,P|372:80|352:136,1,90,8|0,0:0|2:0,0:0:0:0:
92,124,46669,6,0,B|108:76|108:76|164:40|248:60,1,180,4|8,0:2|0:0,0:0:0:0:
228,244,47114,2,0,P|192:188|180:140,1,90,0|0,2:0|0:0,0:0:0:0:
328,72,47411,1,0,0:0:0:0:
384,200,47560,1,8,0:0:0:0:
292,164,47708,1,0,0:0:0:0:
424,108,47857,5,2,1:2:0:0:
324,256,48005,1,0,0:0:0:0:
464,304,48154,5,10,0:2:0:0:
344,164,48302,1,0,2:0:0:0:
320,352,48451,5,2,0:2:0:0:
420,220,48599,1,0,0:0:0:0:
260,120,48748,5,10,0:2:0:0:
324,256,48896,1,0,2:0:0:0:
424,108,49045,6,0,P|368:76|288:88,1,135,2|0,0:2|2:0,0:0:0:0:
260,120,49342,6,2,B|244:141|244:141|219:132|219:132|200:152|200:152|148:152|116:108|124:56|168:32,1,251.999992309571,14|8,0:0|0:0,0:0:0:0:
260,120,49787,1,2,0:2:0:0:
88,180,49936,1,8,0:0:0:0:
180,28,50084,6,0,B|248:4|335:15|335:15|312:36,1,180,2|0,0:2|0:0,0:0:0:0:
188,176,50530,2,0,P|184:224|192:268,1,90,8|2,0:0|2:0,0:0:0:0:
376,184,50827,2,0,P|388:132|388:96,1,90,2|0,0:2|2:0,0:0:0:0:
428,292,51124,1,8,0:0:0:0:
428,292,51421,6,0,B|312:276|312:276|332:296,1,135,0|0,0:0|2:0,0:0:0:0:
360,324,51718,6,2,B|376:300|376:300|364:264|364:264|388:236|388:236|372:192|392:148,1,188.999994232178,14|0,0:0|2:0,0:0:0:0:
424,108,52015,1,2,0:2:0:0:
296,212,52164,1,0,0:0:0:0:
468,196,52312,1,8,0:0:0:0:
256,124,52461,6,0,P|200:188|220:276,1,180,2|0,0:2|0:0,0:0:0:0:
408,328,52906,2,0,L|308:316,1,90,8|0,0:0|2:0,0:0:0:0:
160,348,53203,1,0,0:0:0:0:
116,256,53352,1,2,2:0:0:0:
200,192,53500,1,8,0:0:0:0:
160,348,53649,1,0,0:0:0:0:
116,256,53797,6,0,P|100:184|104:104,2,144,4|8|0,0:0|0:0|0:0,0:0:0:0:
360,352,54688,1,8,0:0:0:0:
432,292,54837,2,0,P|360:260|296:284,1,144,2|0,0:2|0:0,0:0:0:0:
220,368,55282,1,8,0:0:0:0:
220,368,55579,2,0,L|208:280,1,72,0|0,0:0|2:0,0:0:0:0:
300,180,55876,2,0,L|308:104,1,72,2|0,2:0|2:0,0:0:0:0:
204,204,56173,5,4,0:2:0:0:
304,184,56322,1,0,2:0:0:0:
400,220,56471,1,8,0:3:0:0:
480,160,56619,2,0,B|496:208|496:208|476:316,1,144,2|0,0:2|0:0,0:0:0:0:
396,108,57065,2,0,B|388:72|388:72|392:32,1,72,8|0,0:0|0:0,0:0:0:0:
304,184,57362,5,4,0:2:0:0:
192,156,57510,1,0,2:0:0:0:
276,76,57659,1,8,0:3:0:0:
224,260,57807,2,0,P|128:248|80:192,1,153.000002918243,2|0,0:2|0:0,0:0:0:0:
108,16,58253,2,0,P|124:60|128:96,1,76.5000014591217,8|0,0:0|0:0,0:0:0:0:
24,232,58550,5,4,0:2:0:0:
192,156,58698,1,0,2:0:0:0:
164,340,58847,1,8,0:3:0:0:
128,244,58995,2,0,L|231:251,1,80.9999975280763,2|0,0:2|0:0,0:0:0:0:
314,68,59292,1,8,0:3:0:0:
329,208,59441,1,0,2:0:0:0:
189,46,59589,2,0,L|9:58,1,170.999995433807,4|0,0:2|0:0,0:0:0:0:
128,244,60035,5,8,0:0:0:0:
289,119,60183,1,0,0:0:0:0:
100,139,60332,1,2,0:2:0:0:
289,233,60480,1,2,0:2:0:0:
104,346,60629,1,8,0:3:0:0:
330,339,60777,1,4,0:2:0:0:
330,339,61074,5,2,0:0:0:0:
289,119,61223,1,2,0:0:0:0:
455,256,61372,2,0,B|299:244|299:244|315:228,1,180,2|0,0:0|0:0,0:0:0:0:
370,146,61743,1,0,0:0:0:0:
370,146,61817,2,2,B|378:110|378:110|360:81|360:81|354:26|354:26|326:22|306:38,1,168.75,2|0,0:0|2:0,0:0:0:0:
204,112,62114,5,6,0:2:0:0:
372,180,62263,1,2,0:2:0:0:
313,33,62411,1,8,0:1:0:0:
204,112,62560,2,0,P|208:168|216:228,1,99.0000030212403,2|0,0:2|0:0,0:0:0:0:
424,304,62857,2,2,P|420:248|412:188,1,99.0000030212403,2|8,0:2|0:0,0:0:0:0:
316,272,63154,1,2,0:0:0:0:
476,156,63302,6,2,B|380:200|396:120|284:176,1,198.000006042481,6|2,0:2|0:0,0:0:0:0:
40,204,63748,2,0,P|92:272|224:248,1,198.000006042481,2|2,0:0|0:2,0:0:0:0:
196,68,64193,1,0,0:0:0:0:
144,188,64342,1,2,0:2:0:0:
296,188,64490,6,2,P|312:132|260:-8,1,198.000006042481,6|8,0:2|0:0,0:0:0:0:
39,106,64936,1,0,0:0:0:0:
201,326,65084,2,0,P|233:272|228:227,1,99.0000030212403
156,113,65381,2,0,P|124:167|129:212,1,99.0000030212403
356,112,65678,6,2,B|328:96|328:96|262:90,1,99.0000030212403,4|0,0:2|0:0,0:0:0:0:
0,272,65975,1,2,0:0:0:0:
140,224,66124,2,2,P|172:155|131:35,1,198.000006042481,4|0,0:2|0:0,0:0:0:0:
64,156,66570,1,0,0:0:0:0:
60,184,66644,1,0,0:0:0:0:
56,212,66718,1,0,0:0:0:0:
52,240,66792,1,0,0:0:0:0:
48,268,66867,6,2,P|40:307|76:388,1,99.0000030212403,6|0,0:2|0:0,0:0:0:0:
336,256,67164,2,2,P|343:216|308:136,1,99.0000030212403,2|0,0:2|0:0,0:0:0:0:
144,128,67461,1,2,0:0:0:0:
256,216,67609,1,0,0:0:0:0:
232,44,67758,1,2,0:2:0:0:
64,132,67906,6,2,B|32:184|32:184|16:332,1,198.000006042481,6|0,0:2|0:0,0:0:0:0:
224,132,68352,2,2,L|208:4,1,99.0000030212403,2|0,0:2|0:0,0:0:0:0:
360,236,68649,2,2,L|336:348,1,99.0000030212403,2|0,0:2|0:0,0:0:0:0:
80,268,68946,2,2,L|264:240,1,148.50000453186,0|0,0:2|2:2,0:0:0:0:
256,240,69243,5,6,0:2:0:0:
132,152,69391,1,0,0:0:0:0:
53,271,69540,2,0,P|45:323|61:395,1,99.0000030212403,8|0,0:0|0:0,0:0:0:0:
216,152,69837,2,0,P|224:100|208:28,1,99.0000030212403,2|2,0:0|0:0,0:0:0:0:
139,0,70134,1,8,0:0:0:0:
144,240,70282,6,2,P|220:256|316:176,1,198.000006042481,4|0,0:0|0:0,0:0:0:0:
336,52,70728,1,2,0:2:0:0:
311,188,70876,2,0,P|319:244|327:288,1,99.0000030212403
0,270,71173,1,2,0:2:0:0:
39,290,71248,1,0,0:0:0:0:
83,293,71322,1,0,0:0:0:0:
124,278,71396,1,0,0:0:0:0:
159,252,71471,1,2,0:2:0:0:
180,213,71545,1,0,0:0:0:0:
185,169,71619,6,0,P|180:106|167:57,1,99.0000030212403,4|0,0:0|0:0,0:0:0:0:
72,191,71916,1,2,0:2:0:0:
290,147,72065,2,2,B|406:119|370:199|506:151,1,198.000006042481,4|2,0:2|0:2,0:0:0:0:
319,329,72510,2,0,P|339:285|333:230,1,99.0000030212403,2|0,0:2|0:0,0:0:0:0:
200,24,72807,6,2,P|140:128|188:220,1,198.000006042481,4|0,0:2|0:0,0:0:0:0:
80,344,73253,2,2,P|92:300|96:232,1,99.0000030212403,6|0,0:2|0:0,0:0:0:0:
36,86,73550,1,2,0:2:0:0:
192,198,73698,1,2,0:2:0:0:
178,20,73847,1,2,0:2:0:0:
96,216,73995,6,0,P|160:288|264:264,1,198.000006042481,4|8,0:0|0:0,0:0:0:0:
509,201,74441,2,0,L|412:216,1,99.0000030212403
194,199,74738,1,0,0:0:0:0:
320,328,74886,1,8,0:0:0:0:
308,84,75035,1,0,0:0:0:0:
179,315,75183,6,0,B|119:307|119:307|75:291|63:247|63:247|89:214|121:251,1,215.999993408203,6|0,0:0|0:0,0:0:0:0:
128,157,75629,2,2,B|63:79|109:14|109:14|180:28|127:115,1,233.999989288331,0|0,0:0|0:0,0:0:0:0:
250,39,76074,2,0,B|250:83|262:99|262:99|234:119|222:151,1,125.999996154785,6|0,0:0|0:0,0:0:0:0:
328,316,76372,5,0,0:0:0:0:
320,200,76520,1,0,0:0:0:0:
240,356,76669,2,0,B|224:312|224:312|236:256,1,90,0|0,2:0|0:0,0:0:0:0:
234,269,76891,1,0,0:0:0:0:
234,269,76966,1,8,0:3:0:0:
416,148,77114,2,0,B|432:192|432:192|420:248,1,90,4|0,0:2|0:0,0:0:0:0:
328,344,77411,6,0,L|308:140,1,180,4|0,0:0|0:0,0:0:0:0:
428,288,77857,2,0,B|464:296|464:296|524:256,1,90
232,331,78154,1,0,0:0:0:0:
196,204,78302,2,0,B|160:196|160:196|116:225,1,90,4|0,0:0|0:0,0:0:0:0:
332,64,78599,6,0,L|314:243,1,180,4|0,0:0|2:0,0:0:0:0:
232,331,79045,1,0,2:0:0:0:
152,108,79342,1,0,2:0:0:0:
408,64,79639,1,0,2:0:0:0:
472,144,79787,6,0,P|472:208|416:308,1,180,4|0,0:0|0:0,0:0:0:0:
380,316,80159,1,0,0:0:0:0:
344,312,80233,1,0,0:0:0:0:
195,260,80381,1,0,0:0:0:0:
356,208,80530,1,0,0:0:0:0:
248,348,80678,1,0,2:0:0:0:
268,192,80827,2,0,L|276:114,1,72,0|0,0:0|2:0,0:0:0:0:
285,28,81124,5,4,1:0:0:0:
356,208,81273,2,0,P|368:288|328:352,1,144,2|0,2:2|2:0,0:0:0:0:
188,132,81718,2,0,P|156:92|136:64,1,72,0|2,0:0|2:0,0:0:0:0:
316,128,82015,1,0,2:0:0:0:
208,232,82164,6,0,P|164:180|68:176,1,144
68,344,82609,1,0,1:2:0:0:
120,248,82758,1,0,2:0:0:0:
84,76,82906,1,2,2:2:0:0:
80,68,83203,1,2,2:2:0:0:
76,60,83500,5,4,2:0:0:0:
140,192,83649,2,0,L|300:168,1,144,2|0,2:0|2:0,0:0:0:0:
372,172,84020,1,0,2:0:0:0:
372,172,84094,2,0,L|360:252,1,72,0|0,0:0|1:0,0:0:0:0:
308,88,84391,1,0,0:0:0:0:
448,12,84540,6,0,L|464:172,1,144,4|0,0:0|2:0,0:0:0:0:
268,248,84985,1,0,0:0:0:0:
372,172,85134,1,0,2:0:0:0:
438,285,85282,2,0,L|429:354,1,36,0|0,0:0|2:0,0:0:0:0:
338,369,85431,2,0,L|352:282,1,72,0|0,0:0|2:0,0:0:0:0:
231,85,85728,6,0,P|187:169|223:257,1,180,4|0,0:2|0:0,0:0:0:0:
349,297,86173,1,0,0:0:0:0:
119,257,86322,1,0,0:0:0:0:
287,173,86471,1,0,0:0:0:0:
171,333,86619,2,0,P|115:349|59:333,1,90,0|0,0:0|2:0,0:0:0:0:
91,154,86916,6,0,B|77:93|141:69|161:117|113:161|71:234|139:274,1,229.500004377365,2|2,1:2|2:0,0:0:0:0:
416,144,87659,2,0,P|424:76|380:4,1,153.000002918243,2|2,2:0|2:0,0:0:0:0:
328,128,88104,1,0,2:0:0:0:
512,96,88253,1,4,0:0:0:0:
256,192,88327,12,0,90629,0:0:0:0:
176,284,97758,5,0,0:0:0:0:
236,120,97906,1,0,0:0:0:0:
264,224,98055,1,0,0:0:0:0:
128,112,98203,1,4,0:2:0:0:
128,112,98649,5,0,0:0:0:0:
176,284,98797,1,0,0:0:0:0:
66,222,98946,1,0,0:0:0:0:
238,174,99094,1,0,0:0:0:0:
238,174,99540,5,0,0:0:0:0:
432,276,99688,1,0,0:0:0:0:
296,296,99837,1,0,2:0:0:0:
296,296,100134,5,2,0:2:0:0:
340,76,100282,1,0,0:0:0:0:
460,148,100431,1,0,0:0:0:0:
238,174,100579,1,4,0:2:0:0:
238,174,101025,5,0,0:0:0:0:
296,296,101173,1,0,0:0:0:0:
324,128,101322,1,2,0:2:0:0:
208,344,101471,1,2,0:2:0:0:
208,344,101916,5,2,0:2:0:0:
160,248,102065,1,2,0:2:0:0:
238,174,102213,1,0,2:0:0:0:
80,324,102362,6,2,P|52:256|100:156,1,180,6|0,0:0|0:0,0:0:0:0:
238,174,102807,2,0,P|280:192|328:196,1,90,8|0,0:0|2:0,0:0:0:0:
452,160,103104,1,0,0:0:0:0:
308,96,103253,1,0,0:0:0:0:
352,188,103401,1,10,0:0:0:0:
376,16,103550,1,0,0:0:0:0:
200,80,103698,6,2,B|172:160|172:160|180:256,1,180,6|10,0:0|0:0,0:0:0:0:
331,362,104144,2,2,B|359:282|359:282|352:188,1,180,2|0,0:0|0:0,0:0:0:0:
84,120,104589,2,0,B|72:160|72:160|76:212,1,90,8|0,0:0|2:0,0:0:0:0:
149,284,104886,5,4,0:0:0:0:
217,212,105035,1,0,0:0:0:0:
183,120,105183,1,8,0:0:0:0:
84,120,105332,1,0,0:0:0:0:
153,303,105480,6,0,L|207:316,1,45,2|0,1:2|2:0,0:0:0:0:
234,215,105629,2,0,L|270:169,1,45,2|0,1:2|2:0,0:0:0:0:
194,106,105777,2,0,L|166:46,1,45,8|0,1:0|2:0,0:0:0:0:
75,106,105926,2,0,L|15:109,1,45,2|0,1:2|0:0,0:0:0:0:
20,212,106074,5,6,0:2:0:0:
264,52,106223,1,2,0:2:0:0:
264,52,106520,6,0,L|300:56,6,22.5,2|0|0|0|8|0|0,2:0|2:0|2:0|2:0|2:3|2:0|2:0,0:0:0:0:
194,106,106817,2,0,B|175:241|175:241|219:213,1,180,4|0,0:0|2:0,0:0:0:0:
324,140,107263,5,4,0:0:0:0:
420,180,107411,1,0,2:0:0:0:
408,80,107560,1,0,2:0:0:0:
336,240,107708,2,0,L|176:260,1,153.000002918243,0|0,0:0|2:0,0:0:0:0:
64,176,108154,5,0,0:0:0:0:
80,276,108302,1,0,2:0:0:0:
164,160,108451,1,2,2:0:0:0:
52,76,108599,2,0,B|28:120|28:120|44:232,1,161.999995056153,0|2,0:0|2:0,0:0:0:0:
136,312,109045,5,2,0:2:0:0:
232,204,109193,1,2,0:2:0:0:
380,300,109342,1,0,0:0:0:0:
344,296,109416,1,0,0:0:0:0:
308,292,109490,1,0,2:0:0:0:
164,160,109639,5,4,0:0:0:0:
212,332,109787,1,0,2:0:0:0:
336,192,109936,2,2,B|408:160|488:192|488:192|448:212,1,180,10|0,0:0|0:0,0:0:0:0:
308,292,110381,1,2,0:0:0:0:
232,204,110530,1,8,0:0:0:0:
288,104,110678,6,2,P|336:84|468:80,1,180
184,108,111124,2,2,P|192:64|188:8,1,90,10|0,0:0|2:0,0:0:0:0:
80,144,111421,1,0,0:0:0:0:
232,204,111570,1,0,0:0:0:0:
100,300,111718,1,10,0:0:0:0:
140,216,111867,1,2,2:0:0:0:
288,288,112015,6,0,P|212:348|116:312,1,180,4|8,0:0|0:0,0:0:0:0:
188,160,112461,2,0,L|196:252,1,90,0|0,2:0|0:0,0:0:0:0:
96,212,112758,1,0,0:0:0:0:
288,192,112906,2,0,P|336:204|376:232,1,90,8|0,0:0|2:0,0:0:0:0:
508,80,113203,6,0,P|460:116|348:84,1,180,4|8,0:0|0:0,0:0:0:0:
132,72,113649,2,0,P|184:56|224:60,1,90,0|2,2:0|2:0,0:0:0:0:
288,192,113946,1,0,0:0:0:0:
188,160,114094,1,8,0:0:0:0:
351,87,114243,1,0,2:0:0:0:
328,280,114391,6,0,P|288:192|308:104,1,180,6|8,0:2|0:0,0:0:0:0:
512,324,114837,2,0,L|412:320,1,90,2|0,2:0|0:0,0:0:0:0:
288,192,115134,1,0,0:0:0:0:
168,352,115282,2,0,L|272:344,1,90,8|0,0:0|2:0,0:0:0:0:
280,324,115505,1,0,2:0:0:0:
304,304,115579,5,6,0:0:0:0:
64,320,115728,1,6,0:0:0:0:
376,236,116025,6,2,B|396:208|396:208|384:56,1,180,6|0,0:0|0:0,0:0:0:0:
184,156,116471,2,0,L|192:252,1,90,8|0,0:0|2:0,0:0:0:0:
240,360,116768,6,0,P|148:364|88:288,2,180,4|8|0,0:2|0:0|0:0,0:0:0:0:
396,260,117510,2,0,B|408:216|408:216|400:168,1,90,0|8,0:0|0:0,0:0:0:0:
296,52,117807,2,0,B|272:104|272:104|320:140|328:180|308:248,1,180
172,252,118253,2,0,P|188:220|252:176,1,90,8|0,0:0|2:0,0:0:0:0:
400,172,118550,1,0,0:0:0:0:
319,303,118698,1,0,0:0:0:0:
228,184,118847,2,0,P|204:136|196:72,1,90,8|0,0:0|0:2,0:0:0:0:
384,144,119144,6,0,P|384:192|308:312,2,180,0|8|0,0:0|0:0|0:0,0:0:0:0:
400,8,119886,1,0,0:0:0:0:
460,196,120035,1,8,0:0:0:0:
292,136,120183,6,0,B|228:128|228:128|184:92|184:92|96:80,1,180
15,126,120629,2,0,P|4:82|17:40,1,90,8|0,0:0|0:0,0:0:0:0:
129,175,120926,1,0,0:0:0:0:
113,283,121074,1,0,0:0:0:0:
42,213,121223,2,0,B|104:225|104:225|128:253|128:253|237:275,1,180,8|0,0:0|0:0,0:0:0:0:
206,269,121817,6,0,B|229:240|225:206|220:180|197:161|197:161|207:98,1,180,4|0,0:0|0:0,0:0:0:0:
13,296,122263,1,0,0:0:0:0:
131,224,122411,1,8,0:0:0:0:
225,347,122560,6,0,B|269:367|269:367|405:347,1,180,4|0,0:2|0:0,0:0:0:0:
512,200,123005,1,8,0:0:0:0:
396,240,123154,1,0,0:0:0:0:
288,152,123302,2,0,P|284:100|300:48,1,90
396,240,123599,2,0,P|400:292|384:344,1,90,8|0,0:0|0:0,0:0:0:0:
143,216,123896,2,0,P|127:129|168:50,1,180,4|8,0:2|0:0,0:0:0:0:
377,160,124342,2,0,L|246:147,1,90
177,373,124639,1,0,0:0:0:0:
220,260,124787,1,8,0:0:0:0:
132,298,124936,1,0,0:0:0:0:
262,348,125084,6,0,L|356:343,1,90,2|0,0:2|0:0,0:0:0:0:
488,276,125381,1,10,0:2:0:0:
352,344,125530,1,2,2:2:0:0:
368,184,125678,1,2,0:2:0:0:
436,348,125827,1,2,2:2:0:0:
316,256,125975,1,10,0:2:0:0:
452,184,126124,1,0,0:0:0:0:
316,256,126273,2,0,P|256:260|164:204,1,135,0|0,0:0|2:2,0:0:0:0:
160,192,126570,6,2,B|100:152|20:156|-4:212|8:256|32:264|72:264|100:224|80:200,1,270.000010299683,4|0,0:2|0:0,0:0:0:0:
253,162,127015,1,0,0:0:0:0:
139,95,127164,1,8,0:0:0:0:
139,287,127312,2,0,B|147:343|199:351|199:351|251:319|311:383,1,180
244,56,127758,2,0,L|260:184,1,90,8|0,0:0|2:0,0:0:0:0:
100,288,128055,2,0,L|84:180,1,90,0|0,0:0|1:0,0:0:0:0:
148,72,128352,2,0,B|172:160|168:192|168:192|184:168,1,135,0|0,0:0|2:0,0:0:0:0:
240,124,128649,5,0,0:0:0:0:
240,124,128946,6,2,B|284:140|312:112|312:112|352:108|380:140|396:180|320:208|308:168|256:168,1,270.000010299683,6|0,1:2|0:2,1:0:0:0:
148,72,129391,1,0,0:0:0:0:
264,24,129540,1,8,0:0:0:0:
376,88,129688,2,0,P|412:104|488:88,1,90
392,0,129985,5,0,0:0:0:0:
280,88,130134,2,0,P|256:152|256:196,1,90,8|0,0:0|0:0,0:0:0:0:
484,268,130431,2,0,P|484:216|472:176,1,90,0|0,0:0|2:0,0:0:0:0:
364,244,130728,1,8,0:0:0:0:
340,368,130876,1,0,0:0:0:0:
440,368,131025,6,0,P|388:292|260:312,1,216,4|0,0:0|2:0,0:0:0:0:
274,299,131619,2,0,P|272:368|272:392,1,72,8|0,0:0|2:0,0:0:0:0:
348,236,131916,1,0,0:0:0:0:
188,196,132065,6,0,B|168:236|168:236|180:360,1,144,8|0,0:0|2:0,0:0:0:0:
276,96,132510,2,0,P|232:84|204:72,1,72,0|0,0:0|2:0,0:0:0:0:
344,232,132807,2,0,P|296:248|264:268,1,72,8|0,0:0|2:0,0:0:0:0:
408,84,133104,2,0,P|388:40|380:8,1,72,0|0,2:0|2:0,0:0:0:0:
488,200,133401,6,0,P|416:164|328:156,1,144,4|0,0:2|2:0,0:0:0:0:
272,192,133847,2,0,P|196:196|116:180,1,144,0|0,0:0|2:0,0:0:0:0:
68,116,134292,2,0,P|56:80|44:40,1,72,0|0,0:0|2:0,0:0:0:0:
200,4,134589,6,0,P|184:88|160:176,1,161.999995056153,4|0,0:0|2:0,0:0:0:0:
300,304,135035,2,0,P|332:200|348:124,1,161.999995056153,0|0,0:0|2:0,0:0:0:0:
80,200,135480,2,0,P|96:252|112:292,1,80.9999975280763,0|0,0:0|2:0,0:0:0:0:
140,32,135777,6,0,P|76:32|0:124,1,180,4|0,0:0|2:0,0:0:0:0:
268,88,136223,2,0,P|332:88|408:180,1,180,4|0,0:0|2:0,0:0:0:0:
167,144,136669,1,0,0:0:0:0:
74,216,136817,2,0,P|58:280|58:320,1,90,4|0,0:0|2:0,0:0:0:0:
24,120,137114,5,2,0:2:0:0:
151,278,137263,1,2,0:2:0:0:
305,148,137411,1,2,0:2:0:0:
116,136,137560,1,2,0:2:0:0:
308,264,137708,1,2,0:2:0:0:
393,48,137857,1,2,0:2:0:0:
201,124,138005,1,2,0:2:0:0:
201,124,138302,5,2,0:0:0:0:
336,352,138450,1,2,0:0:0:0:
188,208,138599,2,0,B|164:156|164:156|184:8,1,180,2|0,0:0|0:0,0:0:0:0:
276,164,138971,1,0,1:2:0:0:
276,164,139045,2,2,B|288:168|288:168|304:168|324:156|324:156|344:168|336:192|336:192|368:172|408:172,1,168.75,2|0,1:0|2:0,0:0:0:0:
476,212,139342,5,4,0:0:0:0:
272,256,139490,1,0,0:0:0:0:
376,88,139639,1,8,0:0:0:0:
402,284,139787,2,2,P|402:344|394:388,1,99.0000030212403,2|0,0:0|0:2,0:0:0:0:
188,208,140084,2,2,P|184:144|196:104,1,99.0000030212403,2|8,0:0|0:0,0:0:0:0:
280,30,140381,1,2,2:0:0:0:
272,256,140530,6,2,P|192:304|92:240,1,198.000006042481,4|10,0:2|0:0,0:0:0:0:
352,336,140975,2,2,P|400:276|384:156,1,198.000006042481,2|0,0:0|0:0,0:0:0:0:
193,110,141421,1,8,0:0:0:0:
292,232,141570,1,2,0:2:0:0:
96,168,141718,6,2,P|84:92|160:0,1,198.000006042481,6|8,0:0|0:0,0:0:0:0:
196,220,142164,1,0,0:0:0:0:
4,188,142312,1,0,0:0:0:0:
193,110,142461,1,2,0:2:0:0:
100,280,142609,2,0,P|88:340|88:392,1,99.0000030212403,8|0,0:0|2:0,0:0:0:0:
304,200,142906,6,2,P|312:144|308:96,1,99.0000030212403,4|2,0:2|0:0,0:0:0:0:
216,264,143203,1,8,0:0:0:0:
408,236,143352,2,2,P|452:196|480:112,1,148.50000453186,6|0,0:2|2:0,0:0:0:0:
468,68,143649,1,0,0:0:0:0:
356,324,143797,1,8,0:0:0:0:
356,324,143872,1,0,0:0:0:0:
356,324,143946,1,0,0:0:0:0:
356,324,144020,1,0,0:0:0:0:
356,324,144094,6,2,P|296:296|208:284,1,148.50000453186,6|0,0:2|2:0,0:0:0:0:
104,312,144391,2,2,P|156:272|204:200,1,148.50000453186,10|0,0:0|2:0,0:0:0:0:
216,120,144688,1,2,0:2:0:0:
324,212,144837,1,0,0:0:0:0:
440,132,144985,1,8,0:0:0:0:
288,32,145134,6,2,B|216:12|216:12|88:44,1,198.000006042481,6|0,0:2|0:0,0:0:0:0:
316,120,145579,2,2,B|376:96|433:105|433:105|460:136,1,148.50000453186,10|0,0:0|2:0,0:0:0:0:
492,196,145876,1,2,0:2:0:0:
320,256,146025,1,0,0:0:0:0:
432,376,146173,2,2,L|424:276,1,99.0000030212403,10|0,0:0|2:0,0:0:0:0:
244,180,146471,6,0,P|244:328|272:352,2,198.000006042481,4|8|2,0:2|0:0|0:2,0:0:0:0:
320,256,147213,1,0,0:0:0:0:
140,208,147362,1,0,0:0:0:0:
272,80,147510,6,2,B|336:72|336:72|400:96|400:96|464:88,1,198.000006042481,6|0,0:0|0:0,0:0:0:0:
328,168,147956,1,8,0:0:0:0:
464,296,148104,2,2,B|480:252|480:252|476:192,1,99.0000030212403,2|0,0:0|0:0,0:0:0:0:
300,277,148401,5,2,0:0:0:0:
260,259,148475,1,0,0:0:0:0:
228,226,148550,1,0,0:0:0:0:
215,184,148624,1,0,0:0:0:0:
215,140,148698,1,0,0:0:0:0:
233,99,148773,1,0,0:0:0:0:
264,68,148847,6,2,P|192:72|148:68,1,99.0000030212403,6|0,0:0|0:0,0:0:0:0:
377,13,149144,1,8,0:0:0:0:
328,168,149292,2,0,P|328:228|368:360,1,198.000006042481,2|2,0:2|0:0,0:0:0:0:
472,152,149738,2,0,P|488:84|488:44,1,99.0000030212403,8|2,0:0|0:0,0:0:0:0:
240,220,150035,6,2,P|276:256|412:224,1,198.000006042481,4|8,0:2|0:0,0:0:0:0:
316,70,150480,2,2,P|326:118|328:168,1,99.0000030212403,2|0,0:2|2:0,0:0:0:0:
164,304,150777,1,2,0:2:0:0:
79,82,150926,1,10,0:2:0:0:
240,220,151074,1,2,2:0:0:0:
36,304,151223,6,2,B|24:156|24:156|60:196,1,198.000006042481,6|8,0:0|0:0,0:0:0:0:
164,304,151669,1,0,0:0:0:0:
328,167,151817,1,0,2:0:0:0:
164,148,151966,1,2,0:2:0:0:
356,276,152114,2,0,P|371:319|380:376,1,99.0000030212403,8|0,0:0|2:0,2:0:0:0:
212,364,152411,6,2,B|188:338|188:338|200:308|200:308|168:284|168:284|144:224|180:180,1,215.999993408203,6|0,0:0|2:0,0:0:0:0:
428,224,152857,2,2,B|435:190|435:190|406:162|406:162|425:123|425:123|410:58|345:40,1,233.999989288331,6|0,0:0|2:0,0:0:0:0:
64,144,153302,2,2,B|92:128|92:128|92:96|92:96|104:60|152:52,1,125.999996154785,6|0,0:0|2:0,0:0:0:0:
336,128,153599,5,4,0:2:0:0:
128,224,153748,1,4,0:2:0:0:
216,104,153896,2,0,L|224:216,1,99.0000030212403,0|0,2:0|0:0,0:0:0:0:
226,237,154119,1,0,1:3:0:0:
230,271,154193,1,8,0:3:0:0:
436,168,154342,2,0,L|428:69,1,99.0000030212403,4|0,0:2|2:0,0:0:0:0:
236,304,154639,6,2,P|344:320|412:264,1,198.000006042481,6|0,0:0|0:0,0:0:0:0:
308,216,155084,1,10,0:0:0:0:
136,288,155233,1,0,2:0:0:0:
140,324,155307,1,0,0:0:0:0:
144,360,155381,1,0,0:0:0:0:
204,176,155530,2,2,B|212:128|212:128|204:68,1,99.0000030212403,6|0,0:0|2:0,0:0:0:0:
0,288,155827,6,0,B|48:308|48:308|204:288,1,198.000006042481,4|0,0:2|0:0,0:0:0:0:
68,128,156273,2,0,P|52:64|48:16,1,99.0000030212403,2|0,2:0|2:0,0:0:0:0:
204,176,156570,2,0,P|180:228|168:272,1,99.0000030212403,2|0,2:0|2:0,0:0:0:0:
328,120,156867,1,0,2:0:0:0:
436,196,157015,6,0,P|456:248|464:304,1,99.0000030212403,4|0,0:2|2:0,0:0:0:0:
248,312,157312,1,0,2:0:0:0:
256,276,157386,1,0,0:0:0:0:
276,244,157461,1,8,0:0:0:0:
352,316,157609,1,0,0:0:0:0:
144,248,157758,5,0,0:0:0:0:
308,220,157906,1,8,2:3:0:0:
252,348,158055,1,8,0:0:0:0:
216,180,158203,1,8,2:3:0:0:
348,212,158352,5,4,0:0:0:0:
176,280,158500,2,0,P|128:284|76:276,1,90,0|0,2:0|0:0,0:0:0:0:
240,196,158797,1,0,2:0:0:0:
348,212,158946,2,0,P|372:156|360:40,1,180,10|0,0:2|2:0,0:0:0:0:
480,108,159391,1,0,2:0:0:0:
456,204,159540,6,0,P|460:256|468:296,1,90,2|0,2:0|0:0,0:0:0:0:
324,264,159837,2,0,P|272:248|228:244,1,90,8|0,0:0|2:0,0:0:0:0:
72,292,160134,1,2,2:0:0:0:
68,296,160431,1,2,2:0:0:0:
64,300,160728,5,0,0:0:0:0:
144,216,160876,2,0,P|156:168|156:124,2,90,0|0|0,2:0|0:0|2:0,0:0:0:0:
68,80,161322,2,0,P|108:44|228:60,1,180,8|0,0:0|0:0,0:0:0:0:
328,296,161768,1,4,0:2:0:0:
328,296,162065,5,2,0:0:0:0:
276,176,162213,1,10,0:0:0:0:
424,192,162362,1,0,0:0:0:0:
404,196,162436,1,0,0:0:0:0:
384,200,162510,1,10,0:0:0:0:
132,260,162659,2,2,L|228:272,1,90,8|0,0:3|2:0,0:0:0:0:
444,188,162956,6,2,P|384:196|296:112,1,180,6|0,0:0|0:0,0:0:0:0:
248,276,163401,2,2,P|264:328|264:368,1,90,8|2,0:0|2:0,0:0:0:0:
132,260,163698,1,0,0:0:0:0:
236,172,163847,1,2,0:0:0:0:
352,276,163995,1,8,0:0:0:0:
436,116,164144,1,4,0:2:0:0:
436,116,165480,5,4,0:3:0:0:
148,264,165777,2,0,L|124:260,1,13.4999995880127,0|0,0:0|2:0,0:0:0:0:
320,264,166074,2,0,L|296:260,1,13.4999995880127,2|0,0:2|2:0,0:0:0:0:
216,116,166372,1,0,0:0:0:0:
260,348,166669,5,0,0:0:0:0:
312,28,166966,2,0,L|316:4,1,13.4999995880127,0|0,0:0|2:0,0:0:0:0:
376,168,167263,2,0,L|372:144,1,13.4999995880127,2|0,0:2|2:0,0:0:0:0:
144,240,167560,1,0,0:0:0:0:
424,324,167857,5,4,0:3:0:0:
132,80,168154,2,0,L|124:100,1,13.4999995880127,0|0,0:0|2:0,0:0:0:0:
264,304,168451,2,0,L|268:328,1,13.4999995880127,0|0,0:0|2:0,0:0:0:0:
388,48,168748,1,0,0:0:0:0:
128,204,169045,5,0,0:0:0:0:
408,276,169342,2,0,L|392:284,1,13.4999995880127,0|0,0:0|2:0,0:0:0:0:
304,104,169639,2,0,L|312:124,1,13.4999995880127,0|0,0:0|2:0,0:0:0:0:
172,320,169936,2,0,L|192:248,1,71.9999978027344,0|0,0:0|2:0,0:0:0:0:
216,168,170233,5,4,0:3:0:0:
16,356,170530,2,0,L|20:380,1,13.4999995880127,0|0,0:0|2:0,0:0:0:0:
240,296,170827,2,0,L|260:292,1,13.4999995880127,2|0,0:2|2:0,0:0:0:0:
0,128,171124,1,0,0:0:0:0:
168,368,171421,5,0,0:0:0:0:
100,56,171718,2,0,L|108:32,1,13.4999995880127,0|0,0:0|2:0,0:0:0:0:
192,212,172015,2,0,L|248:204,2,35.9999989013672
288,264,172312,2,0,L|344:272,2,35.9999989013672
416,232,172609,6,0,P|428:168|344:64,1,170.999995433807,4|0,0:0|0:0,0:0:0:0:
508,276,173055,2,0,P|424:278|361:333,1,170.999995433807,8|0,0:0|0:0,0:0:0:0:
132,232,173500,6,0,B|228:272|216:204|328:244,1,170.999995433807
256,320,173946,2,0,L|272:132,1,170.999995433807,8|0,0:0|0:0,0:0:0:0:
156,48,174391,5,2,0:2:0:0:
168,148,174540,1,0,0:0:0:0:
268,176,174688,1,10,0:2:0:0:
288,76,174837,1,0,0:0:0:0:
216,260,174985,6,0,P|292:220|400:236,1,170.999995433807
112,248,175431,2,0,P|116:304|116:364,1,85.4999977169037,8|0,0:0|2:0,0:0:0:0:
16,192,175728,1,0,2:0:0:0:
200,168,175876,6,0,P|248:204|248:312,1,170.999995433807,0|0,0:0|2:0,0:0:0:0:
104,108,176322,2,0,P|108:72|120:16,2,85.4999977169037,8|0|0,0:0|2:0|2:0,0:0:0:0:
184,192,176768,5,2,0:2:0:0:
207,100,176916,1,0,2:0:0:0:
212,268,177065,1,10,0:2:0:0:
116,252,177213,1,0,2:0:0:0:
339,216,177362,6,0,B|283:228|283:228|239:164|147:204,1,170.999995433807,6|0,0:2|2:0,0:0:0:0:
120,312,177807,2,0,P|184:372|276:356,1,170.999995433807,2|0,0:2|2:0,0:0:0:0:
183,191,178253,6,0,P|163:119|195:3,1,170.999995433807,2|0,0:2|2:0,0:0:0:0:
88,212,178698,2,0,P|60:260|36:284,1,85.4999977169037,2|0,0:2|2:0,0:0:0:0:
132,104,178995,1,0,0:0:0:0:
160,264,179144,5,10,0:0:0:0:
32,140,179292,1,0,0:0:0:0:
216,72,179441,1,10,0:0:0:0:
88,148,179589,6,2,B|172:132|164:200|256:160,1,170.999995433807,4|0,0:2|0:0,0:0:0:0:
428,68,180035,2,2,P|384:56|340:84,1,85.4999977169037,8|0,0:0|0:0,0:0:0:0:
440,228,180332,1,2,0:0:0:0:
504,144,180480,2,0,L|512:48,1,85.4999977169037,0|8,0:0|0:0,0:0:0:0:
344,184,180777,6,2,B|336:244|336:244|356:272|356:272|348:352,1,170.999995433807,4|0,0:2|0:0,0:0:0:0:
200,216,181223,2,2,L|184:120,1,85.4999977169037,8|0,0:0|0:0,0:0:0:0:
236,40,181520,1,2,0:0:0:0:
92,120,181669,1,2,0:0:0:0:
0,16,181817,1,0,0:0:0:0:
156,56,181966,1,0,0:0:0:0:
156,56,182040,1,0,0:0:0:0:
156,56,182114,6,6,B|180:124|164:148|164:148|160:168|180:244,1,170.999995433807,4|10,0:0|0:0,0:0:0:0:
0,352,182560,2,2,P|56:292|160:292,1,170.999995433807,10|2,0:0|0:0,0:0:0:0:
480,284,183005,2,0,P|424:344|320:344,1,170.999995433807,14|0,0:0|0:0,0:0:0:0:
264,92,183451,2,2,B|220:184|300:168|240:280,1,170.999995433807,2|0,0:1|0:0,0:0:0:0:
340,140,183896,1,2,0:0:0:0:
164,212,184045,2,0,P|116:188|92:160,1,85.4999977169037,6|0,0:0|2:0,0:0:0:0:
0,64,184342,1,0,0:0:0:0:
4,48,184416,1,0,0:0:0:0:
8,32,184490,5,0,0:0:0:0:
100,0,184639,1,0,0:0:0:0:
176,52,184787,1,2,0:2:0:0:
275,12,184936,5,0,0:0:0:0:
184,88,185084,1,0,0:0:0:0:
212,204,185233,1,2,0:2:0:0:
325,213,185381,5,0,0:2:0:0:
193,128,185529,1,0,0:0:0:0:
96,252,185678,1,2,0:2:0:0:
168,344,185827,5,0,0:0:0:0:
120,148,185975,1,0,0:0:0:0:
1,260,186124,1,2,0:2:0:0:
159,350,186273,1,0,0:0:0:0:
82,81,186421,2,0,L|98:281,1,170.999995433807,6|0,0:0|0:0,0:0:0:0:
288,312,186867,5,4,0:0:0:0:
320,112,187015,1,0,0:0:0:0:
204,247,187164,1,0,0:0:0:0:
440,292,187312,1,0,0:0:0:0:
304,204,187461,6,0,P|320:112|400:208,1,251.999992309571,12|0,0:2|2:0,0:0:0:0:
415,177,188055,6,0,B|354:181|354:181|304:204|304:204|232:208,1,180,2|0,2:0|2:0,0:0:0:0:
350,299,188500,2,0,L|450:291,1,90,2|0,2:0|0:0,0:0:0:0:
212,212,188797,1,2,2:0:0:0:
104,320,188946,2,0,L|84:172,1,135,0|0,2:0|2:0,0:0:0:0:
100,144,189243,5,4,0:0:0:0:
280,52,189391,1,0,0:0:0:0:
364,236,189540,1,0,0:0:0:0:
188,96,189688,1,0,0:0:0:0:
412,139,189837,6,0,P|468:228|363:235,1,251.999992309571,12|0,0:2|2:0,0:0:0:0:
364,236,190431,6,0,L|360:336,1,90,2|0,2:0|2:0,0:0:0:0:
308,156,190728,1,0,2:0:0:0:
460,276,190876,2,0,L|476:372,1,90,2|0,2:0|0:0,0:0:0:0:
244,216,191173,2,0,B|284:188|284:188|416:180,1,180,2|0,2:0|2:0,0:0:0:0:
236,308,191619,6,0,P|176:284|152:196,1,144,4|0,0:2|2:0,0:0:0:0:
244,216,192065,1,0,2:0:0:0:
264,328,192213,6,0,P|140:280|136:164,1,251.999992309571,12|0,0:0|2:0,0:0:0:0:
228,88,192659,1,0,2:0:0:0:
380,132,192807,6,0,P|396:168|404:204,1,72,4|0,0:2|2:0,0:0:0:0:
370,358,193104,2,0,P|386:326|396:292,1,72,0|0,2:0|2:0,0:0:0:0:
306,74,193401,6,0,P|184:75|99:164,1,251.999992309571,12|0,0:0|2:0,0:0:0:0:
99,164,193847,1,0,2:0:0:0:
260,248,193995,5,4,0:2:0:0:
260,248,194292,1,0,2:0:0:0:
333,172,194441,1,0,2:0:0:0:
432,208,194589,1,0,2:0:0:0:
260,248,194738,2,0,L|136:256,1,108,0|0,2:0|2:0,0:0:0:0:
72,204,195035,6,0,B|101:200|101:200|128:212|128:212|224:216,1,135,0|0,2:0|2:0,0:0:0:0:
328,156,195332,6,2,B|294:148|294:148|268:168|268:168|240:164|240:164|208:176|164:176,1,161.999995056153,4|0,0:2|2:0,0:0:0:0:
24,104,195629,6,2,B|52:128|52:128|92:100|92:100|112:124|112:124|144:116|144:116|192:140|244:124,1,251.999992309571,4|0,0:2|0:0,0:0:0:0:
408,68,196074,2,0,L|416:128,1,53.9999983520508,8|0,0:0|2:0,0:0:0:0:
480,187,196223,2,0,L|468:259,1,53.9999983520508,0|0,0:0|2:0,0:0:0:0:
428,320,196372,5,4,0:0:0:0:
328,145,196520,1,0,0:0:0:0:
471,240,196669,1,0,0:0:0:0:
301,354,196817,1,0,0:0:0:0:
232,157,196966,6,0,B|212:93|267:44|267:44|332:77|328:145,1,251.999992309571,12|0,0:2|0:0,2:0:0:0:
292,260,197411,1,0,0:0:0:0:
124,208,197560,6,0,P|68:200|32:204,1,90,2|0,2:0|0:0,0:0:0:0:
232,168,197857,1,8,0:0:0:0:
320,236,198005,2,0,P|368:244|416:244,1,90,2|0,2:0|0:0,0:0:0:0:
256,64,198302,1,2,2:0:0:0:
232,168,198451,2,0,P|224:228|220:316,1,135,0|0,2:0|2:0,0:0:0:0:
220,344,198748,5,4,0:0:0:0:
248,124,198896,1,0,0:0:0:0:
109,206,199045,1,0,0:0:0:0:
322,285,199193,1,0,0:0:0:0:
80,286,199342,6,0,P|24:210|128:122,1,251.999992309571,12|0,0:2|0:0,0:0:0:0:
208,248,199787,1,0,0:0:0:0:
312,312,199936,6,0,P|328:252|328:216,1,90,2|0,2:0|0:0,0:0:0:0:
272,68,200233,1,8,0:0:0:0:
208,248,200381,2,0,P|196:205|191:161,1,90,2|0,2:0|0:0,0:0:0:0:
316,180,200678,1,0,0:0:0:0:
80,228,200827,1,4,2:0:0:0:
80,228,201124,5,6,0:0:0:0:
198,135,201273,1,2,0:0:0:0:
328,208,201421,2,2,B|408:228|468:208|468:208|488:156,1,180,0|8,0:0|0:0,0:0:0:0:
244,360,202015,1,2,0:2:0:0:
208,248,202164,1,0,0:0:0:0:
308,164,202312,6,2,B|344:84|336:8|336:8|308:44,1,198.000006042481,6|0,0:0|2:0,0:0:0:0:
254,251,202758,2,2,B|300:324|380:356|380:356|358:311,1,215.999993408203,6|0,0:0|2:0,0:0:0:0:
205,160,203203,2,2,B|168:156|168:156|128:164|80:196,1,116.999994644165,6|0,0:0|2:0,0:0:0:0:
44,308,203500,5,4,0:0:0:0:
168,256,203649,1,0,0:0:0:0:
284,348,203797,1,0,0:0:0:0:
412,244,203946,2,2,P|432:160|436:52,1,180,4|8,0:2|0:0,0:0:0:0:
116,136,204391,6,2,P|120:236|168:356,1,216,4|0,0:2|0:0,0:0:0:0:
340,252,204985,2,0,L|244:236,1,90,10|0,0:2|0:0,0:0:0:0:
340,252,205282,1,2,0:2:0:0:
200,152,205431,1,0,0:0:0:0:
80,296,205579,2,0,L|180:284,1,90,8|0,0:0|2:0,0:0:0:0:
424,320,205876,6,2,P|364:356|252:312,1,180,4|10,0:2|0:0,0:0:0:0:
98,201,206322,2,2,P|185:212|255:160,1,180,2|0,0:0|0:0,0:0:0:0:
340,252,206768,5,10,0:0:0:0:
272,124,206916,1,0,0:0:0:0:
192,244,207065,1,0,0:0:0:0:
364,112,207213,2,2,B|336:92|336:92|180:76,1,180
96,216,207659,5,8,0:0:0:0:
280,188,207807,1,2,0:0:0:0:
160,72,207956,1,0,0:0:0:0:
184,256,208104,1,0,0:0:0:0:
188,236,208178,1,0,0:0:0:0:
192,216,208253,5,6,0:2:0:0:
309,310,208401,1,0,0:0:0:0:
164,356,208550,1,0,0:0:0:0:
327,189,208698,5,10,0:2:0:0:
368,364,208847,1,0,0:0:0:0:
224,296,208995,5,4,0:2:0:0:
435,255,209144,1,0,2:0:0:0:
196,196,209292,1,2,0:2:0:0:
256,192,209367,12,0,210629,0:0:0:0:
88,190,215381,6,0,P|40:262|56:342,1,153.000002918243,0|2,1:0|0:0,0:0:0:0:
152,274,215827,1,0,0:0:0:0:
52,78,215975,2,0,B|36:18|36:18|56:98|4:182,1,198.000006042481,2|0,0:0|0:0,0:0:0:0:
152,274,216421,1,0,0:0:0:0:
296,134,216570,6,0,P|228:90|132:106,1,180,0|2,1:0|0:0,0:0:0:0:
256,222,217015,1,0,0:0:0:0:
368,78,217164,2,0,B|384:-10|384:-10|380:78|416:206,1,270.000010299683,2|0,0:0|0:0,0:0:0:0:
406,168,217758,5,0,1:0:0:0:
488,118,217906,2,0,B|500:74|500:74|480:2,1,90,2|0,1:0|0:0,0:0:0:0:
288,158,218203,2,0,B|276:206|276:206|292:270,1,90,2|0,1:0|0:0,0:0:0:0:
400,318,218500,1,2,1:0:0:0:
406,168,218649,1,0,0:0:0:0:
204,286,218797,6,0,P|248:330|368:298,1,180,6|0,0:1|0:0,0:0:0:0:
472,238,219243,2,0,P|424:222|376:234,1,90,8|0,0:0|0:0,0:0:0:0:
472,326,219540,1,0,0:0:0:0:
512,160,219688,1,2,0:0:0:0:
473,137,219763,1,0,0:0:0:0:
430,129,219837,1,0,0:0:0:0:
386,137,219911,1,0,0:0:0:0:
342,146,219985,1,0,0:0:0:0:
298,137,220060,1,0,0:0:0:0:
263,112,220134,6,0,P|241:47|250:-12,1,112.5,4|0,0:2|0:0,0:0:0:0:
206,230,220431,1,8,0:2:0:0:
380,184,220579,2,2,L|508:168,1,112.5,2|0,0:2|2:0,0:0:0:0:
202,66,220876,2,2,L|62:78,1,112.5,2|8,0:2|2:0,0:0:0:0:
232,276,221173,1,2,2:0:0:0:
392,200,221322,6,2,P|400:104|328:0,1,225,6|8,0:2|0:0,0:0:0:0:
232,276,221768,2,2,B|304:372|364:296|432:384,1,225,0|0,0:0|0:0,0:0:0:0:
335,224,222213,1,10,0:0:0:0:
163,362,222362,1,0,0:0:0:0:
84,293,222510,6,2,P|72:205|172:105,1,225,4|8,0:0|0:0,0:0:0:0:
403,44,222956,1,0,0:0:0:0:
336,173,223104,1,0,0:0:0:0:
246,8,223253,2,0,B|206:144|290:88|234:236,1,225,2|0,0:0|2:0,0:0:0:0:
358,340,223698,6,0,P|429:283|342:155,1,251.999992309571,4|0,0:0|0:0,0:0:0:0:
141,191,224144,2,0,P|70:134|151:4,1,270.000010299683,4|0,0:0|0:0,0:0:0:0:
394,65,224589,2,0,B|407:129|407:129|369:214,1,135.000005149842,6|0,0:0|2:0,0:0:0:0:
211,324,224886,5,4,0:2:0:0:
248,100,225035,1,4,0:2:0:0:
188,169,225183,2,0,B|229:195|229:195|307:183,1,99.0000030212403,0|0,2:0|0:0,0:0:0:0:
278,187,225406,1,0,0:0:0:0:
278,187,225480,1,8,0:3:0:0:
448,238,225629,1,0,0:0:0:0:
397,88,225777,1,0,2:0:0:0:
350,255,225926,6,2,P|386:319|514:311,1,198.000006042481,6|2,0:0|2:0,0:0:0:0:
293,19,226372,2,2,P|283:74|275:130,1,99.0000030212403,2|2,0:0|2:0,0:0:0:0:
350,255,226669,1,0,0:0:0:0:
448,238,226817,2,2,P|457:182|465:126,1,99.0000030212403,2|2,0:0|2:0,0:0:0:0:
408,352,227114,6,0,P|340:300|208:312,1,198.000006042481,4|0,0:0|0:0,0:0:0:0:
24,172,227560,2,0,P|96:192|144:172,1,99.0000030212403,4|0,0:2|0:0,0:0:0:0:
312,168,227857,1,2,0:2:0:0:
192,72,228005,1,0,0:0:0:0:
176,236,228154,1,2,0:2:0:0:
384,272,228302,6,0,P|456:188|440:76,1,198.000006042481,4|0,0:0|0:0,0:0:0:0:
448,80,228673,1,0,0:0:0:0:
440,56,228748,1,0,0:0:0:0:
312,0,228896,1,2,0:2:0:0:
300,124,229045,1,0,0:0:0:0:
404,120,229193,1,0,2:3:0:0:
232,48,229342,1,0,0:0:0:0:
296,228,229490,1,0,2:3:0:0:
440,124,229639,5,4,0:0:0:0:
300,124,229787,2,0,P|252:136|208:164,1,90,0|0,2:0|0:0,0:0:0:0:
404,232,230084,1,0,2:0:0:0:
312,332,230233,2,0,P|240:340|144:292,1,180,10|0,0:2|2:0,0:0:0:0:
188,108,230678,6,0,L|192:200,1,90,2|0,2:0|2:0,0:0:0:0:
104,336,230975,1,2,2:0:0:0:
40,252,231124,2,0,L|56:152,1,90,8|0,0:0|2:0,0:0:0:0:
216,320,231421,1,2,2:0:0:0:
220,324,231718,1,2,2:0:0:0:
224,328,232015,5,0,0:0:0:0:
408,300,232164,2,0,L|304:284,1,90,0|0,2:0|0:0,0:0:0:0:
280,187,232461,1,0,2:0:0:0:
460,172,232609,2,0,L|272:188,1,180,8|0,0:0|2:0,0:0:0:0:
116,88,233055,1,0,2:0:0:0:
204,32,233203,6,0,B|215:75|215:75|212:128,1,90,2|0,2:0|0:0,0:0:0:0:
52,244,233500,2,0,B|40:200|40:200|44:148,1,90,2|0,0:2|2:0,0:0:0:0:
208,36,233797,1,2,2:0:0:0:
212,40,234094,1,2,2:0:0:0:
216,44,234391,5,0,0:0:0:0:
316,96,234540,2,0,P|372:92|420:80,2,90,0|0|0,2:0|0:0|2:0,0:0:0:0:
232,172,234985,2,0,P|180:136|64:148,1,180,8|0,0:0|2:0,0:0:0:0:
120,328,235431,6,0,L|136:236,1,90,2|0,2:0|2:0,0:0:0:0:
356,148,235728,1,2,2:0:0:0:
356,148,235876,2,0,L|340:236,1,90,0|0,0:0|2:0,0:0:0:0:
260,348,236173,1,2,2:0:0:0:
216,44,236471,1,2,2:0:0:0:
260,348,236768,5,0,0:0:0:0:
164,292,236916,2,0,P|112:284|64:288,1,90,0|0,2:0|0:0,0:0:0:0:
264,232,237213,1,0,2:0:0:0:
364,300,237362,2,0,B|396:240|380:180|380:180|332:148,1,180,8|0,0:0|0:0,0:0:0:0:
52,184,237807,1,4,2:0:0:0:
52,184,238104,5,2,0:0:0:0:
212,100,238253,1,10,0:0:0:0:
164,200,238401,1,0,0:0:0:0:
168,224,238475,1,0,0:0:0:0:
172,248,238550,1,10,0:0:0:0:
308,140,238698,2,2,B|316:96|316:96|304:40,1,90,8|0,0:3|2:0,0:0:0:0:
464,184,238995,6,2,B|408:188|408:188|368:232|368:232|300:244,1,180,6|0,0:0|0:0,0:0:0:0:
66,161,239441,2,2,L|156:172,1,90,8|0,0:0|2:0,0:0:0:0:
284,248,239738,1,0,0:0:0:0:
232,120,239886,1,2,0:0:0:0:
208,300,240035,1,8,0:0:0:0:
308,72,240183,1,4,0:2:0:0:
308,72,241520,5,4,0:2:0:0:
157,132,241669,1,2,0:0:0:0:
340,192,241817,1,2,0:0:0:0:
125,252,241966,1,0,0:0:0:0:
372,312,242114,5,2,0:0:0:0:
157,132,242263,1,0,0:0:0:0:
236,355,242411,1,2,0:0:0:0:
276,56,242560,1,6,0:2:0:0:
