osu file format v14

[General]
AudioFilename: 01. .mp3
AudioLeadIn: 0
PreviewTime: 139193
Countdown: 0
SampleSet: Normal
StackLeniency: 0.5
Mode: 0
LetterboxInBreaks: 0
WidescreenStoryboard: 1

[Editor]
Bookmarks: 20523,39533,62107,90622,97751,116761,139335,165473,186860,210622,215380,229632
DistanceSpacing: 0.5
BeatDivisor: 4
GridSize: 4
TimelineZoom: 1.6

[Metadata]
Title:Setsuna no Kajitsu
TitleUnicode:刹那の果実
Artist:Kurosaki Maon
ArtistUnicode:黒崎真音
Creator:jonathanlfj
Version:Insane
Source:グリザイアの楽園 -LE EDEN DE LA GRISAIA-
Tags:Nyquill senpai CSLM captin1 bossandy Grisaia no Rakuen 8-Bit Tenshou frontwing opening visual novel
BeatmapID:1980739
BeatmapSetID:332112

[Difficulty]
HPDrainRate:6
CircleSize:4
OverallDifficulty:8
ApproachRate:9
SliderMultiplier:1.7
SliderTickRate:1

[Events]
//Background and Video events
0,0,"Rakuen.jpg",0,0
//Break Periods
2,90829,97158
2,210829,214781
//Storyboard Layer 0 (Background)
//Storyboard Layer 1 (Fail)
//Storyboard Layer 2 (Pass)
//Storyboard Layer 3 (Foreground)
//Storyboard Sound Samples

[TimingPoints]
803,368.098159509202,4,2,1,30,1,0
803,-142.857142857143,4,2,1,30,0,0
2275,357.142857142857,4,2,1,35,1,0
2275,-142.857142857143,4,2,1,35,0,0
3703,337.078651685393,4,2,1,40,1,0
3703,-142.857142857143,4,2,1,40,0,0
5051,314.13612565445,4,2,1,45,1,0
5051,-142.857142857143,4,2,1,45,0,0
5679,297.029702970297,4,2,1,45,1,0
5679,-142.857142857143,4,2,1,45,0,0
6273,297.029702970297,4,2,1,50,1,0
6273,-125,4,2,1,50,0,0
8797,-125,4,2,1,60,0,0
9985,-111.111111111111,4,1,1,70,0,0
10579,-90.9090909090909,4,1,1,70,0,0
10876,-100,4,1,1,70,0,0
20530,-117.647058823529,4,1,1,70,0,0
22906,-100,4,1,1,70,0,0
29738,-117.647058823529,4,1,1,70,0,0
32411,-100,4,1,1,70,0,0
49342,-71.4285714285714,4,1,1,70,0,0
49787,-100,4,1,1,70,0,0
51718,-71.4285714285714,4,1,1,70,0,0
52015,-100,4,1,1,70,0,0
53797,-125,4,1,1,60,0,0
56173,-125,4,1,1,50,0,0
57362,-117.647058823529,4,1,1,55,0,0
58550,-111.111111111111,4,1,1,60,0,0
59589,-105.263157894737,4,1,1,65,0,0
61074,-100,4,1,1,70,0,0
61817,-80,4,1,1,80,0,0
62114,-90.9090909090909,4,1,1,80,0,1
71173,-133.333333333333,4,1,1,80,0,1
71619,-90.9090909090909,4,1,1,80,0,1
75183,-83.3333333333333,4,1,1,80,0,1
75629,-76.9230769230769,4,1,1,80,0,1
76074,-71.4285714285714,4,1,1,80,0,1
76372,-100,4,1,1,80,0,1
80827,-125,4,1,1,80,0,1
81124,-125,4,1,1,70,0,0
85728,-100,4,1,1,70,0,0
86916,-117.647058823529,4,2,1,70,0,0
88253,-90.9090909090909,4,1,1,80,0,0
90629,-100,4,1,1,50,0,0
97758,-100,4,1,1,70,0,0
106520,-83.3333333333333,4,1,1,70,0,0
106817,-133.333333333333,4,1,1,70,0,0
107263,-117.647058823529,4,1,1,50,0,0
108154,-111.111111111111,4,1,1,55,0,0
109045,-105.263157894737,4,1,1,60,0,0
109639,-100,4,1,1,70,0,0
126570,-66.6666666666667,4,1,1,70,0,0
127312,-100,4,1,1,70,0,0
128946,-66.6666666666667,4,1,1,70,0,0
129243,-100,4,1,1,70,0,0
131025,-125,4,1,1,70,0,0
133401,-125,4,1,1,50,0,0
134589,-111.111111111111,4,1,1,65,0,0
135777,-100,4,1,1,80,0,0
136817,-100,4,1,1,85,0,0
139045,-80,4,1,1,85,0,0
139342,-90.9090909090909,4,1,1,80,0,1
148401,-133.333333333333,4,1,1,80,0,1
148847,-90.9090909090909,4,1,1,80,0,1
152411,-83.3333333333333,4,1,1,85,0,1
152857,-76.9230769230769,4,1,1,85,0,1
153302,-71.4285714285714,4,1,1,85,0,1
153599,-90.9090909090909,4,1,1,80,0,1
158055,-125,4,1,1,80,0,1
158352,-100,4,1,1,70,0,0
165480,-166.666666666667,4,1,1,25,0,0
172015,-166.666666666667,4,1,1,30,0,0
172312,-166.666666666667,4,1,1,45,0,0
172609,-105.263157894737,4,1,1,60,0,0
184490,-125,4,1,1,60,0,0
184936,-111.111111111111,4,1,1,60,0,0
185381,-100,4,1,1,60,0,0
185827,-90.9090909090909,4,1,1,60,0,0
186421,-166.666666666667,4,1,1,70,0,0
186867,-100,4,1,1,70,0,0
187461,-71.4285714285714,4,1,1,70,0,0
188055,-100,4,1,1,70,0,0
189837,-71.4285714285714,4,1,1,70,0,0
190431,-100,4,1,1,70,0,0
191619,-111.111111111111,4,1,1,70,0,0
192213,-71.4285714285714,4,1,1,70,0,0
192807,-111.111111111111,4,1,1,70,0,0
193401,-71.4285714285714,4,1,1,70,0,0
193995,-125,4,1,1,40,0,0
194738,-125,4,2,1,40,0,0
194961,-125,4,2,1,10,0,0
195035,-100,4,2,1,50,0,0
195258,-100,4,2,1,10,0,0
195332,-83.3333333333333,4,1,1,60,0,0
195629,-71.4285714285714,4,1,1,70,0,0
196074,-83.3333333333333,4,1,1,70,0,0
196372,-100,4,1,1,70,0,0
196966,-71.4285714285714,4,1,1,70,0,0
197560,-100,4,1,1,70,0,0
199342,-71.4285714285714,4,1,1,70,0,0
199936,-100,4,1,1,70,0,0
202312,-83.3333333333333,4,1,1,70,0,0
203500,-100,4,1,1,70,0,0
204391,-125,4,1,1,70,0,0
204985,-100,4,1,1,70,0,0
208253,-100,4,1,1,60,0,0
209292,-100,4,1,1,50,0,0
210629,-100,4,2,1,40,0,0
215381,-117.647058823529,4,2,1,50,0,0
215975,-90.9090909090909,4,2,1,60,0,0
216570,-100,4,2,1,60,0,0
217164,-80,4,2,1,70,0,0
217906,-100,4,2,1,70,0,0
218797,-100,4,1,1,70,0,0
219688,-125,4,1,1,70,0,0
220134,-83.3333333333333,4,1,1,85,0,1
223698,-76.9230769230769,4,1,1,85,0,1
224144,-71.4285714285714,4,1,1,85,0,1
224589,-66.6666666666667,4,1,1,85,0,1
224886,-90.9090909090909,4,1,1,85,0,1
229342,-125,4,1,1,85,0,1
229639,-100,4,1,1,70,0,0

[Colours]
Combo1 : 255,203,45
Combo2 : 84,224,254
Combo3 : 72,126,253
Combo4 : 102,255,74

[HitObjects]
91,237,803,6,0,L|160:228,1,59.4999981842042,2|0,0:0|0:0,0:0:0:0:
221,301,1171,2,0,L|293:309,1,59.4999981842042
369,246,1539,1,2,0:0:0:0:
296,169,1723,1,0,0:0:0:0:
280,307,1907,1,0,0:0:0:0:
369,246,2091,1,2,0:0:0:0:
296,169,2275,6,0,P|292:129|294:102,1,59.4999981842042,2|0,0:0|0:0,0:0:0:0:
176,174,2632,2,0,P|187:220|190:249,1,59.4999981842042
68,325,2989,1,2,0:0:0:0:
90,225,3167,1,0,0:0:0:0:
171,349,3346,1,0,0:0:0:0:
68,325,3524,1,2,0:0:0:0:
188,232,3703,6,0,L|264:222,1,59.4999981842042,2|0,0:0|0:0,0:0:0:0:
359,340,4040,2,0,L|339:274,1,59.4999981842042
298,130,4377,1,2,0:0:0:0:
389,184,4545,1,0,0:0:0:0:
246,224,4714,1,0,0:0:0:0:
298,130,4882,1,2,0:0:0:0:
172,75,5051,6,0,P|182:109|188:147,1,59.4999981842042,2|0,0:0|0:0,0:0:0:0:
69,273,5365,2,0,P|73:231|81:207,1,59.4999981842042
78,215,5600,1,0,0:0:0:0:
78,215,5679,2,0,L|145:221,1,59.4999981842042,2|0,0:0|0:0,0:0:0:0:
216,297,5976,2,0,L|293:304,1,59.4999981842042,2|0,0:0|0:0,0:0:0:0:
365,247,6273,5,2,0:0:0:0:
256,167,6421,2,0,L|275:305,1,136,2|0,0:0|0:0,0:0:0:0:
461,317,6867,2,0,L|442:177,1,136,2|0,0:0|0:0,0:0:0:0:
331,68,7312,2,0,P|276:75|174:41,1,136,2|0,0:0|0:0,0:0:0:0:
49,189,7758,2,0,P|104:182|206:216,1,136,2|0,0:0|0:0,0:0:0:0:
320,371,8352,5,0,0:0:0:0:
107,281,8649,1,0,0:0:0:0:
181,201,8797,6,0,B|197:163|197:163|177:57,1,136,2|0,0:0|0:0,0:0:0:0:
36,203,9243,2,0,B|54:133,1,68,2|0,0:0|0:0,0:0:0:0:
107,281,9540,1,2,0:0:0:0:
58,122,9688,1,0,0:0:0:0:
62,109,9985,5,2,2:0:0:0:
209,175,10134,1,8,0:0:0:0:
226,173,10208,1,0,0:0:0:0:
243,171,10282,1,0,0:0:0:0:
157,95,10431,1,10,0:0:0:0:
159,255,10579,2,0,B|303:290,1,140.25000428009,2|0,0:0|2:0,0:0:0:0:
326,295,10876,6,2,P|376:244|349:149,1,170,6|0,0:0|0:0,0:0:0:0:
233,65,11322,2,0,P|239:113|257:162,1,85,8|2,0:0|0:0,0:0:0:0:
324,14,11619,1,2,0:0:0:0:
324,14,11768,1,0,0:0:0:0:
140,33,11916,2,0,P|111:48|73:88,1,85,8|2,0:0|2:1,0:0:0:0:
283,168,12213,6,2,P|206:139|125:183,1,170,2|8,0:0|0:0,0:0:0:0:
111,270,12659,1,0,2:0:0:0:
283,168,12807,1,2,0:0:0:0:
188,31,12956,2,0,L|198:122,1,85,2|8,0:0|0:0,0:0:0:0:
341,255,13253,6,2,P|371:222|361:94,1,170,2|0,0:0|0:0,0:0:0:0:
199,151,13698,2,0,P|248:164|293:168,1,85,8|0,0:0|2:0,0:0:0:0:
341,255,13995,1,2,0:0:0:0:
202,280,14144,2,2,P|149:283|108:291,1,85,2|0,0:0|0:0,0:0:0:0:
103,125,14441,6,2,P|168:171|295:175,1,170,2|0,0:0|0:0,0:0:0:0:
388,106,14886,2,0,L|376:8,1,85,10|0,0:0|2:0,0:0:0:0:
377,21,15109,1,0,2:0:0:0:
377,21,15183,1,2,0:0:0:0:
360,210,15332,1,4,2:0:0:0:
360,210,15629,6,2,B|301:203|301:203|246:217|246:217|190:212,1,170,6|0,0:0|0:0,0:0:0:0:
225,29,16074,2,0,B|239:131,1,85,8|0,0:0|2:0,0:0:0:0:
192,212,16372,1,0,0:0:0:0:
127,125,16520,1,2,0:0:0:0:
236,113,16669,1,10,0:0:0:0:
85,221,16817,6,2,L|95:39,1,170,4|0,0:2|0:0,0:0:0:0:
192,212,17263,1,8,0:0:0:0:
145,313,17411,2,2,P|101:327|46:329,1,85,2|0,2:1|0:0,0:0:0:0:
192,212,17708,1,0,0:0:0:0:
295,256,17857,2,2,P|313:290|324:343,1,85,0|2,0:0|0:0,0:0:0:0:
428,215,18154,6,2,P|366:158|283:149,1,170,4|2,0:0|2:1,0:0:0:0:
52,280,18599,2,2,P|109:219|192:212,1,170,8|0,0:3|2:0,0:0:0:0:
345,334,19045,6,0,L|328:150,1,170,8|0,0:3|2:0,0:0:0:0:
152,127,19490,2,0,L|169:307,1,170,8|0,0:3|2:0,0:0:0:0:
329,164,19936,1,2,0:0:0:0:
143,34,20084,1,2,0:0:0:0:
143,34,20530,6,0,B|124:71|124:71|133:182,1,144.500002756119,6|0,0:2|2:0,0:0:0:0:
310,131,20975,2,0,B|320:97|320:97|312:58,1,72.2500013780594,2|0,0:2|2:0,0:0:0:0:
239,207,21273,1,0,2:0:0:0:
337,267,21421,2,0,P|404:256|494:256,1,144.500002756119,2|0,0:2|2:0,0:0:0:0:
466,125,21867,6,0,P|433:136|391:160,1,72.2500013780594,2|0,0:2|2:0,0:0:0:0:
304,284,22164,1,0,0:0:0:0:
217,167,22312,2,0,P|260:171|312:184,1,72.2500013780594,8|0,0:0|0:0,0:0:0:0:
421,267,22609,1,0,0:0:0:0:
421,267,22683,1,0,0:0:0:0:
421,267,22758,1,0,0:0:0:0:
292,368,22906,6,0,L|306:266,1,85,4|0,0:0|2:0,0:0:0:0:
149,131,23203,2,0,P|191:182|304:162,1,170,8|0,0:0|0:0,0:0:0:0:
382,59,23649,1,0,0:0:0:0:
237,102,23797,1,8,0:0:0:0:
370,222,23946,2,0,L|464:231,1,85,0|0,0:0|2:0,0:0:0:0:
260,306,24243,5,0,0:0:0:0:
184,224,24391,2,0,P|176:177|173:129,1,85,10|0,0:2|2:0,0:0:0:0:
370,222,24688,1,0,0:0:0:0:
274,79,24837,2,0,P|276:121|281:163,1,85,2|0,0:2|2:0,0:0:0:0:
207,324,25134,6,0,B|123:341|133:276|44:292,1,170,4|0,0:2|0:0,0:0:0:0:
173,139,25579,2,0,P|176:183|196:242,1,85,10|0,0:2|2:0,0:0:0:0:
393,188,25876,2,0,P|389:142|368:82,1,85,0|0,0:2|1:0,0:0:0:0:
281,163,26173,1,10,0:2:0:0:
308,297,26322,1,0,0:0:0:0:
479,236,26471,6,0,P|489:158|512:57,1,170,4|8,0:2|0:0,0:0:0:0:
371,197,26916,2,0,P|395:261|423:367,1,170,2|0,0:2|0:0,0:0:0:0:
230,364,27362,2,0,P|234:324|243:279,1,85,10|0,0:2|2:0,0:0:0:0:
341,108,27659,6,0,B|399:113|399:113|448:140|448:140|508:144,2,170,4|8|0,0:2|0:0|0:0,0:0:0:0:
250,143,28401,1,0,0:0:0:0:
371,197,28550,1,8,0:0:0:0:
261,268,28698,1,0,0:0:0:0:
390,319,28847,6,0,P|433:312|485:309,1,85,12|0,0:2|0:0,0:0:0:0:
282,275,29144,1,0,0:0:0:0:
191,338,29292,2,0,P|152:305|167:186,1,170,4|0,0:2|0:0,0:0:0:0:
288,48,29738,2,0,P|304:101|290:154,1,108.375002067089,0|0,0:0|2:0,0:0:0:0:
272,174,30035,6,0,P|340:179|446:202,1,144.500002756119
252,278,30480,2,0,P|198:281|105:301,1,144.500002756119,0|0,0:0|2:0,0:0:0:0:
168,190,30926,2,0,B|171:140|171:140|195:104|195:104|200:51,1,144.500002756119
68,142,31372,6,0,L|72:53,1,72.2500013780594,0|2,0:0|2:2,0:0:0:0:
168,190,31669,1,0,2:0:0:0:
217,19,31817,2,0,L|224:104,1,72.2500013780594,2|0,1:2|1:2,2:0:0:0:
278,211,32114,1,0,0:0:0:0:
282,196,32188,1,0,0:0:0:0:
286,181,32263,1,0,0:0:0:0:
346,290,32411,6,0,B|301:314|301:314|177:297,2,170,4|8|0,0:0|0:0|0:0,0:0:0:0:
408,167,33154,1,0,0:0:0:0:
442,320,33302,1,8,0:0:0:0:
302,193,33451,6,0,P|289:116|308:23,1,170
408,167,33896,2,0,L|394:254,1,85,8|0,0:0|0:0,0:0:0:0:
193,289,34193,2,0,L|211:186,1,85
295,331,34490,1,8,0:0:0:0:
295,331,34787,6,0,P|211:316|136:371,1,170,4|8,0:0|0:0,0:0:0:0:
295,331,35233,1,0,0:0:0:0:
335,230,35381,2,0,P|333:185|319:122,1,85
173,121,35678,2,0,P|174:166|182:208,1,85,8|0,0:0|0:0,0:0:0:0:
413,91,35975,6,0,P|343:45|243:76,1,170,4|8,0:0|0:0,0:0:0:0:
133,159,36421,2,0,B|224:124|218:188|308:151,1,170
262,60,36867,1,8,0:0:0:0:
397,162,37015,1,0,0:0:0:0:
270,263,37164,6,0,P|234:256|166:250,1,85,4|0,0:0|2:0,0:0:0:0:
25,133,37461,1,8,2:0:0:0:
133,159,37609,2,0,P|215:152|310:108,1,170
181,22,38055,2,0,P|145:37|94:70,1,85,8|0,0:0|0:0,0:0:0:0:
38,284,38352,5,8,0:0:0:0:
139,243,38500,2,0,P|139:198|126:139,1,85,8|0,0:0|0:0,0:0:0:0:
299,68,38797,2,0,P|341:145|307:248,1,170,12|0,0:0|0:0,0:0:0:0:
219,358,39243,2,0,P|223:317|239:266,1,85,8|0,0:0|2:0,0:0:0:0:
381,312,39540,6,0,P|299:325|234:274,1,170,4|8,0:0|0:0,0:0:0:0:
386,208,39985,1,0,2:0:0:0:
479,263,40134,2,0,L|497:364,1,85
381,312,40431,1,8,0:0:0:0:
358,191,40579,6,0,B|365:132|365:132|398:89|398:89|404:30,1,170,2|0,0:2|0:0,0:0:0:0:
227,62,41025,2,0,L|325:54,1,85,10|0,0:2|2:0,0:0:0:0:
450,174,41322,1,0,0:0:0:0:
275,231,41471,1,0,0:0:0:0:
365,136,41619,2,0,B|373:180|373:180|366:234,1,85,8|0,0:0|2:0,0:0:0:0:
179,270,41916,6,0,B|174:227|174:227|186:173,1,85,2|0,0:2|2:0,0:0:0:0:
263,334,42213,2,0,P|195:354|90:351,1,170,8|0,0:0|0:0,0:0:0:0:
4,197,42659,2,0,P|41:219|82:230,1,85,0|8,0:0|0:0,0:0:0:0:
244,106,42956,6,0,P|282:184|244:266,1,170,2|0,0:2|0:0,0:0:0:0:
136,129,43401,2,0,P|140:80|155:28,1,85,8|0,0:0|2:0,0:0:0:0:
345,13,43698,2,0,P|355:75|363:106,1,85
253,257,43995,1,10,0:2:0:0:
253,257,44292,6,0,B|261:157|261:157|236:177,1,127.5,2|0,0:2|2:0,0:0:0:0:
167,223,44589,2,0,P|165:267|183:322,1,85,12|0,0:2|2:0,0:0:0:0:
348,363,44886,1,0,0:0:0:0:
427,281,45035,2,0,P|427:231|415:177,1,85,0|8,0:0|0:0,0:0:0:0:
337,97,45332,6,0,P|399:146|494:115,1,170,4|0,0:2|0:0,0:0:0:0:
321,241,45777,2,0,P|291:233|229:231,1,85,8|0,0:0|2:0,0:0:0:0:
293,334,46074,1,0,0:0:0:0:
416,253,46223,1,0,0:0:0:0:
310,157,46372,2,0,P|311:200|325:255,1,85,8|0,0:0|2:0,0:0:0:0:
182,306,46669,6,0,B|137:288|137:288|114:230|143:166,1,170,4|8,0:2|0:0,0:0:0:0:
260,69,47114,2,0,P|224:67|168:57,1,85,0|0,2:0|0:0,0:0:0:0:
348,22,47411,1,0,0:0:0:0:
310,157,47560,1,8,0:0:0:0:
260,69,47708,1,0,0:0:0:0:
396,112,47857,6,0,L|493:105,1,85,2|0,0:2|0:0,0:0:0:0:
223,197,48154,2,0,L|131:184,1,85,10|0,0:2|0:0,0:0:0:0:
412,229,48451,2,0,L|512:219,1,85,2|0,0:2|0:0,0:0:0:0:
310,157,48748,1,10,0:2:0:0:
340,288,48896,1,2,2:0:0:0:
396,112,49045,1,2,0:2:0:0:
396,112,49342,6,2,B|380:133|380:133|355:124|355:124|336:144|336:144|285:137|265:99|269:54|316:31,1,237.999992736817,14|8,0:0|0:0,0:0:0:0:
436,19,49787,1,2,0:2:0:0:
506,123,49936,1,8,0:0:0:0:
432,222,50084,6,0,B|392:212|392:212|350:226|350:226|313:209|266:209,1,170,2|0,0:2|0:0,0:0:0:0:
163,168,50530,2,0,P|158:212|167:260,1,85,8|2,0:0|2:0,0:0:0:0:
349,126,50827,2,0,P|359:79|361:38,1,85,2|0,0:2|2:0,0:0:0:0:
267,209,51124,1,8,0:0:0:0:
267,209,51421,6,0,B|311:242|367:236|367:236|363:205,1,127.5,0|0,0:0|2:0,0:0:0:0:
349,126,51718,6,2,B|314:103|314:103|274:122|274:122|232:80|168:97|156:153,1,237.999992736817,14|0,0:0|0:0,0:0:0:0:
206,310,52164,1,0,0:0:0:0:
267,209,52312,1,8,0:0:0:0:
112,268,52461,6,0,L|286:248,1,170,2|0,0:2|0:0,0:0:0:0:
381,299,52906,2,0,B|393:256|393:256|387:204,1,85,8|0,0:0|2:0,0:0:0:0:
235,123,53203,1,0,0:0:0:0:
280,248,53352,1,2,2:0:0:0:
387,114,53500,2,0,P|433:103|479:102,1,85,8|0,0:0|0:0,0:0:0:0:
301,33,53797,6,0,P|228:36|156:14,2,136,4|8|0,0:0|0:0|0:0,0:0:0:0:
217,211,54688,1,8,0:0:0:0:
134,152,54837,6,0,P|61:136|-5:142,1,136,2|0,0:2|0:0,0:0:0:0:
146,280,55282,1,8,0:0:0:0:
146,280,55579,1,0,0:0:0:0:
249,212,55728,1,0,0:0:0:0:
134,152,55876,2,0,P|97:153|56:164,1,68,2|0,2:0|2:0,0:0:0:0:
241,81,56173,6,0,P|277:91|327:100,1,68,4|0,0:2|2:0,0:0:0:0:
445,68,56471,1,8,0:3:0:0:
445,68,56619,2,0,B|462:115|462:115|446:202,1,136,2|0,0:2|0:0,0:0:0:0:
352,251,57065,2,0,B|261:239,1,68,8|0,0:0|0:0,0:0:0:0:
128,175,57362,6,0,L|228:162,1,72.2500013780594,4|0,0:2|2:0,0:0:0:0:
101,76,57659,1,8,0:3:0:0:
101,76,57807,2,0,L|83:227,1,144.500002756119,2|0,0:2|0:0,0:0:0:0:
151,303,58253,2,0,P|179:262|190:228,1,72.2500013780594,8|0,0:0|0:0,0:0:0:0:
271,87,58550,6,0,P|278:126|298:171,1,76.4999976654053,4|0,0:2|2:0,0:0:0:0:
478,179,58847,1,8,0:3:0:0:
478,179,58995,2,0,P|446:106|356:115,1,152.999995330811,2|8,0:2|0:3,0:0:0:0:
296,287,59441,1,0,2:0:0:0:
215,201,59589,6,0,L|387:210,1,161.499995687485,4|0,0:2|0:0,0:0:0:0:
160,287,60035,2,0,P|137:251|110:217,1,80.7499978437424,8|0,0:0|2:0,0:0:0:0:
241,62,60332,2,0,P|264:98|291:132,1,80.7499978437424,0|0,0:0|2:0,0:0:0:0:
146,120,60629,1,8,0:3:0:0:
368,184,60777,1,4,0:2:0:0:
351,195,61074,5,2,0:0:0:0:
163,113,61223,1,2,0:0:0:0:
251,245,61372,2,0,B|267:73,1,170,2|0,0:0|0:0,0:0:0:0:
266,75,61743,1,0,0:0:0:0:
266,75,61817,6,2,B|323:69|323:69|365:96|365:96|416:91,1,159.375,2|0,0:0|2:0,0:0:0:0:
473,30,62114,6,0,P|517:99|475:195,1,187.000005706787,6|8,0:2|0:1,0:1:0:0:
278,103,62560,2,0,P|282:159|290:206,1,93.5000028533936,2|0,0:2|0:0,0:0:0:0:
451,296,62857,2,2,P|447:240|437:185,1,93.5000028533936,2|8,0:2|0:0,0:0:0:0:
345,311,63154,1,2,0:0:0:0:
362,140,63302,6,2,B|269:177|276:102|180:154,1,187.000005706787,6|10,0:2|0:0,0:0:0:0:
82,200,63748,2,0,P|142:255|245:241,1,187.000005706787,2|2,0:0|0:2,0:0:0:0:
270,53,64193,1,8,0:0:0:0:
181,152,64342,1,2,0:2:0:0:
327,195,64490,6,2,P|382:172|493:235,1,187.000005706787,6|8,0:2|0:0,0:0:0:0:
345,311,64936,1,0,0:0:0:0:
327,195,65084,1,0,0:2:0:0:
438,310,65233,1,2,0:2:0:0:
266,367,65381,2,0,P|263:320|255:258,1,93.5000028533936,8|2,0:2|0:2,0:0:0:0:
154,133,65678,6,2,P|144:173|138:229,1,93.5000028533936,4|0,0:2|0:0,0:0:0:0:
327,195,65975,1,10,0:0:0:0:
236,68,66124,2,2,P|247:134|242:260,1,187.000005706787,4|0,0:2|0:0,0:0:0:0:
39,151,66570,2,0,P|46:91|59:48,1,93.5000028533936,8|0,0:0|0:0,0:0:0:0:
70,32,66792,1,0,0:0:0:0:
70,32,66867,6,2,B|116:47|116:47|166:49,1,93.5000028533936,6|0,0:2|0:0,0:0:0:0:
312,39,67164,2,2,B|275:70|275:70|252:110,1,93.5000028533936,10|0,0:2|0:0,0:0:0:0:
192,244,67461,2,2,B|181:198|181:198|159:154,1,93.5000028533936,2|0,0:2|0:0,0:0:0:0:
117,305,67758,1,10,0:2:0:0:
267,328,67906,6,2,B|381:334|333:257|441:268,1,187.000005706787,6|0,0:2|0:0,0:0:0:0:
259,131,68352,2,2,P|270:172|282:243,1,93.5000028533936,10|0,0:2|0:0,0:0:0:0:
441,142,68649,2,2,P|447:89|461:45,1,93.5000028533936,2|0,0:2|0:0,0:0:0:0:
216,42,68946,2,2,P|270:80|355:95,1,140.25000428009,8|0,0:2|2:2,0:0:0:0:
371,89,69243,5,6,0:2:0:0:
267,195,69391,1,0,0:0:0:0:
135,128,69540,2,0,P|129:79|143:4,1,93.5000028533936,8|0,0:0|0:0,0:0:0:0:
266,221,69837,2,0,P|258:270|242:317,1,93.5000028533936,2|2,0:0|0:0,0:0:0:0:
162,372,70134,1,8,0:0:0:0:
351,281,70282,6,2,P|449:276|490:364,1,187.000005706787,4|0,0:0|0:0,0:0:0:0:
351,281,70728,1,10,0:2:0:0:
392,157,70876,2,0,P|427:138|483:128,1,93.5000028533936
308,79,71173,6,2,B|289:85|289:85|267:79|267:79|225:92|175:58,1,127.500004863739,2|0,0:2|0:0,0:0:0:0:
93,119,71619,6,0,P|88:68|77:19,1,93.5000028533936,4|0,0:0|0:0,0:0:0:0:
18,191,71916,1,10,0:2:0:0:
170,211,72065,2,2,B|234:206|234:206|282:175|282:175|353:169,1,187.000005706787,4|2,0:2|0:2,0:0:0:0:
212,23,72510,2,0,P|209:69|197:114,1,93.5000028533936,10|0,0:2|0:0,0:0:0:0:
330,276,72807,6,2,P|422:246|455:165,1,187.000005706787,4|8,0:2|0:0,0:0:0:0:
212,233,73253,2,2,P|212:284|221:335,1,93.5000028533936,6|0,0:2|0:0,0:0:0:0:
347,169,73550,1,2,0:2:0:0:
212,233,73698,1,10,0:2:0:0:
330,276,73847,1,2,0:2:0:0:
250,106,73995,6,0,P|188:103|46:77,1,187.000005706787,4|8,0:0|0:0,0:0:0:0:
5,224,74441,2,0,P|56:213|111:205,1,93.5000028533936
268,301,74738,2,0,P|222:284|165:273,1,93.5000028533936,0|8,0:0|0:0,0:0:0:0:
74,313,75035,1,0,0:0:0:0:
209,166,75183,6,0,B|218:79|173:32|173:32|165:65|169:95,1,203.999993774414,6|8,0:0|0:0,0:0:0:0:
303,225,75629,2,0,B|350:222|350:222|375:195|375:195|408:233|408:233|439:207|439:207|488:207,1,220.999989883423,6|0,0:0|0:0,0:0:0:0:
307,119,76074,2,0,B|310:86|330:65|330:65|306:47|295:18,1,118.999996368408,14|0,0:0|0:0,0:0:0:0:
223,81,76372,5,0,0:0:0:0:
400,131,76520,1,0,0:0:0:0:
278,221,76669,2,0,P|235:210|182:207,1,85,0|0,2:0|0:0,0:0:0:0:
194,206,76891,1,0,0:0:0:0:
194,206,76966,1,8,0:3:0:0:
370,270,77114,2,0,P|418:260|468:256,1,85,4|0,0:2|0:0,0:0:0:0:
280,317,77411,6,0,L|300:139,1,170,4|0,0:0|0:0,0:0:0:0:
385,91,77857,2,0,B|428:90|428:90|481:59,1,85
298,148,78154,1,0,0:0:0:0:
233,66,78302,2,0,B|189:61|189:61|148:82,1,85,4|0,0:0|0:0,0:0:0:0:
84,212,78599,6,0,B|168:179|159:247|249:211,1,170,4|0,0:0|2:0,0:0:0:0:
306,131,79045,1,0,2:0:0:0:
251,308,79342,1,0,2:0:0:0:
202,122,79639,1,0,2:0:0:0:
306,131,79787,6,0,P|382:118|443:52,1,170,4|0,0:0|0:0,0:0:0:0:
446,24,80159,1,0,0:0:0:0:
446,24,80233,2,0,P|458:85|472:122,1,85
406,209,80530,1,0,0:0:0:0:
406,209,80678,1,0,2:0:0:0:
297,269,80827,2,0,P|295:215|285:160,1,102,0|0,0:0|2:0,0:0:0:0:
279,145,81124,5,4,1:0:0:0:
190,228,81273,2,0,P|169:298|162:372,1,136,2|0,2:2|2:0,0:0:0:0:
73,255,81718,2,0,P|69:211|60:175,1,68,0|2,0:0|2:0,0:0:0:0:
133,111,82015,1,0,2:0:0:0:
190,228,82164,6,0,P|233:165|287:128,1,136
398,213,82609,2,0,P|355:217|320:226,1,68,0|0,0:0|2:0,2:0:0:0:
213,318,82906,1,2,2:2:0:0:
202,334,83203,1,2,2:2:0:0:
195,350,83500,5,4,2:0:0:0:
294,273,83649,2,0,L|278:136,1,136,2|0,2:0|2:0,0:0:0:0:
291,120,84020,1,0,2:0:0:0:
291,120,84094,2,0,P|327:123|364:120,1,68,0|0,0:0|2:0,0:0:0:0:
450,83,84391,1,0,0:0:0:0:
453,250,84540,6,0,P|405:224|318:213,1,136,4|0,0:0|2:0,0:0:0:0:
222,294,84985,1,0,0:0:0:0:
325,316,85134,1,0,2:0:0:0:
245,184,85282,1,0,0:0:0:0:
132,273,85431,2,0,P|132:304|143:346,1,68,0|0,0:0|2:0,0:0:0:0:
325,212,85728,6,0,B|358:175|358:175|363:117|321:64,1,170,4|0,0:2|0:0,0:0:0:0:
155,87,86173,1,0,0:0:0:0:
251,154,86322,1,0,0:0:0:0:
303,48,86471,1,0,0:0:0:0:
145,69,86619,2,0,P|121:107|113:161,1,85,0|0,0:0|2:0,0:0:0:0:
216,5,86916,5,2,1:2:0:0:
296,379,88253,1,4,0:0:0:0:
256,192,88327,12,0,90629,0:0:0:0:
123,284,97758,5,0,0:0:0:0:
183,166,97906,1,0,0:0:0:0:
93,193,98055,1,0,0:0:0:0:
213,257,98203,1,4,0:2:0:0:
213,257,98649,6,0,B|253:245|253:245|307:252,1,85
464,332,98946,2,0,B|424:344|424:344|370:337,1,85
381,338,99540,5,0,0:0:0:0:
301,147,99688,1,0,0:0:0:0:
298,168,100134,5,2,0:2:0:0:
424,96,100282,1,0,0:0:0:0:
348,40,100431,1,0,0:0:0:0:
389,181,100579,1,4,0:2:0:0:
389,181,101025,6,0,P|387:230|391:276,1,85
245,199,101322,1,2,0:2:0:0:
266,342,101471,1,0,0:0:0:0:
252,358,101916,5,2,0:2:0:0:
97,311,102065,2,0,P|65:313|-6:328,1,85,2|0,0:2|2:0,0:0:0:0:
152,229,102362,6,2,P|104:160|120:65,1,170,6|0,0:0|0:0,0:0:0:0:
314,117,102807,2,0,P|325:83|333:18,1,85,8|0,0:0|2:0,0:0:0:0:
227,167,103104,1,0,0:0:0:0:
382,197,103253,2,0,P|447:190|479:191,1,85,0|10,0:0|0:0,0:0:0:0:
322,279,103550,1,0,0:0:0:0:
254,360,103698,6,2,P|180:373|107:301,1,170,6|10,0:0|0:0,0:0:0:0:
223,112,104144,2,2,B|234:157|234:157|203:282,1,170,2|0,0:0|0:0,0:0:0:0:
97,84,104589,2,0,B|115:180,1,85,8|0,0:0|2:0,0:0:0:0:
7,315,104886,6,0,P|32:263|46:226,1,85,4|0,0:0|0:0,0:0:0:0:
209,158,105183,2,0,P|227:213|241:244,1,85,8|0,0:0|0:0,0:0:0:0:
408,257,105480,1,2,0:2:0:0:
329,197,105629,1,0,0:0:0:0:
317,296,105777,1,2,0:2:0:0:
397,355,105926,1,0,0:2:0:0:
397,355,106000,1,0,0:0:0:0:
397,355,106074,5,6,0:2:0:0:
329,197,106223,1,2,0:2:0:0:
329,197,106520,6,0,B|294:192|294:192|259:207|259:207|224:194|224:194|177:215,1,152.999995330811,2|0,2:0|2:0,2:0:0:0:
117,271,106817,6,0,B|144:296|144:296|197:303|197:303|243:282,1,127.500004863739,4|0,0:0|2:0,0:0:0:0:
257,112,107263,6,0,P|183:93|92:85,1,144.500002756119,4|0,0:0|2:0,2:0:0:0:
345,178,107708,2,0,P|383:174|437:165,2,72.2500013780594,0|0|0,0:0|2:0|2:0,0:0:0:0:
230,254,108154,6,0,P|187:246|142:241,1,76.4999976654053,0|0,0:0|2:0,2:0:0:0:
318,312,108451,1,2,2:0:0:0:
258,162,108599,2,0,P|242:100|237:9,1,152.999995330811,0|2,0:0|2:0,0:0:0:0:
355,128,109045,5,2,0:2:0:0:
151,159,109193,2,0,P|112:152|65:151,1,80.7499978437424,2|0,0:2|0:0,0:0:0:0:
43,157,109416,1,0,0:0:0:0:
43,157,109490,1,0,0:0:0:0:
202,250,109639,5,4,0:0:0:0:
202,250,109787,1,0,2:0:0:0:
321,167,109936,2,2,P|333:82|281:6,1,170,10|0,0:0|0:0,0:0:0:0:
219,146,110381,1,2,0:0:0:0:
313,266,110530,1,8,0:0:0:0:
416,144,110678,6,2,P|358:124|228:126,1,170
135,244,111124,2,2,L|119:336,1,85,10|0,0:0|2:0,0:0:0:0:
64,171,111421,1,0,0:0:0:0:
64,171,111570,1,0,0:0:0:0:
233,237,111718,2,0,L|218:128,1,85,10|2,0:0|2:0,0:0:0:0:
60,35,112015,6,0,P|123:78|210:48,1,170,4|8,0:0|0:0,0:0:0:0:
325,96,112461,2,0,L|337:188,1,85,0|0,2:0|0:0,0:0:0:0:
268,341,112758,1,0,0:0:0:0:
136,221,112906,2,0,L|148:132,1,85,8|0,0:0|2:0,0:0:0:0:
56,279,113203,6,0,L|230:250,1,170,4|8,0:0|0:0,0:0:0:0:
436,361,113649,2,0,P|357:362|261:338,1,170,0|0,2:0|0:0,0:0:0:0:
257,158,114094,1,8,0:0:0:0:
342,278,114243,1,0,2:0:0:0:
166,329,114391,6,0,P|92:308|-12:312,1,170,6|8,0:2|0:0,0:0:0:0:
187,145,114837,2,0,P|195:186|199:237,1,85,2|0,2:0|0:0,0:0:0:0:
228,41,115134,1,0,0:0:0:0:
304,165,115282,2,0,P|311:122|326:76,1,85,8|0,0:0|0:0,0:0:0:0:
323,82,115505,1,0,0:0:0:0:
323,82,115579,5,6,0:0:0:0:
353,290,115728,1,6,0:0:0:0:
353,290,116025,2,2,B|294:282|294:282|241:301|241:301|185:294,1,170,6|0,0:0|0:0,0:0:0:0:
218,120,116471,2,0,L|234:215,1,85,8|0,0:0|2:0,0:0:0:0:
341,372,116768,6,0,P|352:294|376:204,2,170,4|8|0,0:2|0:0|0:0,0:0:0:0:
467,252,117510,2,0,B|476:208|469:163,1,85,0|8,0:0|0:0,0:0:0:0:
278,81,117807,6,0,B|247:126|247:126|240:190|287:239,1,170
381,110,118253,2,0,L|370:16,1,85,8|0,0:0|2:0,0:0:0:0:
278,81,118550,1,0,0:0:0:0:
358,202,118698,1,0,0:0:0:0:
479,128,118847,2,0,P|494:80|505:20,1,85,8|0,0:0|2:0,0:0:0:0:
459,234,119144,6,0,P|478:289|493:324,1,85,2|0,0:2|0:0,0:0:0:0:
358,202,119441,2,0,B|282:174|266:228|188:197,1,170,8|0,0:0|0:0,0:0:0:0:
140,43,119886,1,0,0:0:0:0:
235,107,120035,1,8,0:0:0:0:
93,171,120183,6,0,P|27:119|59:39,1,170
191,198,120629,2,0,P|201:245|207:306,1,85,8|0,0:0|0:0,0:0:0:0:
255,116,120926,1,0,0:0:0:0:
255,116,121074,1,0,0:0:0:0:
93,171,121223,2,0,P|65:231|46:339,1,170,8|0,0:0|0:0,0:0:0:0:
46,332,121817,6,0,B|89:310|89:310|211:328,1,170,4|0,0:0|0:0,0:0:0:0:
327,341,122263,1,0,0:0:0:0:
254,236,122411,1,8,0:0:0:0:
327,341,122560,6,0,B|371:361|371:361|496:337,1,170,4|0,0:2|0:0,0:0:0:0:
464,164,123005,2,0,P|452:202|445:256,1,85,8|0,0:0|2:0,0:0:0:0:
254,157,123302,2,0,P|255:106|266:53,1,85
401,20,123599,2,0,P|399:74|390:117,1,85,8|0,0:0|2:0,0:0:0:0:
190,13,123896,6,0,P|166:90|174:193,1,170,4|0,0:2|0:0,0:0:0:0:
373,226,124342,2,0,P|334:154|253:156,1,170
202,302,124787,1,8,0:0:0:0:
298,223,124936,1,0,0:0:0:0:
170,178,125084,6,0,L|79:189,1,85,2|0,0:2|0:0,0:0:0:0:
309,336,125381,2,0,P|314:293|306:252,1,85,10|0,1:2|2:2,2:2:0:0:
99,285,125678,2,0,L|7:297,1,85,2|2,1:2|2:0,0:0:0:0:
202,302,125975,1,10,0:2:0:0:
170,178,126124,1,0,0:0:0:0:
42,196,126273,1,0,0:0:0:0:
42,196,126570,6,2,B|71:192|90:177|90:177|200:241|190:159|286:199,1,255.000009727478,4|0,0:2|0:0,0:0:0:0:
335,335,127015,1,0,0:0:0:0:
236,290,127164,1,8,0:0:0:0:
380,223,127312,6,0,P|397:173|358:62,1,170
196,46,127758,2,0,L|213:136,1,85,8|0,0:0|2:0,0:0:0:0:
65,305,128055,2,0,L|45:210,1,85,0|0,0:0|1:0,0:0:0:0:
116,98,128352,2,0,B|144:238,1,127.5,0|0,0:0|2:0,0:0:0:0:
149,259,128649,1,0,0:0:0:0:
149,259,128946,6,2,B|204:262|227:217|227:217|275:204|316:232|319:282|285:313,1,255.000009727478,6|0,1:2|0:2,1:0:0:0:
155,364,129391,2,0,P|94:343|54:336,1,85,0|8,0:0|0:0,0:0:0:0:
155,179,129688,6,0,P|143:145|32:56,1,170
0,262,130134,2,0,P|48:242|102:229,1,85,8|0,0:0|0:0,0:0:0:0:
259,201,130431,2,0,P|230:183|180:161,1,85,0|0,0:0|2:0,0:0:0:0:
231,298,130728,1,8,0:0:0:0:
356,230,130876,1,0,0:0:0:0:
259,201,131025,6,0,P|282:302|383:328,1,204,4|0,0:0|2:0,0:0:0:0:
456,260,131619,2,0,P|446:226|435:178,1,68,8|0,0:0|2:0,0:0:0:0:
441,100,131916,1,0,0:0:0:0:
356,230,132065,6,0,B|323:254|323:254|227:244,1,136,8|0,0:0|2:0,0:0:0:0:
156,108,132510,2,0,P|163:74|180:42,1,68,0|0,0:0|2:0,0:0:0:0:
240,157,132807,1,0,0:0:0:0:
80,194,132956,2,0,P|63:130|67:45,1,136,0|0,0:0|2:0,0:0:0:0:
181,233,133401,6,0,L|150:368,1,136,4|8,0:2|0:3,0:0:0:0:
290,242,133847,2,0,L|264:100,1,136,0|0,0:0|2:0,0:0:0:0:
81,239,134292,2,0,L|100:154,1,68,0|0,0:0|2:0,0:0:0:0:
237,320,134589,6,0,P|316:321|405:346,1,152.999995330811,4|8,0:0|0:3,0:0:0:0:
486,204,135035,2,0,P|413:205|327:230,1,152.999995330811,0|0,0:0|2:0,0:0:0:0:
181,148,135480,2,0,P|153:146|99:137,1,76.4999976654053,0|0,0:0|2:0,0:0:0:0:
309,8,135777,6,0,P|320:71|270:162,1,170,4|8,0:0|0:3,0:0:0:0:
146,314,136223,2,0,P|218:259|316:268,1,170,4|0,0:0|2:0,0:0:0:0:
376,194,136669,1,0,0:0:0:0:
174,113,136817,6,0,P|165:180|235:260,1,170,4|0,0:0|0:0,0:0:0:0:
470,272,137263,2,0,B|428:266|428:266|385:279,1,85
267,61,137560,2,0,B|310:64|310:64|359:51,1,85,2|0,0:2|0:0,0:0:0:0:
424,162,137857,1,2,0:2:0:0:
225,256,138005,1,2,0:2:0:0:
225,239,138302,5,2,0:0:0:0:
429,179,138450,1,2,0:0:0:0:
241,155,138599,2,0,B|275:328,1,170,2|0,0:0|0:0,0:0:0:0:
273,321,138971,1,0,1:2:0:0:
273,321,139045,6,2,P|336:303|347:204,1,159.375,2|0,1:0|2:0,0:0:0:0:
316,154,139342,6,0,P|364:166|412:166,1,93.5000028533936,4|0,0:0|0:0,0:0:0:0:
506,115,139639,1,8,0:0:0:0:
472,271,139787,2,2,P|424:277|374:295,1,93.5000028533936,2|0,0:0|0:2,0:0:0:0:
242,362,140084,2,2,P|256:315|264:271,1,93.5000028533936,2|8,0:0|0:0,0:0:0:0:
225,165,140381,1,2,2:0:0:0:
28,252,140530,6,2,P|87:326|173:285,1,187.000005706787,4|10,0:2|0:0,0:0:0:0:
316,190,140975,2,2,B|270:174|270:174|117:205,1,187.000005706787,2|0,0:0|0:0,0:0:0:0:
6,97,141421,1,8,0:0:0:0:
128,109,141570,1,2,0:2:0:0:
22,200,141718,6,2,P|26:124|61:5,1,187.000005706787,6|8,0:0|0:0,0:0:0:0:
204,79,142164,1,0,0:0:0:0:
140,239,142312,2,0,P|129:181|126:136,1,93.5000028533936,0|2,0:0|0:2,0:2:0:0:
309,42,142609,2,0,P|299:86|292:153,1,93.5000028533936,8|0,0:0|2:0,0:0:0:0:
326,286,142906,6,2,P|367:269|444:261,1,93.5000028533936,4|2,0:2|0:0,0:0:0:0:
237,247,143203,1,8,0:0:0:0:
399,362,143352,2,2,P|475:343|511:231,1,187.000005706787,6|0,0:2|0:0,0:0:0:0:
367,117,143797,2,0,P|370:163|383:215,1,93.5000028533936
397,235,144020,1,0,0:0:0:0:
397,235,144094,6,2,B|357:214|357:214|298:208,1,93.5000028533936,6|0,0:2|2:0,0:0:0:0:
160,324,144391,2,2,B|194:293|194:293|213:248,1,93.5000028533936,10|0,0:0|2:0,0:0:0:0:
198,80,144688,2,0,L|80:70,1,93.5000028533936,2|0,0:2|0:0,0:0:0:0:
307,103,144985,1,8,0:0:0:0:
149,169,145134,6,2,P|58:164|-3:86,1,187.000005706787,6|0,0:2|0:0,0:0:0:0:
3,287,145579,2,2,P|47:272|103:268,1,93.5000028533936,10|0,0:0|2:0,0:0:0:0:
226,344,145876,1,2,0:2:0:0:
93,267,146025,1,0,0:0:0:0:
204,156,146173,2,2,L|215:252,1,93.5000028533936,10|0,0:0|2:0,0:0:0:0:
324,360,146471,6,0,P|332:311|374:178,2,187.000005706787,4|8|2,0:2|0:0|0:2,0:0:0:0:
430,313,147213,1,0,0:0:0:0:
255,256,147362,1,0,0:0:0:0:
398,162,147510,6,2,B|207:146,1,187.000005706787,6|0,0:0|0:0,0:0:0:0:
66,200,147956,1,8,0:0:0:0:
156,337,148104,2,2,B|172:293|172:293|166:244,1,93.5000028533936,2|0,0:0|0:0,0:0:0:0:
107,103,148401,6,2,B|127:124|127:124|167:140|224:126,1,127.500004863739,2|0,0:0|0:0,0:0:0:0:
349,153,148847,6,0,P|337:110|331:47,1,93.5000028533936,4|0,0:0|0:0,0:0:0:0:
445,197,149144,1,8,0:0:0:0:
301,248,149292,2,0,P|235:229|98:223,1,187.000005706787,2|2,0:2|0:0,0:0:0:0:
186,364,149738,2,0,P|202:296|203:264,1,93.5000028533936,8|2,0:0|0:0,0:0:0:0:
59,140,150035,6,2,P|19:241|72:310,1,187.000005706787,4|8,0:2|0:0,0:0:0:0:
164,163,150480,2,2,P|155:116|151:65,1,93.5000028533936,2|0,0:2|2:0,0:0:0:0:
280,96,150777,1,2,0:2:0:0:
233,271,150926,1,10,0:2:0:0:
164,163,151074,1,2,2:0:0:0:
350,207,151223,6,2,P|406:204|441:86,1,187.000005706787,6|8,0:0|0:0,0:0:0:0:
261,4,151669,2,0,P|270:56|284:111,1,93.5000028533936,0|0,0:0|2:0,0:0:0:0:
128,184,151966,1,2,0:2:0:0:
254,282,152114,2,0,P|246:236|231:173,1,93.5000028533936,8|0,0:0|2:0,2:0:0:0:
86,57,152411,6,2,B|62:83|62:83|74:113|74:113|42:137|42:137|17:186|47:235,1,203.999993774414,6|0,0:0|2:0,0:0:0:0:
186,342,152857,2,2,B|211:318|211:318|204:278|204:278|242:258|242:258|266:210|237:154,1,220.999989883423,6|0,0:0|2:0,0:0:0:0:
390,8,153302,2,2,B|404:36|404:36|386:63|386:63|402:84|407:114,1,118.999996368408,6|0,0:0|2:0,0:0:0:0:
381,277,153599,5,4,0:2:0:0:
322,122,153748,1,4,0:2:0:0:
286,259,153896,2,0,L|184:241,1,93.5000028533936,0|0,2:0|0:0,0:0:0:0:
193,242,154119,1,0,1:3:0:0:
193,242,154193,1,8,0:3:0:0:
127,159,154342,2,0,L|239:139,1,93.5000028533936,4|0,0:2|2:0,0:0:0:0:
227,332,154639,6,2,B|121:351|156:284|42:301,1,187.000005706787,6|0,0:0|0:0,0:0:0:0:
193,242,155084,2,2,P|242:232|304:230,1,93.5000028533936,2|0,0:0|0:0,2:0:0:0:
285,229,155307,1,0,0:0:0:0:
285,229,155381,1,0,0:0:0:0:
379,381,155530,2,2,P|378:337|371:281,1,93.5000028533936,6|0,0:0|2:0,0:0:0:0:
227,332,155827,6,0,P|201:246|203:144,1,187.000005706787,4|0,0:2|0:0,0:0:0:0:
321,26,156273,2,0,L|308:122,1,93.5000028533936,2|0,2:0|2:0,0:0:0:0:
400,167,156570,2,0,L|421:266,1,93.5000028533936,2|0,2:0|2:0,0:0:0:0:
478,102,156867,1,0,2:0:0:0:
308,213,157015,6,0,P|227:214|153:143,1,187.000005706787,4|0,0:2|2:0,0:0:0:0:
151,115,157386,1,0,0:0:0:0:
151,115,157461,2,0,L|163:22,1,93.5000028533936,8|0,0:0|0:0,0:0:0:0:
262,115,157758,1,0,0:0:0:0:
157,218,157906,1,8,2:3:0:0:
36,126,158055,2,0,P|72:103|145:110,1,102,8|0,0:0|2:0,0:0:0:0:
151,115,158352,5,4,0:0:0:0:
50,220,158500,2,0,P|38:252|36:311,1,85,0|0,2:0|0:0,0:0:0:0:
157,218,158797,1,0,2:0:0:0:
254,263,158946,2,0,P|263:206|241:90,1,170,10|0,0:2|2:0,0:0:0:0:
154,36,159391,1,0,2:0:0:0:
347,91,159540,6,0,P|391:97|440:95,1,85,2|0,2:0|0:0,0:0:0:0:
299,183,159837,2,0,P|250:177|199:178,1,85,8|0,0:0|2:0,0:0:0:0:
375,260,160134,1,2,2:0:0:0:
396,264,160431,1,2,2:0:0:0:
416,267,160728,5,0,0:0:0:0:
315,334,160876,2,0,L|224:344,2,85,0|0|0,2:0|0:0|2:0,0:0:0:0:
174,239,161322,2,0,L|-7:227,1,170,8|0,0:0|0:0,0:0:0:0:
241,138,161768,1,4,0:2:0:0:
241,138,162065,5,2,0:0:0:0:
313,224,162213,2,2,B|322:267|322:267|314:323,1,85,10|0,0:0|0:0,0:0:0:0:
316,307,162436,1,0,0:0:0:0:
316,307,162510,1,10,0:0:0:0:
138,285,162659,2,2,L|228:269,1,85,8|0,0:3|2:0,0:0:0:0:
388,177,162956,6,2,P|305:188|240:137,1,170,6|0,0:0|0:0,0:0:0:0:
322,7,163401,2,2,P|331:48|333:91,1,85,8|2,0:0|2:0,0:0:0:0:
187,194,163698,1,0,0:0:0:0:
237,60,163847,1,2,0:0:0:0:
339,179,163995,1,8,0:0:0:0:
209,268,164144,5,4,0:2:0:0:
209,268,165480,5,4,0:3:0:0:
259,179,165777,1,0,0:0:0:0:
309,267,166074,1,2,0:2:0:0:
209,268,166372,1,0,0:0:0:0:
362,183,166669,5,0,0:0:0:0:
209,91,166966,1,0,0:0:0:0:
209,268,167263,1,2,0:2:0:0:
362,183,167560,1,0,0:0:0:0:
122,183,167857,5,4,0:3:0:0:
337,303,168154,1,0,0:0:0:0:
92,297,168451,1,2,0:2:0:0:
266,125,168748,1,0,0:0:0:0:
27,70,169045,5,0,0:0:0:0:
208,228,169342,2,0,L|194:306,1,76.4999976654053,0|0,0:0|2:0,0:0:0:0:
179,380,169639,1,2,0:2:0:0:
118,149,169936,1,0,0:0:0:0:
333,46,170233,5,4,0:3:0:0:
326,163,170530,1,0,0:0:0:0:
228,98,170827,1,2,0:2:0:0:
333,46,171124,1,0,0:0:0:0:
220,214,171421,5,0,0:0:0:0:
131,30,171718,1,0,0:0:0:0:
333,46,172015,2,0,L|344:94,2,33.9999989624024,2|0|0,1:2|2:0|2:0,2:0:0:0:
309,155,172312,2,0,L|319:206,2,33.9999989624024,2|0|2,1:2|2:0|2:0,2:0:0:0:
291,265,172609,6,0,P|375:287|444:222,1,161.499995687485,4|0,0:0|0:0,0:0:0:0:
483,60,173055,2,0,P|401:39|332:93,1,161.499995687485,8|0,0:0|0:0,0:0:0:0:
243,191,173500,6,0,B|279:113|210:116|254:36,1,161.499995687485
169,152,173946,2,0,L|345:176,1,161.499995687485,8|0,0:0|0:0,0:0:0:0:
197,254,174391,5,2,0:2:0:0:
169,152,174540,1,0,0:0:0:0:
139,51,174688,2,0,L|125:134,1,80.7499978437424,2|0,0:2|2:0,0:0:0:0:
160,335,174985,6,0,P|217:342|286:273,1,161.499995687485
120,165,175431,2,0,P|126:222|128:268,1,80.7499978437424,8|0,0:0|2:0,0:0:0:0:
69,349,175728,1,0,2:0:0:0:
225,198,175876,6,0,P|253:119|262:29,1,161.499995687485,0|0,0:0|2:0,0:0:0:0:
373,222,176322,2,0,P|388:270|396:316,2,80.7499978437424,8|0|0,0:0|2:0|1:0,0:0:0:0:
313,369,176768,5,2,0:2:0:0:
393,299,176916,1,0,0:0:0:0:
476,232,177065,2,0,L|495:142,1,80.7499978437424,2|0,1:2|2:0,2:0:0:0:
378,61,177362,6,0,B|339:57|304:81|304:81|262:82|227:55,1,161.499995687485,6|0,0:2|2:0,0:0:0:0:
241,235,177807,2,0,P|319:230|371:170,1,161.499995687485,2|0,0:2|2:0,0:0:0:0:
198,153,178253,6,0,L|186:319,1,161.499995687485,2|0,0:2|2:0,0:0:0:0:
109,120,178698,2,0,B|160:133|160:133|268:96,1,161.499995687485,2|0,0:2|0:0,0:0:0:0:
151,21,179144,5,10,0:0:0:0:
198,153,179292,1,0,0:0:0:0:
345,126,179441,1,10,0:0:0:0:
241,77,179589,6,2,B|230:247,1,161.499995687485,4|0,0:2|0:0,0:0:0:0:
391,289,180035,2,2,P|386:246|370:207,1,80.7499978437424,8|0,0:0|0:0,0:0:0:0:
293,341,180332,1,2,0:0:0:0:
478,348,180480,2,0,P|490:310|495:254,1,80.7499978437424,0|8,0:0|0:0,0:0:0:0:
384,132,180777,6,2,B|377:184|377:184|397:237|397:237|390:288,1,161.499995687485,4|0,0:2|0:0,0:0:0:0:
269,340,181223,2,2,L|280:256,1,80.7499978437424,8|0,0:0|0:0,0:0:0:0:
132,243,181520,1,2,0:0:0:0:
200,105,181669,2,0,L|212:193,1,80.7499978437424,2|0,0:0|0:0,0:0:0:0:
164,336,181966,1,0,0:0:0:0:
164,336,182040,1,0,0:0:0:0:
164,336,182114,6,6,P|113:295|23:318,1,161.499995687485,4|10,0:0|0:0,0:0:0:0:
36,157,182560,2,2,P|92:97|178:96,1,161.499995687485,10|2,0:0|0:0,0:0:0:0:
278,242,183005,6,0,B|250:210|250:210|264:84,1,161.499995687485,14|0,0:0|0:0,0:0:0:0:
396,170,183451,2,2,B|424:202|424:202|410:328,1,161.499995687485,10|0,0:0|0:0,0:0:0:0:
289,365,183896,1,2,0:0:0:0:
197,249,184045,2,0,L|300:239,1,80.7499978437424,6|0,0:0|2:0,0:0:0:0:
396,170,184342,1,0,0:0:0:0:
396,170,184416,1,0,0:0:0:0:
396,170,184490,6,0,L|404:96,1,68
384,263,184787,1,2,0:2:0:0:
298,161,184936,6,0,L|306:82,1,76.4999976654053
287,263,185233,1,2,0:2:0:0:
200,154,185381,6,0,L|209:68,1,85
189,263,185678,1,2,0:2:0:0:
99,148,185827,6,0,L|108:51,1,93.5000028533936
88,266,186124,1,2,0:2:0:0:
200,154,186273,1,0,0:0:0:0:
14,100,186421,6,2,P|5:154|23:215,1,101.999996887207,6|0,0:0|0:0,0:0:0:0:
99,148,186867,5,4,0:0:0:0:
58,14,187015,1,0,0:0:0:0:
14,100,187164,1,0,0:0:0:0:
146,61,187312,1,0,0:0:0:0:
182,196,187461,6,0,B|111:155|28:195|28:195|67:214|107:205,1,237.999992736817,12|0,0:2|2:0,0:0:0:0:
102,205,188055,6,0,B|96:150|96:150|116:97|116:97|109:38,1,170,2|0,2:0|2:0,0:0:0:0:
205,169,188500,2,0,B|244:154|244:154|313:151,1,85,2|0,2:0|0:0,0:0:0:0:
181,274,188797,2,0,P|132:246|11:229,1,170,2|0,2:0|2:0,0:0:0:0:
31,328,189243,5,4,0:0:0:0:
181,274,189391,1,0,0:0:0:0:
118,192,189540,1,0,0:0:0:0:
125,357,189688,1,0,0:0:0:0:
278,279,189837,6,0,B|300:112|300:112|263:176,1,237.999992736817,12|0,0:2|2:0,0:0:0:0:
265,172,190431,6,0,P|314:171|370:162,1,85,2|0,2:0|2:0,0:0:0:0:
420,253,190728,1,0,2:0:0:0:
300,351,190876,2,0,P|302:311|317:256,1,85,2|0,2:0|0:0,0:0:0:0:
459,161,191173,2,0,P|501:198|502:315,1,170,2|0,2:0|2:0,0:0:0:0:
312,267,191619,6,0,L|300:109,1,152.999995330811,4|0,0:2|2:0,0:0:0:0:
292,17,192065,1,0,2:0:0:0:
300,115,192213,6,0,B|302:159|344:175|344:175|270:212|270:212|312:225|312:267,1,237.999992736817,12|0,0:0|2:0,0:0:0:0:
315,367,192659,1,0,2:0:0:0:
160,336,192807,6,0,P|197:320|234:315,1,76.4999976654053,4|0,0:2|2:0,0:0:0:0:
466,267,193104,2,0,P|425:248|384:242,1,76.4999976654053,0|0,2:0|2:0,0:0:0:0:
188,194,193401,6,0,P|264:195|289:53,1,237.999992736817,12|0,0:0|2:0,0:0:0:0:
227,116,193847,1,0,2:0:0:0:
312,267,193995,5,4,0:2:0:0:
312,267,194292,1,0,2:0:0:0:
228,221,194441,1,0,2:0:0:0:
162,290,194589,1,0,2:0:0:0:
84,235,194738,2,0,L|94:127,1,102,0|0,2:0|2:0,0:0:0:0:
93,133,195035,6,0,P|121:187|84:235,1,127.5,0|0,2:0|2:0,0:0:0:0:
83,235,195332,6,2,P|41:189|93:133,1,152.999995330811,4|0,0:2|2:0,0:0:0:0:
164,191,195629,6,2,B|196:194|217:217|217:217|275:184|275:184|321:224|383:209,1,237.999992736817,4|0,0:2|0:0,0:0:0:0:
382,18,196074,2,0,P|357:56|352:126,1,101.999996887207,8|0,0:0|0:0,0:0:0:0:
479,218,196372,5,4,0:0:0:0:
448,94,196520,1,0,0:0:0:0:
378,210,196669,1,0,0:0:0:0:
409,334,196817,1,0,0:0:0:0:
275,205,196966,6,0,B|246:119|297:57|297:57|317:92|309:137,1,237.999992736817,12|0,0:2|0:0,2:0:0:0:
309,135,197411,1,0,0:0:0:0:
173,134,197560,6,0,P|176:95|193:46,1,85,2|0,2:0|0:0,0:0:0:0:
247,223,197857,1,8,0:0:0:0:
103,228,198005,2,0,P|62:224|7:205,1,85,2|0,2:0|0:0,0:0:0:0:
183,310,198302,2,0,P|246:273|356:269,1,170,2|0,2:0|2:0,0:0:0:0:
466,318,198748,5,4,0:0:0:0:
407,155,198896,1,0,0:0:0:0:
512,230,199045,1,0,0:0:0:0:
341,265,199193,1,0,0:0:0:0:
365,73,199342,6,0,B|411:54|465:75|486:119|486:119|492:71|446:35,1,237.999992736817,12|0,0:2|0:0,0:0:0:0:
447,36,199787,1,0,0:0:0:0:
407,155,199936,6,0,P|411:199|422:248,1,85,2|0,2:0|0:0,0:0:0:0:
248,296,200233,1,8,0:0:0:0:
357,361,200381,2,0,P|349:319|328:257,1,85,2|0,2:0|0:0,0:0:0:0:
224,205,200678,1,0,0:0:0:0:
166,327,200827,1,4,2:0:0:0:
166,327,201124,5,6,0:0:0:0:
237,168,201273,1,2,0:0:0:0:
118,252,201421,2,2,B|159:233|203:248|203:248|246:261|284:240,1,170,0|8,0:0|0:0,0:0:0:0:
283,240,202015,2,0,P|278:293|282:331,1,85,2|0,0:2|2:0,0:0:0:0:
355,171,202312,6,2,B|367:141|364:108|364:108|315:55|239:59,1,203.999993774414,6|0,0:0|2:0,0:0:0:0:
224,288,202758,2,2,B|244:313|274:327|274:327|345:311|379:243,1,203.999993774414,6|0,0:0|2:0,0:0:0:0:
188,116,203203,2,2,B|160:119|141:137|141:137|131:162|141:187,1,101.999996887207,6|0,0:0|2:0,0:0:0:0:
224,288,203500,5,4,0:0:0:0:
247,188,203649,1,0,0:0:0:0:
121,285,203797,1,0,0:0:0:0:
263,366,203946,2,2,P|332:363|381:263,1,170,4|8,0:2|0:0,0:0:0:0:
309,119,204391,6,2,P|255:177|294:287,1,204,4|0,0:2|0:0,0:0:0:0:
426,211,204985,2,0,P|385:201|344:207,1,85,10|0,0:2|0:0,0:0:0:0:
178,286,205282,2,0,P|195:334|199:377,1,85,2|0,0:2|0:0,0:0:0:0:
271,134,205579,2,0,P|271:86|290:35,1,85,8|0,0:0|2:0,0:0:0:0:
289,256,205876,6,2,P|238:219|123:191,1,170,4|10,0:2|0:0,0:0:0:0:
14,239,206322,2,2,P|98:219|168:146,1,170,2|0,0:0|0:0,0:0:0:0:
76,18,206768,2,0,P|64:72|64:111,1,85,2|0,0:0|0:0,0:0:0:0:
123,262,207065,1,0,0:0:0:0:
309,165,207213,2,2,P|232:131|142:183,1,170
345,254,207659,5,8,0:0:0:0:
377,93,207807,2,0,P|387:48|410:-4,1,85,2|0,0:0|0:0,0:0:0:0:
446,189,208104,1,0,0:0:0:0:
426,185,208178,1,0,0:0:0:0:
407,182,208253,5,6,0:2:0:0:
471,111,208401,1,0,0:0:0:0:
501,201,208550,1,0,0:0:0:0:
438,273,208698,2,0,P|393:276|339:297,1,85,10|0,0:2|0:0,0:0:0:0:
314,166,208995,5,4,0:2:0:0:
471,111,209144,1,0,2:0:0:0:
438,273,209292,1,2,0:2:0:0:
256,192,209367,12,0,210629,0:0:0:0:
372,88,215381,6,0,L|348:248,1,144.500002756119,0|2,1:0|0:0,0:0:0:0:
336,331,215827,1,0,0:0:0:0:
350,230,215975,6,0,B|319:207|324:171|362:158|362:158|399:145|404:109|372:87,1,187.000005706787,2|0,0:0|0:0,0:0:0:0:
256,36,216421,1,0,0:0:0:0:
140,87,216570,6,0,L|168:264,1,170,0|2,1:0|0:0,0:0:0:0:
184,358,217015,1,0,0:0:0:0:
167,255,217164,6,0,B|161:217|183:183|183:183|122:152|122:152|144:122|140:87,1,212.5,2|0,0:0|0:0,0:0:0:0:
140,87,217758,5,0,1:0:0:0:
239,30,217906,2,0,B|254:69|254:69|251:113,1,85,2|0,1:0|0:0,0:0:0:0:
35,201,218203,2,0,B|27:161|27:161|37:117,1,85,2|0,1:0|0:0,0:0:0:0:
167,255,218500,1,2,1:0:0:0:
7,305,218649,1,0,0:0:0:0:
131,164,218797,6,0,B|175:145|175:145|308:165,1,170,6|0,0:1|0:0,0:0:0:0:
445,245,219243,1,8,0:0:0:0:
322,335,219391,2,0,P|327:289|349:238,1,85,2|0,0:0|0:0,0:0:0:0:
481,137,219688,6,2,B|443:165|389:148|389:148|387:127|398:109,1,136,2|0,0:0|0:0,0:0:0:0:
490,36,220134,6,0,P|492:84|477:145,1,101.999996887207,4|0,0:2|0:0,0:0:0:0:
328,199,220431,1,8,0:2:0:0:
374,11,220579,2,2,P|392:61|397:119,1,101.999996887207,2|0,0:2|2:0,0:0:0:0:
226,225,220876,2,2,P|230:177|250:119,1,101.999996887207,2|8,0:2|2:0,0:0:0:0:
357,299,221173,1,2,2:0:0:0:
188,359,221322,6,2,P|137:312|12:335,1,203.999993774414,6|8,0:2|0:0,0:0:0:0:
226,225,221768,2,2,P|280:218|337:187,1,101.999996887207,0|0,0:0|2:0,0:0:0:0:
154,154,222065,1,2,0:2:0:0:
267,313,222213,1,10,0:0:0:0:
113,254,222362,1,2,0:2:0:0:
250,122,222510,6,2,B|354:64|349:142|446:92,1,203.999993774414,4|8,0:0|0:0,0:0:0:0:
385,8,222956,1,0,0:0:0:0:
322,197,223104,1,0,0:0:0:0:
202,26,223253,2,0,P|147:101|187:213,1,203.999993774414,2|0,0:0|2:0,0:0:0:0:
387,257,223698,6,0,B|435:241|435:241|475:181|437:118|369:118,1,220.999989883423,14|0,0:0|2:0,0:0:0:0:
207,291,224144,2,0,B|246:309|268:345|268:345|305:271|269:195,1,237.999992736817,6|0,0:0|2:0,0:0:0:0:
114,53,224589,2,0,B|107:83|79:105|79:105|96:134|99:169,1,127.500004863739,6|0,0:0|2:0,0:0:0:0:
186,125,224886,5,4,0:2:0:0:
2,168,225035,1,4,0:2:0:0:
132,277,225183,2,0,P|184:263|241:262,1,93.5000028533936,0|0,2:0|0:0,0:0:0:0:
223,260,225406,1,0,0:0:0:0:
223,260,225480,1,8,0:3:0:0:
365,266,225629,2,0,P|327:232|297:178,1,93.5000028533936,2|0,0:2|0:0,0:0:0:0:
280,19,225926,6,2,B|298:46|299:84|299:84|270:137|207:155,1,187.000005706787,6|2,0:0|2:0,0:0:0:0:
68,98,226372,2,2,P|71:46|80:3,1,93.5000028533936,2|2,0:0|2:0,0:0:0:0:
101,212,226669,1,0,0:0:0:0:
208,154,226817,2,2,P|219:97|223:46,1,93.5000028533936,2|2,0:0|2:0,0:0:0:0:
320,185,227114,6,0,P|304:249|312:377,1,187.000005706787,4|0,0:0|0:0,0:0:0:0:
479,233,227560,2,0,P|479:272|469:345,1,93.5000028533936,4|0,0:2|0:0,0:0:0:0:
418,133,227857,2,0,P|424:75|433:35,1,93.5000028533936,2|0,0:2|0:0,0:0:0:0:
479,233,228154,1,2,0:2:0:0:
308,270,228302,6,0,P|230:256|205:151,1,187.000005706787,4|0,0:0|0:0,0:0:0:0:
216,133,228673,1,0,0:0:0:0:
216,133,228748,2,0,L|319:122,1,93.5000028533936
390,211,229045,1,2,0:2:0:0:
390,211,229193,1,0,2:3:0:0:
241,261,229342,2,0,P|209:250|139:246,1,102,0|0,0:0|2:0,0:0:0:0:
112,252,229639,5,4,0:0:0:0:
200,162,229787,2,0,P|204:119|202:72,1,85,0|0,2:0|0:0,0:0:0:0:
103,50,230084,1,0,2:0:0:0:
107,153,230233,2,0,P|148:144|281:137,1,170,10|0,0:2|2:0,0:0:0:0:
348,228,230678,6,0,P|335:268|329:318,1,85,2|0,2:0|2:0,0:0:0:0:
436,192,230975,1,2,2:0:0:0:
506,350,231124,2,0,P|503:301|494:249,1,85,8|0,0:0|2:0,0:0:0:0:
410,355,231421,1,2,2:0:0:0:
394,351,231718,1,2,2:0:0:0:
377,348,232015,5,0,0:0:0:0:
274,328,232164,2,0,P|287:286|293:236,1,85,0|0,2:0|0:0,0:0:0:0:
269,143,232461,1,0,2:0:0:0:
158,214,232609,2,0,P|130:288|204:367,1,170,8|0,0:0|2:0,0:0:0:0:
288,218,233055,1,0,2:0:0:0:
192,122,233203,6,0,P|149:121|84:135,1,85,2|0,2:0|0:0,0:0:0:0:
302,94,233500,2,0,P|347:103|399:108,1,85,2|0,0:2|2:0,0:0:0:0:
213,26,233797,1,2,2:0:0:0:
197,23,234094,1,2,2:0:0:0:
181,20,234391,5,0,0:0:0:0:
101,110,234540,2,0,P|101:153|114:213,2,85,0|0|0,2:0|0:0|2:0,0:0:0:0:
200,225,234985,2,0,P|177:263|53:269,1,170,8|0,0:0|2:0,0:0:0:0:
210,352,235431,6,0,P|255:341|309:332,1,85,2|0,2:0|2:0,0:0:0:0:
330,197,235728,1,2,2:0:0:0:
465,303,235876,2,0,P|418:294|380:281,1,85,0|0,0:0|2:0,0:0:0:0:
248,146,236173,1,2,2:0:0:0:
250,129,236471,1,2,2:0:0:0:
253,113,236768,5,0,0:0:0:0:
177,232,236916,2,0,B|172:275|172:275|186:319,1,85,0|0,2:0|0:0,0:0:0:0:
360,213,237213,1,0,2:0:0:0:
256,98,237362,2,0,B|276:279,1,170,8|0,0:0|0:0,0:0:0:0:
260,83,237807,1,4,2:0:0:0:
260,83,238104,5,2,0:0:0:0:
166,143,238253,2,0,L|53:133,1,85,10|0,0:0|0:0,0:0:0:0:
57,134,238475,1,0,0:0:0:0:
57,134,238550,1,10,0:0:0:0:
190,242,238698,2,2,P|228:231|278:224,1,85,8|0,0:3|2:0,0:0:0:0:
388,335,238995,6,2,B|339:246|415:262|367:170,1,170,6|0,0:0|0:0,0:0:0:0:
176,103,239441,2,2,P|222:112|265:112,1,85,8|0,0:0|2:0,0:0:0:0:
368,172,239738,1,0,0:0:0:0:
234,218,239886,1,2,0:0:0:0:
277,109,240035,1,8,0:0:0:0:
325,268,240183,1,4,0:2:0:0:
325,268,241520,5,4,0:2:0:0:
182,174,241669,1,2,0:0:0:0:
349,103,241817,2,0,P|306:112|261:115,1,85,2|0,0:0|0:0,0:0:0:0:
163,281,242114,2,0,P|206:272|251:269,1,85,2|0,0:0|0:0,0:0:0:0:
377,212,242411,5,2,0:0:0:0:
135,172,242560,1,6,0:2:0:0:
