osu file format v14

[General]
AudioFilename: 01. .mp3
AudioLeadIn: 0
PreviewTime: 139193
Countdown: 0
SampleSet: None
StackLeniency: 0.7
Mode: 0
LetterboxInBreaks: 0
WidescreenStoryboard: 1

[Editor]
Bookmarks: 20523,39533,62107,90622,97751,116761,139335,165473,186860,210622,215380,229632
DistanceSpacing: 1.4
BeatDivisor: 4
GridSize: 4
TimelineZoom: 1.6

[Metadata]
Title:Setsuna no Kajitsu
TitleUnicode:刹那の果実
Artist:Kurosaki Maon
ArtistUnicode:黒崎真音
Creator:jonathanlfj
Version:Chris' Hard
Source:グリザイアの楽園 -LE EDEN DE LA GRISAIA-
Tags:Nyquill senpai CSLM captin1 bossandy Grisaia no Rakuen 8-Bit Tenshou frontwing opening visual novel
BeatmapID:1900366
BeatmapSetID:332112

[Difficulty]
HPDrainRate:5
CircleSize:3.7
OverallDifficulty:6
ApproachRate:8
SliderMultiplier:1.4
SliderTickRate:1

[Events]
//Background and Video events
0,0,"Rakuen.jpg",0,0
//Break Periods
2,90829,96933
2,165680,171190
//Storyboard Layer 0 (Background)
//Storyboard Layer 1 (Fail)
//Storyboard Layer 2 (Pass)
//Storyboard Layer 3 (Foreground)
//Storyboard Sound Samples

[TimingPoints]
803,368.098159509202,4,2,1,30,1,0
803,-142.857142857143,4,2,1,30,0,0
2275,357.142857142857,4,2,1,35,1,0
2275,-142.857142857143,4,2,1,35,0,0
3703,337.078651685393,4,2,1,40,1,0
3703,-142.857142857143,4,2,1,40,0,0
5051,314.13612565445,4,2,1,45,1,0
5051,-142.857142857143,4,2,1,45,0,0
5679,297.029702970297,4,2,1,45,1,0
5679,-142.857142857143,4,2,1,45,0,0
6273,297.029702970297,4,2,1,50,1,0
6273,-125,4,2,1,50,0,0
8797,-125,4,2,1,60,0,0
9985,-111.111111111111,4,1,1,70,0,0
10876,-100,4,1,1,70,0,0
20530,-117.647058823529,4,1,1,70,0,0
22906,-100,4,1,1,70,0,0
30035,-117.647058823529,4,1,1,70,0,0
32411,-100,4,1,1,70,0,0
53797,-125,4,1,1,60,0,0
56173,-125,4,1,1,50,0,0
57362,-117.647058823529,4,1,1,55,0,0
58550,-111.111111111111,4,1,1,60,0,0
59589,-105.263157894737,4,1,1,65,0,0
61074,-100,4,1,1,70,0,0
61817,-80,4,1,1,80,0,0
62040,-80,4,1,1,80,0,0
62114,-100,4,1,1,80,0,1
71173,-80,4,1,1,80,0,0
71545,-80,4,1,1,5,0,0
71619,-100,4,1,1,80,0,1
76520,-100,4,1,1,80,0,0
78599,-100,4,1,1,80,0,1
81124,-125,4,1,1,70,0,0
85728,-100,4,1,1,70,0,0
86916,-117.647058823529,4,2,1,70,0,0
88253,-90.9090909090909,4,1,1,80,0,0
90629,-100,4,1,1,50,0,0
97758,-100,4,1,1,70,0,0
107263,-117.647058823529,4,1,1,50,0,0
108154,-111.111111111111,4,1,1,55,0,0
109045,-105.263157894737,4,1,1,60,0,0
109639,-100,4,1,1,70,0,0
131025,-125,4,1,1,70,0,0
133401,-125,4,1,1,50,0,0
134589,-111.111111111111,4,1,1,65,0,0
135777,-100,4,1,1,80,0,0
136817,-100,4,1,1,85,0,0
139045,-80,4,1,1,85,0,0
139268,-80,4,1,1,85,0,0
139342,-100,4,1,1,80,0,1
148401,-80,4,1,1,80,0,0
148773,-80,4,1,1,5,0,0
148847,-100,4,1,1,80,0,1
152411,-100,4,1,1,85,0,1
153599,-100,4,1,1,80,0,0
155827,-100,4,1,1,80,0,1
158352,-125,4,1,1,70,0,0
162956,-100,4,1,1,70,0,0
164144,-117.647058823529,4,1,1,70,0,0
165480,-166.666666666667,4,1,1,25,0,0
172015,-166.666666666667,4,1,1,30,0,0
172312,-125,4,1,1,45,0,0
172609,-105.263157894737,4,1,1,60,0,0
186421,-105.263157894737,4,1,1,70,0,0
186792,-105.263157894737,4,1,1,5,0,0
186867,-100,4,1,1,70,0,0
191619,-125,4,1,1,70,0,0
192213,-71.4285714285714,4,1,1,70,0,0
192807,-125,4,1,1,70,0,0
193401,-71.4285714285714,4,1,1,70,0,0
193995,-125,4,1,1,40,0,0
195035,-100,4,2,1,50,0,0
195332,-83.3333333333333,4,1,1,60,0,0
195555,-83.3333333333333,4,1,1,5,0,0
195629,-71.4285714285714,4,1,1,70,0,0
196074,-83.3333333333333,4,1,1,80,0,0
196372,-100,4,1,1,70,0,0
202312,-76.9230769230769,4,1,1,70,0,0
203500,-100,4,1,1,70,0,0
208253,-100,4,1,1,60,0,0
209292,-125,4,1,1,50,0,0
210629,-200,4,2,1,40,0,0
215381,-117.647058823529,4,2,1,50,0,0
215975,-90.9090909090909,4,2,1,60,0,0
216570,-100,4,2,1,60,0,0
217164,-83.3333333333333,4,2,1,70,0,0
217906,-100,4,2,1,70,0,0
218797,-100,4,1,1,70,0,0
219688,-80,4,1,1,70,0,0
220134,-100,4,1,1,85,0,1
225035,-100,4,1,1,85,0,0
227114,-100,4,1,1,85,0,1
229639,-125,4,1,1,70,0,0
238995,-100,4,1,1,70,0,0
240183,-133.333333333333,4,2,1,70,0,0
241520,-100,4,1,1,70,0,0
242411,-66.6666666666667,4,1,1,70,0,0

[Colours]
Combo1 : 255,203,45
Combo2 : 84,224,254
Combo3 : 72,126,253
Combo4 : 102,255,74

[HitObjects]
76,144,803,6,0,L|72:212,2,48.9999985046387,2|0|0,0:0|0:0|0:0,0:0:0:0:
111,96,1355,1,0,0:0:0:0:
165,117,1539,2,0,L|229:101,1,48.9999985046387,2|0,0:0|0:0,0:0:0:0:
270,94,1907,1,0,0:0:0:0:
270,94,2091,1,2,0:0:0:0:
333,135,2275,6,0,P|349:163|361:199,1,48.9999985046387,2|0,0:0|0:0,0:0:0:0:
423,206,2632,2,0,P|419:238|411:266,1,48.9999985046387
418,327,2989,1,2,0:0:0:0:
349,351,3167,2,0,L|297:347,1,48.9999985046387
228,340,3524,1,2,0:0:0:0:
152,316,3703,6,0,P|152:288|144:256,1,48.9999985046387,2|0,0:0|0:0,0:0:0:0:
84,220,4040,2,0,P|88:188|96:164,1,48.9999985046387,0|0,0:0|0:0,0:0:0:0:
108,96,4377,2,0,L|60:88,1,48.9999985046387,2|0,0:0|0:0,0:0:0:0:
164,148,4714,1,0,0:0:0:0:
164,148,4882,1,2,0:0:0:0:
246,112,5051,6,0,L|306:108,1,48.9999985046387,2|0,0:0|0:0,0:0:0:0:
347,173,5365,2,0,L|402:158,1,48.9999985046387
379,267,5679,2,0,P|427:267|475:223,1,97.9999970092774,2|2,0:0|0:0,0:0:0:0:
479,156,6124,1,0,0:0:0:0:
410,118,6273,6,0,P|363:118|315:71,1,112,2|2,0:0|0:0,0:0:0:0:
253,30,6718,1,0,0:0:0:0:
182,65,6867,2,0,B|186:113|186:113|202:121|202:121|210:181,1,112,2|0,0:0|0:0,0:0:0:0:
175,237,7312,1,2,0:0:0:0:
103,269,7461,2,0,P|110:189|153:159,1,112,0|2,0:0|0:0,0:0:0:0:
256,261,8055,2,0,P|316:289|372:265,1,112
432,254,8500,2,0,L|428:190,1,56
379,116,8797,6,0,B|347:124|347:124|315:120|315:120|283:128|251:116,1,112,2|0,0:0|0:0,0:0:0:0:
230,208,9243,2,0,B|262:200|262:200|294:204|294:204|326:196|358:208,1,112,2|2,0:0|0:0,0:0:0:0:
428,198,9688,1,0,0:0:0:0:
447,215,9985,5,2,2:0:0:0:
474,318,10134,2,0,L|462:366,4,31.4999990386963,8|0|0|0|10,0:0|0:0|0:0|0:0|0:0,0:0:0:0:
447,215,10579,1,2,0:0:0:0:
276,72,10876,6,2,P|232:96|148:72,1,140,6|0,0:0|0:0,0:0:0:0:
52,72,11322,2,0,L|56:152,1,70,8|2,0:0|0:0,0:0:0:0:
120,216,11619,2,2,L|104:368,1,140,2|8,0:0|0:0,0:0:0:0:
204,364,12065,1,2,2:1:0:0:
288,316,12213,2,2,B|324:320|324:320|356:332|356:332|400:328|400:328|444:336,1,140,2|8,0:0|0:0,0:0:0:0:
484,252,12659,1,0,2:0:0:0:
484,156,12807,2,0,L|480:80,1,70,2|2,0:0|0:0,0:0:0:0:
388,48,13104,1,8,0:0:0:0:
332,128,13253,6,2,P|292:152|200:112,1,140,2|0,0:0|0:0,0:0:0:0:
132,64,13698,2,0,L|56:60,1,70,10|0,0:0|2:0,0:0:0:0:
36,155,13995,1,2,0:0:0:0:
70,247,14144,2,0,L|146:251,1,70,2|8,0:0|0:0,0:0:0:0:
228,316,14441,2,2,L|368:324,1,140,2|0,0:0|0:0,0:0:0:0:
444,264,14886,2,0,P|452:228|472:192,1,70,10|0,0:0|2:0,0:0:0:0:
438,104,15183,1,2,2:0:0:0:
346,69,15332,2,0,P|280:27|243:27,1,105,4|0,2:0|2:0,2:0:0:0:
234,38,15629,6,2,B|178:42|178:42|146:34|146:34|86:38,1,140,6|0,0:0|0:0,0:0:0:0:
71,132,16074,2,0,B|127:128|127:128|159:136|159:136|209:132,1,140,8|0,0:0|0:0,0:0:0:0:
230,228,16520,2,0,P|234:260|222:308,1,70,2|10,0:0|0:0,0:0:0:0:
323,315,16817,2,2,P|375:295|451:339,1,140,4|0,0:2|0:0,0:0:0:0:
497,247,17263,2,0,L|505:167,1,70,8|2,0:0|2:1,0:0:0:0:
404,176,17560,2,0,L|400:104,1,70,0|0,0:0|0:0,0:0:0:0:
301,103,17857,2,0,L|285:27,1,70,10|0,0:0|2:0,0:0:0:0:
188,20,18154,6,2,P|120:20|36:52,1,140,4|2,0:0|2:1,0:0:0:0:
76,136,18599,2,2,P|124:108|212:120,1,140,8|0,0:3|2:0,0:0:0:0:
172,208,19045,2,0,B|148:184|120:208|140:248|140:248|152:276|147:327|112:364|64:372|4:332,1,280,8|0,0:3|0:0,0:0:0:0:
16,148,19936,2,0,L|28:76,1,70,2|2,0:0|0:0,0:0:0:0:
276,44,20530,6,0,P|332:52|396:36,1,119.000002269745,6|0,0:2|2:0,0:0:0:0:
473,20,20975,2,0,P|461:64|473:152,1,119.000002269745,2|0,0:2|2:0,0:0:0:0:
501,212,21421,2,0,L|373:196,1,119.000002269745,2|0,0:2|2:0,0:0:0:0:
368,279,21867,2,0,L|236:291,1,119.000002269745,2|0,0:2|0:0,0:0:0:0:
216,366,22312,2,0,P|176:370|144:358,1,59.5000011348725,8|0,0:0|0:0,0:0:0:0:
151,281,22609,2,0,P|119:277|79:285,1,59.5000011348725
0,245,22906,6,0,L|20:101,1,140,4|8,0:0|0:0,0:0:0:0:
68,24,23352,2,0,P|33:13|-8:16,2,70,0|0|0,0:0|0:0|0:0,0:0:0:0:
112,112,23797,1,8,0:0:0:0:
204,88,23946,2,0,L|344:84,1,140,0|0,0:0|0:0,0:0:0:0:
396,164,24391,2,0,L|476:160,1,70,10|0,0:2|2:0,0:0:0:0:
480,256,24688,2,0,L|396:260,1,70,0|2,0:0|0:2,0:0:0:0:
356,340,24985,1,0,2:0:0:0:
264,304,25134,6,0,B|232:292|196:304|196:304|160:316|124:304,1,140,4|0,0:2|0:0,0:0:0:0:
40,260,25579,2,0,P|28:232|24:192,1,70,10|0,0:2|2:0,0:0:0:0:
116,156,25876,2,0,P|128:116|128:80,1,70,0|0,0:2|1:0,0:0:0:0:
212,36,26173,2,0,L|288:44,1,70,10|0,0:2|0:0,0:0:0:0:
348,116,26471,2,0,L|496:104,1,140,4|8,0:2|0:0,0:0:0:0:
480,204,26916,2,0,P|456:240|480:348,1,140,2|0,0:2|0:0,0:0:0:0:
371,356,27362,1,10,0:2:0:0:
205,343,27659,6,0,L|197:191,1,140,4|8,0:2|0:0,0:0:0:0:
52,72,28253,2,0,P|40:108|36:148,1,70,0|0,0:0|0:0,0:0:0:0:
36,240,28550,2,0,P|44:272|64:312,1,70,8|0,0:0|0:0,0:0:0:0:
139,363,28847,2,0,P|169:348|213:343,1,70,12|0,0:2|0:0,0:0:0:0:
304,348,29144,1,0,0:0:0:0:
356,264,29292,2,0,B|392:252|392:252|424:256|424:256|460:240|500:240,1,140,4|0,0:2|0:0,0:0:0:0:
508,144,29738,1,0,0:0:0:0:
364,60,30035,6,0,P|324:72|288:0,1,119.000002269745,0|0,0:0|0:0,0:0:0:0:
276,100,30480,2,0,P|250:149|194:142,1,119.000002269745,0|0,0:0|2:0,0:0:0:0:
204,60,30926,2,0,L|64:68,1,119.000002269745,0|0,0:0|0:0,0:0:0:0:
76,148,31372,2,0,L|196:140,1,119.000002269745,0|0,0:0|2:0,0:0:0:0:
224,216,31817,2,0,L|232:288,1,59.5000011348725,2|0,1:2|1:2,0:0:0:0:
308,304,32114,2,0,L|296:372,1,59.5000011348725,0|0,0:0|0:0,0:0:0:0:
396,376,32411,6,0,P|424:332|508:320,1,140,4|8,0:0|0:0,0:0:0:0:
508,220,32857,1,0,0:0:0:0:
496,124,33005,2,0,P|484:88|464:52,1,70,0|0,0:0|0:0,0:0:0:0:
372,60,33302,1,8,0:0:0:0:
276,76,33451,2,0,P|184:48|108:120,1,210,0|8,0:0|0:0,0:0:0:0:
203,283,34193,2,0,B|215:247|203:211|203:211|191:175|207:135,1,140,0|8,0:0|0:0,0:0:0:0:
276,76,34639,1,0,0:0:0:0:
372,60,34787,6,0,P|384:96|376:212,1,140,4|8,0:0|0:0,0:0:0:0:
343,299,35233,2,0,L|194:282,1,140,0|0,0:0|0:0,0:0:0:0:
156,368,35678,1,8,0:0:0:0:
35,213,35975,2,0,B|52:155|34:119|34:119|14:71|28:26|68:-4|114:3|125:23,1,280,4|0,0:0|0:0,0:0:0:0:
298,118,36867,2,0,L|374:114,1,70,8|0,0:0|0:0,0:0:0:0:
439,46,37164,6,0,B|455:114|455:114|443:186,1,140,4|8,0:0|2:0,0:0:0:0:
367,114,37609,2,0,B|351:182|351:182|362:251,1,140
341,347,38055,2,0,P|413:334|456:266,1,140,8|10,0:0|0:0,0:0:0:0:
443,183,38500,1,10,0:0:0:0:
455,162,38797,2,2,B|447:130|459:94|459:94|471:58|459:18,1,140,14|0,0:0|0:0,0:0:0:0:
364,5,39243,2,0,L|288:13,1,70,8|0,0:0|2:0,0:0:0:0:
264,104,39540,6,0,P|216:128|132:92,2,140,4|8|0,0:0|0:0|0:0,0:0:0:0:
205,26,40282,1,0,0:0:0:0:
400,38,40579,2,0,B|399:88|399:88|421:118|421:118|418:173,1,140,2|0,0:2|0:0,0:0:0:0:
408,268,41025,2,0,B|371:280|371:280|334:278,1,70,10|0,0:2|2:0,0:0:0:0:
272,349,41322,2,0,B|244:330|244:330|209:320,1,70
121,363,41619,1,8,0:0:0:0:
31,188,41916,6,0,L|23:48,2,140,8|0|0,0:0|0:0|0:0,0:0:0:0:
109,246,42659,1,0,0:0:0:0:
201,73,42956,2,0,P|275:70|319:122,1,140,2|0,0:2|0:0,0:0:0:0:
412,134,43401,2,0,L|407:217,1,70,8|0,0:0|0:0,0:0:0:0:
404,302,43698,2,0,P|438:297|469:280,1,70
316,251,43995,2,0,P|276:239|236:239,1,70,10|0,0:2|0:0,0:0:0:0:
171,299,44292,5,2,0:2:0:0:
24,168,44589,2,0,B|28:136|16:104|16:104|20:64|20:64|8:16,1,140,12|0,0:2|0:0,0:0:0:0:
108,40,45035,2,0,P|144:44|192:36,1,70,0|8,0:0|0:0,0:0:0:0:
276,32,45332,2,0,P|340:12|420:24,1,140,4|0,0:2|0:0,0:0:0:0:
412,120,45777,2,0,P|415:156|424:188,1,70,8|0,0:0|2:0,0:0:0:0:
500,248,46074,2,0,P|496:292|488:324,1,70,0|0,0:0|0:0,0:0:0:0:
400,360,46372,2,0,P|360:356|320:360,1,70,8|0,0:0|2:0,0:0:0:0:
232,364,46669,6,0,P|200:344|200:240,1,140,4|8,0:2|0:0,0:0:0:0:
260,180,47114,2,0,P|304:148|272:52,1,140,0|0,2:0|0:0,0:0:0:0:
204,40,47560,1,8,0:0:0:0:
204,40,47708,2,0,L|344:32,1,140
420,96,48154,2,0,P|388:120|360:132,1,70,10|0,0:2|2:0,0:0:0:0:
340,228,48451,2,0,P|304:240|264:240,1,70,2|0,0:2|0:0,0:0:0:0:
204,312,48748,2,0,P|168:300|144:280,1,70,10|0,0:2|2:0,0:0:0:0:
54,238,49045,5,2,0:2:0:0:
18,45,49342,2,2,P|73:22|166:53,1,140,14|8,0:0|0:0,0:0:0:0:
211,114,49787,2,0,P|251:122|295:110,1,70,2|8,0:2|0:0,0:0:0:0:
356,56,50084,2,0,P|408:52|468:120,1,140,2|0,0:2|0:0,0:0:0:0:
472,208,50530,2,0,L|392:200,1,70,8|2,0:0|2:0,0:0:0:0:
377,296,50827,2,0,L|297:288,1,70,2|0,0:2|2:0,0:0:0:0:
305,190,51124,2,0,L|225:182,1,70,8|0,0:0|0:0,0:0:0:0:
213,278,51421,5,0,0:0:0:0:
22,325,51718,2,2,L|35:159,1,140,14|2,0:0|0:2,0:0:0:0:
79,98,52164,2,0,L|7:94,1,70,0|8,0:0|0:0,0:0:0:0:
5,6,52461,2,0,L|169:14,1,140,2|0,0:2|0:0,0:0:0:0:
179,104,52906,2,0,L|255:96,1,70,8|0,0:0|2:0,0:0:0:0:
293,184,53203,2,0,L|373:196,1,70,0|2,0:0|2:0,0:0:0:0:
373,292,53500,2,0,L|445:284,1,70,8|0,0:0|0:0,0:0:0:0:
511,245,53797,6,0,P|517:298|479:353,1,112,4|8,0:0|0:0,0:0:0:0:
411,364,54243,1,0,0:0:0:0:
411,364,54391,2,0,L|287:368,1,112,0|8,0:0|0:0,0:0:0:0:
220,362,54837,2,0,B|221:335|240:310|240:310|224:286|224:250,1,112,2|0,0:2|0:0,0:0:0:0:
211,180,55282,2,0,L|227:124,1,56,8|0,0:0|0:0,0:0:0:0:
169,71,55579,1,0,0:0:0:0:
244,47,55728,2,0,L|372:39,1,112,0|0,2:0|2:0,0:0:0:0:
421,82,56173,6,0,P|445:110|461:186,1,112,4|8,0:2|0:3,0:0:0:0:
400,224,56619,2,0,P|384:264|388:340,1,112,2|0,0:2|0:0,0:0:0:0:
453,372,57065,1,8,0:0:0:0:
292,352,57362,6,0,B|256:344|256:344|212:352|212:352|172:344,1,119.000002269745,4|8,0:2|0:3,0:0:0:0:
175,261,57807,2,0,B|211:268|211:268|255:260|255:260|291:268,1,119.000002269745,2|0,0:2|0:0,0:0:0:0:
323,190,58253,1,8,0:0:0:0:
204,60,58550,6,0,P|164:76|72:64,1,125.999996154785,4|8,0:2|0:3,0:0:0:0:
80,156,58995,2,0,P|144:164|204:152,1,125.999996154785,2|8,0:2|0:3,0:0:0:0:
284,116,59441,1,0,2:0:0:0:
329,196,59589,1,4,0:0:0:0:
256,192,59664,12,8,60629,0:3:0:0:
464,128,61074,6,0,L|460:200,1,70,2|2,0:0|0:0,0:0:0:0:
484,292,61372,1,2,0:0:0:0:
472,304,61669,5,0,0:0:0:0:
356,340,61817,2,2,B|316:344|316:344|288:336|288:336|260:344|260:344|204:336,1,131.25,2|0,0:0|2:0,0:0:0:0:
204,331,62114,6,2,P|216:295|188:187,1,140,6|8,0:2|0:1,0:0:0:0:
204,100,62560,2,0,L|288:96,1,70,2|0,0:2|0:0,0:0:0:0:
332,176,62857,2,0,L|408:184,1,70,2|8,0:2|0:0,0:0:0:0:
480,124,63154,2,2,P|500:188|468:256,1,140,2|0,0:0|0:0,0:0:0:0:
401,183,63599,1,2,0:0:0:0:
401,183,63748,2,0,P|381:119|413:51,1,140,2|2,0:0|0:2,0:0:0:0:
316,28,64193,2,0,L|232:32,1,70,0|2,0:0|0:2,0:0:0:0:
152,56,64490,5,6,0:2:0:0:
4,184,64787,1,8,0:0:0:0:
63,262,64936,2,0,L|55:346,1,70
119,182,65233,2,0,L|127:102,2,70,0|8|2,0:0|0:2|0:2,0:0:0:0:
212,212,65678,2,2,B|252:208|252:208|284:212|284:212|320:204|368:208,1,140,4|2,0:2|0:0,0:0:0:0:
432,260,66124,2,2,P|396:216|404:136,1,140,4|0,0:2|0:0,0:0:0:0:
484,84,66570,2,0,P|472:40|440:0,1,70,0|0,0:0|0:0,0:0:0:0:
360,28,66867,6,0,L|280:24,1,70,6|0,0:2|0:0,0:0:0:0:
276,120,67164,2,0,L|356:124,1,70,2|0,0:0|0:0,0:0:0:0:
380,216,67461,2,0,L|310:212,1,70,2|0,0:0|0:0,0:0:0:0:
232,272,67758,1,2,0:2:0:0:
301,342,67906,2,2,P|328:280|300:200,1,140,6|0,0:2|0:0,0:0:0:0:
220,176,68352,2,0,P|196:156|172:120,1,70,2|0,0:0|0:0,0:0:0:0:
310,212,68649,2,0,P|349:196|389:192,1,70,2|0,0:0|0:0,0:0:0:0:
232,272,68946,2,0,P|224:304|200:348,1,70,2|0,0:2|0:0,0:0:0:0:
300,364,69243,6,0,B|336:352|368:360|368:360|404:368|456:352,1,140,6|8,0:2|0:0,0:0:0:0:
464,264,69688,1,0,0:0:0:0:
464,264,69837,2,0,L|480:188,1,70,2|0,0:0|0:0,0:0:0:0:
384,168,70134,1,8,0:0:0:0:
384,168,70282,2,0,L|372:24,1,140,6|0,0:0|0:0,0:0:0:0:
276,48,70728,2,0,P|240:56|200:48,1,70,0|2,0:0|0:0,0:0:0:0:
112,32,71025,1,0,0:0:0:0:
132,132,71173,6,0,B|136:172|136:172|132:200|132:200|144:232|144:232|134:268|140:308|140:308|132:348,1,218.75,2|0,0:0|0:0,0:0:0:0:
148,368,71619,6,0,P|184:360|232:364,1,70,4|0,0:0|0:0,0:0:0:0:
316,368,71916,1,2,0:2:0:0:
416,364,72065,2,2,P|448:344|472:240,1,140,4|2,0:2|0:2,0:0:0:0:
396,192,72510,1,2,0:2:0:0:
480,140,72659,2,2,P|471:71|420:26,1,140,2|0,0:0|0:0,0:0:0:0:
324,32,73104,1,0,0:0:0:0:
232,88,73253,2,2,P|184:108|100:72,1,140,6|2,0:2|0:2,0:0:0:0:
32,144,73698,2,0,L|36:228,1,70,2|2,0:2|0:2,0:0:0:0:
96,292,73995,5,4,0:0:0:0:
274,373,74292,1,8,0:0:0:0:
364,335,74441,2,0,L|444:327,1,70
469,236,74738,2,0,L|486:153,2,70,0|8|0,0:0|0:0|0:0,0:0:0:0:
394,172,75183,2,0,P|370:112|306:80,1,140,6|0,0:0|0:0,0:0:0:0:
206,80,75629,2,0,P|143:109|117:172,1,140,6|0,0:0|0:0,0:0:0:0:
186,238,76074,2,0,B|222:242|222:242|258:234|258:234|294:242|294:242|334:238,1,140,6|0,0:0|0:0,0:0:0:0:
420,264,76520,5,0,0:0:0:0:
468,72,76817,2,0,L|479:31,2,35
412,153,77114,1,0,0:0:0:0:
241,56,77411,2,2,P|205:40|109:72,1,140,6|0,0:0|0:0,0:0:0:0:
187,132,77857,2,2,P|199:212|166:268,1,140,2|0,0:0|0:0,0:0:0:0:
223,343,78302,2,0,P|191:355|143:351,1,70,6|0,0:0|2:0,0:0:0:0:
81,289,78599,2,0,P|154:122|221:343,1,560,4|4,0:2|0:2,0:0:0:0:
256,192,79862,12,0,80827,0:0:0:0:
140,96,81273,6,0,L|152:232,1,112,2|0,2:2|2:0,0:0:0:0:
228,192,81718,2,0,L|216:76,1,112,0|0,0:0|2:0,0:0:0:0:
292,64,82164,2,0,P|352:44|412:56,1,112,0|0,0:0|0:0,0:0:0:0:
460,100,82609,2,0,P|452:128|452:176,1,56,0|0,1:2|2:0,0:0:0:0:
472,232,82906,2,0,P|480:260|480:296,1,56,2|0,1:2|0:0,0:0:0:0:
440,352,83203,2,0,L|312:360,1,112,2|4,1:2|0:0,0:0:0:0:
248,360,83649,6,0,L|128:352,1,112,2|0,2:0|2:0,0:0:0:0:
80,300,84094,2,0,B|76:260|76:260|88:232|88:232|84:188,1,112,8|0,0:0|0:0,0:0:0:0:
60,116,84540,1,4,0:0:0:0:
208,60,84837,2,0,L|268:52,1,56,2|10,0:0|0:0,0:0:0:0:
328,96,85134,1,0,2:0:0:0:
388,144,85282,2,0,L|448:136,1,56,10|8,0:0|0:3,0:0:0:0:
500,324,85728,6,0,P|456:364|356:364,1,140,4|0,0:2|0:0,0:0:0:0:
304,308,86173,2,0,P|320:268|320:232,1,70,2|0,0:0|0:0,0:0:0:0:
276,156,86471,1,0,0:0:0:0:
200,96,86619,2,0,B|164:104|130:94|130:94|96:82|61:93,1,140,2|2,0:0|0:0,0:0:0:0:
256,192,86990,12,4,88253,0:0:0:0:
256,192,88327,12,0,90629,0:0:0:0:
132,96,97758,6,0,L|120:164,2,70
219,52,98203,1,4,0:2:0:0:
421,265,98649,2,0,L|424:334,2,70
364,185,99094,1,0,0:0:0:0:
89,79,99540,2,0,P|81:115|109:215,1,140,0|0,0:0|2:0,0:0:0:0:
151,299,99985,1,0,0:0:0:0:
232,248,100134,6,0,L|308:252,2,70,2|0|0,0:2|0:0|0:0,0:0:0:0:
151,299,100579,1,4,0:2:0:0:
345,77,101025,2,0,L|414:65,2,70,0|0|2,0:0|0:0|0:2,0:0:0:0:
260,27,101471,1,2,0:2:0:0:
134,292,101916,2,0,L|58:276,1,70,2|2,0:2|0:2,0:0:0:0:
261,288,102362,6,0,P|289:236|289:156,1,140,6|0,0:2|0:0,0:0:0:0:
232,76,102807,2,0,P|272:60|304:60,1,70,8|0,0:0|2:0,0:0:0:0:
388,100,103104,2,0,P|428:108|464:104,1,70
500,196,103401,2,0,L|492:268,1,70,10|0,0:2|0:0,0:0:0:0:
456,356,103698,2,0,P|392:328|320:364,1,140,4|10,0:0|0:2,0:0:0:0:
260,288,104144,2,0,B|212:300|212:300|108:284,1,140,0|2,0:0|0:2,0:0:0:0:
44,228,104589,2,0,P|64:188|68:160,1,70,8|0,0:0|2:0,0:0:0:0:
24,76,104886,6,0,P|116:144|112:28,1,280,6|0,0:2|1:2,0:0:0:0:
312,36,105777,2,0,P|300:76|304:112,1,70,8|2,1:0|1:2,0:0:0:0:
368,176,106074,2,0,L|436:188,1,70,6|2,0:2|0:2,0:0:0:0:
436,188,106817,2,0,P|374:171|398:94,1,140
446,56,107263,6,0,P|371:60|323:34,1,119.000002269745,4|0,0:0|2:0,0:0:0:0:
286,111,107708,2,0,L|158:103,1,119.000002269745,0|0,0:0|2:0,0:0:0:0:
97,158,108154,2,0,B|109:194|101:222|101:222|109:250|101:282,1,125.999996154785,0|2,0:0|2:0,0:0:0:0:
19,248,108599,2,0,B|7:212|15:184|15:184|7:156|15:124,1,125.999996154785,0|2,0:0|2:0,0:0:0:0:
45,35,109045,2,0,L|121:23,1,66.4999982242585,2|2,0:2|0:2,0:0:0:0:
196,60,109342,2,0,L|264:64,1,66.4999982242585,0|0,0:0|2:0,0:0:0:0:
356,40,109639,6,0,L|376:184,1,140,6|8,0:2|0:0,0:0:0:0:
388,276,110084,2,0,P|352:272|312:284,1,70
228,316,110381,2,0,B|188:328|156:320|156:320|124:312|84:324,2,140,2|2|2,0:2|0:2|0:2,0:0:0:0:
236,220,111124,2,0,L|240:148,1,70,10|0,0:2|2:0,0:0:0:0:
148,120,111421,2,0,L|140:40,2,70,0|0|10,0:0|0:0|0:2,0:0:0:0:
144,220,111867,1,2,2:0:0:0:
47,201,112015,6,0,P|92:136|156:120,1,140,4|8,0:0|0:0,0:0:0:0:
244,120,112461,2,0,L|256:44,2,70,0|0|0,2:0|0:0|0:0,0:0:0:0:
236,220,112906,1,8,0:0:0:0:
396,336,113203,2,0,B|432:312|448:260|428:212|428:212|452:180|444:140|444:140|437:104|460:60,1,280,4|2,0:0|2:0,0:0:0:0:
256,96,114094,2,0,P|216:104|172:92,1,70,8|0,0:0|2:0,0:0:0:0:
92,128,114391,6,0,B|120:192|120:192|88:260,1,140,6|8,0:2|0:0,0:0:0:0:
156,328,114837,2,0,L|300:332,1,140,2|0,2:0|0:0,0:0:0:0:
360,260,115282,2,0,P|344:192|372:120,1,140,8|6,0:0|0:0,0:0:0:0:
432,56,115728,1,6,0:0:0:0:
408,40,116025,2,2,B|356:36|356:36|316:44|316:44|268:40,1,140,6|0,0:0|0:0,0:0:0:0:
180,76,116471,2,0,L|184:152,1,70,8|0,0:0|2:0,0:0:0:0:
136,232,116768,6,0,L|140:312,1,70,4|0,0:2|0:0,0:0:0:0:
232,340,117065,2,0,P|288:324|368:348,1,140,8|0,0:0|0:0,0:0:0:0:
464,344,117510,2,0,P|452:288|488:216,1,140
488,120,117956,2,0,L|416:128,1,70,2|0,0:2|0:0,0:0:0:0:
308,56,118253,2,0,L|377:48,1,70,8|0,0:0|2:0,0:0:0:0:
308,144,118550,2,0,L|236:152,1,70,2|0,0:2|0:0,0:0:0:0:
188,68,118847,2,0,P|124:56|64:96,1,140,10|0,0:2|0:0,0:0:0:0:
40,288,119441,6,0,B|88:296|88:296|200:280,1,140,10|0,0:2|0:0,0:0:0:0:
272,260,119886,2,0,B|362:247|362:247|410:255,1,140,2|0,0:2|0:0,0:0:0:0:
468,176,120332,2,0,P|456:148|456:80,1,70,2|0,0:2|0:0,0:0:0:0:
352,100,120629,2,0,P|360:68|380:32,1,70,8|0,0:0|0:0,0:0:0:0:
280,28,120926,2,0,L|200:32,1,70,2|0,0:2|0:0,0:0:0:0:
200,128,121223,2,0,L|128:132,1,70,10|0,0:2|0:0,0:0:0:0:
60,64,121520,1,0,0:0:0:0:
80,260,121817,6,0,P|144:228|228:256,1,140,4|0,0:0|0:0,0:0:0:0:
308,236,122263,2,0,P|340:224|376:224,1,70,0|8,0:0|0:0,0:0:0:0:
464,268,122560,2,0,L|476:124,1,140,6|0,0:2|0:0,0:0:0:0:
416,52,123005,2,0,L|336:64,1,70,8|0,0:0|0:0,0:0:0:0:
252,40,123302,2,0,P|252:84|268:120,1,70,2|0,0:2|0:0,0:0:0:0:
216,196,123599,2,0,P|216:232|200:272,1,70,8|0,0:0|0:0,0:0:0:0:
108,272,123896,6,0,L|96:128,1,140,4|0,0:2|0:0,0:0:0:0:
4,168,124342,2,0,L|16:316,1,140,2|0,0:2|0:0,0:0:0:0:
92,368,124787,1,8,0:0:0:0:
108,272,124936,2,0,P|156:256|256:304,1,140,0|0,0:0|0:0,0:0:0:0:
332,312,125381,2,0,P|368:292|392:264,1,70,10|2,0:2|2:2,0:0:0:0:
368,176,125678,2,0,P|332:154|296:148,1,70,2|2,0:2|2:2,0:0:0:0:
230,214,125975,2,0,P|229:255|241:289,1,70,10|0,0:2|0:0,0:0:0:0:
332,312,126273,5,0,0:0:0:0:
484,188,126570,2,2,P|492:152|488:112,1,70,6|0,0:2|0:0,0:0:0:0:
400,76,126867,2,0,P|392:112|396:152,1,70,0|0,0:0|0:0,0:0:0:0:
412,240,127164,1,10,0:2:0:0:
320,212,127312,2,0,L|176:196,1,140,2|0,0:2|0:0,0:0:0:0:
88,228,127758,2,0,L|76:312,2,70,8|0|0,0:0|2:0|0:0,0:0:0:0:
112,132,128203,1,0,1:0:0:0:
204,100,128352,2,0,L|196:28,1,70,2|0,0:2|0:0,0:0:0:0:
292,12,128649,5,0,0:0:0:0:
396,180,128946,2,2,P|328:212|256:208,1,140,6|0,1:2|0:2,0:0:0:0:
216,296,129391,2,0,L|220:368,1,70,0|10,0:0|0:2,0:0:0:0:
176,208,129688,2,0,L|164:64,1,140,2|0,0:2|0:0,0:0:0:0:
252,24,130134,2,0,P|284:12|332:16,1,70
408,56,130431,2,0,P|420:88|420:136,1,70,0|0,0:0|2:0,0:0:0:0:
408,220,130728,2,0,P|404:260|412:308,1,70,10|0,0:2|0:0,0:0:0:0:
352,346,131025,6,0,B|312:342|312:342|232:350,1,112,4|0,0:0|0:0,0:0:0:0:
164,332,131471,1,0,2:0:0:0:
164,332,131619,2,0,P|148:296|144:264,1,56,8|0,0:0|2:0,0:0:0:0:
176,208,131916,1,0,0:0:0:0:
176,208,132065,2,0,P|196:164|184:88,1,112,8|0,0:0|2:0,0:0:0:0:
128,56,132510,2,0,B|164:60|164:60|208:52|208:52|248:56,1,112,0|8,0:0|0:0,0:0:0:0:
316,68,132956,1,0,2:0:0:0:
448,260,133401,6,0,P|424:260|408:332,1,112,4|8,0:2|0:3,0:0:0:0:
396,184,133847,2,0,P|340:224|316:272,1,112,2|0,0:2|0:0,0:0:0:0:
324,340,134292,1,8,0:0:0:0:
148,344,134589,6,0,L|132:208,1,125.999996154785,4|8,0:2|0:3,0:0:0:0:
220,208,135035,2,0,L|236:72,1,125.999996154785,2|0,0:2|0:0,0:0:0:0:
152,56,135480,1,8,0:0:0:0:
348,72,135777,6,0,B|384:80|416:72|416:72|452:64|492:72,1,140,4|8,0:2|0:3,0:0:0:0:
496,168,136223,1,0,0:0:0:0:
477,264,136372,2,0,L|488:352,2,70,2|0|0,0:2|2:0|0:0,0:0:0:0:
385,228,136817,1,4,0:0:0:0:
256,192,136891,12,2,137857,0:2:0:0:
108,64,138302,6,0,P|96:104|100:144,1,70,2|2,0:0|0:0,0:0:0:0:
112,228,138599,1,2,0:0:0:0:
128,248,138896,5,0,0:0:0:0:
228,316,139045,2,2,L|368:304,1,131.25,2|0,1:0|2:0,0:0:0:0:
388,300,139342,6,0,P|376:264|376:220,1,70,6|0,0:0|0:0,0:0:0:0:
416,144,139639,1,8,0:0:0:0:
368,60,139787,2,0,B|320:68|320:68|276:64|276:64|216:72,1,140,2|0,0:0|0:0,0:0:0:0:
136,96,140233,1,10,0:0:0:0:
224,137,140381,2,2,P|230:68|185:12,1,140,2|0,0:0|0:0,0:0:0:0:
91,10,140827,1,10,0:0:0:0:
136,96,140975,2,2,L|124:236,1,140,2|0,0:0|0:0,0:0:0:0:
204,296,141421,2,0,L|208:372,1,70,8|2,0:0|0:2,0:0:0:0:
296,376,141718,5,6,0:0:0:0:
412,216,142015,1,0,0:0:0:0:
372,128,142164,2,0,L|379:50,1,70
316,208,142461,2,0,L|323:281,2,70,2|8|0,0:2|0:0|2:0,0:0:0:0:
219,190,142906,2,2,L|231:38,1,140,4|8,0:2|0:0,0:0:0:0:
131,44,143352,2,2,L|119:200,1,140,6|0,0:2|0:0,0:0:0:0:
93,277,143797,2,0,L|169:265,1,70,8|2,0:0|2:0,0:0:0:0:
219,190,144094,6,0,P|267:174|303:174,1,70,6|0,0:2|0:0,0:0:0:0:
310,77,144391,2,0,P|350:97|378:129,1,70,10|0,0:0|0:0,0:0:0:0:
454,67,144688,2,0,P|473:100|482:143,1,70,2|0,0:2|0:0,0:0:0:0:
496,227,144985,1,8,0:0:0:0:
496,227,145134,2,2,L|344:239,1,140,6|0,0:2|0:0,0:0:0:0:
273,289,145579,2,0,P|261:253|265:209,1,70,8|0,0:0|0:0,0:0:0:0:
203,142,145876,2,0,L|207:58,1,70,2|0,0:0|0:0,0:0:0:0:
108,84,146173,2,0,L|104:12,1,70,8|0,0:0|2:0,0:0:0:0:
28,80,146471,6,0,P|36:120|128:164,1,140,4|8,0:2|0:0,0:0:0:0:
180,92,146916,1,0,0:0:0:0:
268,132,147065,2,0,P|268:172|260:220,1,70,2|0,0:0|0:0,0:0:0:0:
180,256,147362,1,0,0:0:0:0:
180,256,147510,2,2,P|184:308|252:364,1,140,6|0,0:0|0:0,0:0:0:0:
340,336,147956,2,0,P|380:320|412:320,1,70,8|2,0:0|0:0,0:0:0:0:
504,332,148253,1,0,0:0:0:0:
464,236,148401,6,0,L|484:16,1,218.75,2|0,0:0|0:0,0:0:0:0:
452,12,148847,6,0,P|412:16|372:12,1,70,6|0,0:0|0:0,0:0:0:0:
284,20,149144,1,8,0:0:0:0:
188,12,149292,2,2,P|184:72|120:108,1,140,2|0,0:2|0:0,0:0:0:0:
172,192,149738,1,8,0:0:0:0:
120,276,149886,2,2,P|180:305|188:371,1,140,2|0,0:0|0:0,0:0:0:0:
288,372,150332,1,8,0:0:0:0:
288,372,150480,2,2,L|432:356,1,140,2|0,0:2|0:0,0:0:0:0:
432,260,150926,2,0,P|424:220|428:188,1,70,8|2,0:0|2:0,0:0:0:0:
484,112,151223,5,6,0:0:0:0:
288,102,151520,1,8,0:0:0:0:
261,7,151669,2,0,L|177:-1,1,70
138,83,151966,2,0,L|149:155,2,70,2|8|0,0:2|0:0|2:0,2:0:0:0:
244,180,152411,2,2,P|212:228|128:248,1,140,6|0,0:0|2:0,0:0:0:0:
184,336,152857,2,2,P|248:312|300:256,1,140,6|0,0:0|2:0,0:0:0:0:
340,172,153302,2,2,L|492:156,1,140,6|4,0:0|0:2,0:0:0:0:
508,64,153748,5,4,0:2:0:0:
312,78,154045,2,0,L|268:72,2,35
400,35,154342,1,0,0:0:0:0:
458,221,154639,2,2,P|414:217|346:277,1,140,6|0,0:0|0:0,0:0:0:0:
288,355,155084,2,0,P|240:359|180:283,1,140,10|0,0:0|0:0,0:0:0:0:
104,240,155530,2,0,L|96:168,1,70,6|0,0:0|2:0,0:0:0:0:
196,180,155827,2,0,B|184:136|244:104|288:144|268:200|268:200|304:212|304:212|308:244|336:280|388:304|448:284|480:232|480:156|432:116|372:108|336:144,1,560,4|4,0:2|0:2,0:0:0:0:
256,192,157089,12,8,158055,0:0:0:0:
320,116,158500,6,0,P|296:96|200:72,1,112,0|0,2:0|2:0,0:0:0:0:
152,112,158946,2,0,P|146:142|172:236,1,112,10|0,0:2|2:0,0:0:0:0:
232,260,159391,2,0,P|261:249|328:180,1,112,0|0,2:0|0:0,0:0:0:0:
388,152,159837,2,0,L|468:140,1,56,8|0,0:0|2:0,0:0:0:0:
320,116,160134,2,0,L|345:46,1,56,2|0,0:2|0:0,0:0:0:0:
252,76,160431,2,0,L|184:72,1,56,2|0,2:0|0:0,0:0:0:0:
116,72,160728,5,0,0:0:0:0:
64,132,160876,2,0,B|68:172|68:172|56:204|56:204|60:252,1,112,0|0,2:0|2:0,0:0:0:0:
136,252,161322,2,0,B|132:214|132:214|144:182|144:182|140:142,1,112,8|0,0:0|0:0,0:0:0:0:
116,72,161768,1,4,0:2:0:0:
272,56,162065,2,0,L|328:48,1,56,2|10,0:0|0:0,0:0:0:0:
404,44,162362,1,0,0:0:0:0:
399,121,162510,2,0,L|331:131,1,56,10|8,0:0|0:3,0:0:0:0:
283,324,162956,6,2,P|209:339|152:316,1,140,4|0,0:2|0:0,0:0:0:0:
92,237,163401,2,0,P|108:201|112:165,1,70,8|2,0:0|2:0,0:0:0:0:
71,81,163698,1,0,0:0:0:0:
148,20,163847,2,0,P|221:16|315:42,1,140,0|2,0:0|2:0,0:0:0:0:
256,192,164218,12,0,165480,0:0:0:0:
261,161,172015,6,0,L|269:201,2,27.9999991455078
195,120,172312,2,0,L|199:80,2,37.3333333333333
148,180,172609,6,0,P|112:208|16:196,1,132.999996448517,4|0,0:0|0:0,0:0:0:0:
16,296,173055,2,0,B|28:352|28:352|64:336|112:340,1,132.999996448517,8|0,0:0|0:0,0:0:0:0:
196,340,173500,2,0,P|240:352|340:324,1,132.999996448517,0|0,0:0|0:0,0:0:0:0:
364,248,173946,2,0,P|348:180|364:116,1,132.999996448517,8|0,0:0|0:0,0:0:0:0:
368,28,174391,2,0,B|332:24|332:24|296:28,1,66.4999982242585,2|0,0:2|0:0,0:0:0:0:
212,48,174688,2,0,B|181:51|181:51|145:47,1,66.4999982242585,10|0,0:2|0:0,0:0:0:0:
64,92,174985,6,0,B|44:124|36:152|36:152|44:184|64:212,1,132.999996448517,0|0,0:0|0:0,0:0:0:0:
132,276,175431,2,0,B|152:248|160:216|160:216|152:188|132:156,1,132.999996448517,8|0,0:0|2:0,0:0:0:0:
63,211,175876,2,0,P|40:280|60:336,1,132.999996448517,0|0,0:0|2:0,0:0:0:0:
132,276,176322,2,0,L|272:268,1,132.999996448517,8|0,0:0|2:0,0:0:0:0:
360,268,176768,2,0,L|372:340,1,66.4999982242585,2|0,0:2|2:0,0:0:0:0:
464,316,177065,2,0,L|451:250,1,66.4999982242585,10|0,0:2|2:0,0:0:0:0:
396,176,177362,6,0,P|404:132|472:72,1,132.999996448517,6|0,0:2|2:0,0:0:0:0:
376,92,177807,2,0,L|240:88,1,132.999996448517,2|0,0:2|2:0,0:0:0:0:
240,180,178253,2,0,L|104:176,1,132.999996448517,2|0,0:2|2:0,0:0:0:0:
16,184,178698,2,0,P|48:248|112:268,1,132.999996448517,2|0,0:2|0:0,0:0:0:0:
196,280,179144,2,0,P|204:312|204:352,1,66.4999982242585,10|0,0:0|0:0,0:0:0:0:
296,364,179441,1,8,0:0:0:0:
388,360,179589,6,2,P|424:340|456:232,1,132.999996448517,4|0,0:2|0:0,0:0:0:0:
436,168,180035,2,0,B|432:132|432:132|436:96,1,66.4999982242585,8|0,0:0|0:0,0:0:0:0:
364,40,180332,2,0,L|288:32,1,66.4999982242585,2|0,0:0|0:0,0:0:0:0:
228,96,180629,1,8,0:0:0:0:
228,188,180777,2,2,L|92:168,1,132.999996448517,4|0,0:2|0:0,0:0:0:0:
20,220,181223,2,0,P|12:252|16:292,1,66.4999982242585,8|0,0:0|0:0,0:0:0:0:
84,348,181520,2,0,L|152:356,1,66.4999982242585,2|0,0:0|0:0,0:0:0:0:
164,264,181817,2,0,L|92:256,1,66.4999982242585,0|0,0:0|0:0,0:0:0:0:
84,348,182114,6,2,L|228:364,1,132.999996448517,4|8,0:0|0:0,0:0:0:0:
308,360,182560,2,2,P|332:316|328:224,1,132.999996448517,10|0,0:0|0:0,0:0:0:0:
260,176,183005,2,0,B|324:200|324:200|384:168,1,132.999996448517,14|0,0:0|0:0,0:0:0:0:
348,84,183451,2,2,B|316:100|316:100|260:80|260:80|224:88,1,132.999996448517,2|0,0:1|0:0,0:0:0:0:
168,164,183896,2,0,L|96:160,1,66.4999982242585,2|6,0:0|0:0,0:0:0:0:
68,248,184193,2,0,L|136:252,1,66.4999982242585,0|0,2:0|0:0,0:0:0:0:
172,336,184490,6,0,P|212:336|280:268,1,132.999996448517,0|2,0:0|0:2,0:0:0:0:
372,272,184936,2,0,P|413:322|477:331,1,132.999996448517,0|2,0:0|0:2,0:0:0:0:
456,240,185381,2,0,L|464:104,1,132.999996448517,0|2,0:2|0:2,0:0:0:0:
372,104,185827,2,0,B|368:172|368:172|328:176|296:204,1,132.999996448517,0|2,0:0|0:2,0:0:0:0:
276,284,186273,1,0,0:0:0:0:
220,208,186421,6,0,P|184:232|152:144,1,166.249995560646,6|0,0:0|0:0,0:0:0:0:
168,136,186867,6,0,P|184:80|136:8,1,140,6|0,0:0|0:0,0:0:0:0:
84,88,187312,2,0,L|12:76,1,70,0|14,0:0|0:0,0:0:0:0:
14,76,188055,6,0,L|8:152,1,70,2|0,2:0|0:0,0:0:0:0:
28,244,188352,1,0,2:0:0:0:
124,236,188500,2,0,P|116:280|96:312,1,70,2|0,2:0|0:0,0:0:0:0:
188,352,188797,2,0,L|332:360,1,140,2|0,2:0|0:0,0:0:0:0:
428,360,189243,6,0,B|404:292|404:292|428:224,1,140,6|0,0:0|0:0,0:0:0:0:
434,126,189688,2,0,P|394:114|358:114,1,70,0|14,0:0|0:0,0:0:0:0:
366,114,190431,6,0,P|331:103|299:79,1,70,2|0,2:0|2:0,0:0:0:0:
212,48,190728,1,0,2:0:0:0:
120,80,190876,2,0,L|40:84,1,70,2|0,2:0|0:0,0:0:0:0:
56,180,191173,2,0,B|128:176|128:176|100:240,1,140,2|0,2:0|2:0,0:0:0:0:
108,316,191619,6,0,P|152:332|216:324,1,112,4|0,0:2|2:0,0:0:0:0:
488,312,192213,2,2,P|504:252|416:328,1,293.999991027832,12|0,0:0|2:0,0:0:0:0:
340,240,192807,6,0,L|328:120,1,112,4|0,0:2|2:0,0:0:0:0:
60,68,193401,2,2,B|80:104|84:144|76:184|76:184|96:220|104:272|80:308|80:308|56:280|56:252,1,293.999991027832,12|0,0:0|2:0,0:0:0:0:
4,212,193995,1,4,0:2:0:0:
464,56,195035,5,0,2:0:0:0:
472,84,195332,2,2,B|480:120|480:120|472:168|472:168|480:216,1,125.999996154785,4|0,0:2|2:0,0:0:0:0:
484,228,195629,2,2,P|384:288|496:336,1,293.999991027832,4|8,0:2|0:0,0:0:0:0:
300,344,196372,6,0,P|232:328|160:348,1,140,6|0,0:0|0:0,0:0:0:0:
68,348,196817,2,0,P|52:312|48:272,1,70,0|14,0:0|0:0,0:0:0:0:
47,281,197560,6,0,L|56:208,1,70,2|0,2:0|0:0,0:0:0:0:
52,112,197857,1,8,0:0:0:0:
140,156,198005,2,0,L|216:144,1,70,2|0,2:0|0:0,0:0:0:0:
244,236,198302,2,0,L|384:208,1,140,2|0,2:0|0:0,0:0:0:0:
440,128,198748,6,0,P|432:184|456:264,1,140,6|0,0:0|0:0,0:0:0:0:
416,352,199193,2,0,P|376:364|336:360,1,70,0|14,0:0|0:0,0:0:0:0:
348,362,199936,6,0,L|272:368,1,70,2|0,2:0|0:0,0:0:0:0:
184,344,200233,1,8,0:0:0:0:
140,256,200381,2,0,P|148:224|144:176,1,70,2|0,2:0|0:0,0:0:0:0:
84,112,200678,2,0,P|132:136|216:112,1,140,0|0,0:0|0:0,0:0:0:0:
292,56,201124,6,2,B|336:44|336:44|380:48|380:48|428:32|464:56|488:68|488:68|460:96|416:100,1,280,6|8,0:0|0:0,0:0:0:0:
356,284,202015,2,0,L|264:292,1,70,2|0,0:2|0:0,0:0:0:0:
160,296,202312,6,0,P|96:208|204:224,2,272.999987503052,6|6|6,0:0|0:0|0:0,0:0:0:0:
240,116,203500,6,2,P|176:92|100:92,1,140,4|0,0:0|0:0,0:0:0:0:
28,152,203946,2,2,P|4:220|8:296,1,140,4|8,0:2|0:0,0:0:0:0:
68,360,204391,2,2,B|104:352|104:352|140:360|140:360|172:352|172:352|204:360|256:352|292:312|292:240,1,280,4|10,0:2|0:2,0:0:0:0:
272,160,205134,1,0,0:0:0:0:
356,108,205282,2,0,P|392:100|440:104,1,70,2|0,0:2|0:0,0:0:0:0:
272,160,205579,2,0,P|232:172|196:172,1,70,8|0,0:0|2:0,0:0:0:0:
108,160,205876,6,0,B|88:92|88:92|104:8,1,140,6|0,1:0|0:0,0:0:0:0:
4,32,206322,2,2,B|-8:99|-8:99|11:167,1,140,2|0,0:0|0:0,0:0:0:0:
56,256,206768,2,0,P|120:232|208:272,1,140,10|0,0:0|0:0,0:0:0:0:
192,348,207213,2,0,P|128:372|40:332,1,140,2|0,0:0|0:0,0:0:0:0:
56,256,207659,2,0,L|64:168,1,70,10|0,0:0|0:0,0:0:0:0:
160,136,207956,2,0,L|152:220,1,70,2|0,0:0|0:0,0:0:0:0:
248,272,208253,6,0,L|252:196,2,70,6|0|0,0:2|0:0|0:0,0:0:0:0:
312,340,208698,2,0,B|348:336|348:336|384:344|384:344|416:336|416:336|452:344,1,140,10|4,0:2|0:2,0:0:0:0:
472,248,209144,1,0,2:0:0:0:
388,196,209292,2,0,B|356:220|316:211|290:181|299:135|332:115|371:126|371:126|360:92|366:55|366:55|309:44|272:72|233:107|236:178,1,448,2|0,0:2|2:0,0:0:0:0:
264,272,210629,6,0,L|121:289,1,140,2|2,0:0|0:0,0:0:0:0:
33,115,211817,2,0,L|176:132,1,140,2|2,0:0|0:0,0:0:0:0:
343,36,213005,2,0,P|381:100|376:172,1,140,2|2,0:0|0:0,0:0:0:0:
227,288,214193,2,0,P|155:285|89:170,1,210,2|2,0:0|0:0,0:0:0:0:
216,147,215381,6,0,B|248:156|276:148|276:148|304:140|336:148,1,119.000002269745,0|2,1:0|0:0,0:0:0:0:
412,180,215827,1,0,0:0:0:0:
432,284,215975,2,2,P|360:336|352:224,1,231.000007049561,2|0,0:0|0:0,1:0:0:0:
412,180,216570,6,0,B|416:132|416:132|404:40,1,140,0|2,1:0|0:0,0:0:0:0:
308,20,217015,1,0,0:0:0:0:
212,88,217164,2,2,B|168:100|168:100|128:96|128:96|92:112|64:112|40:88|40:88|56:56|112:52,1,251.999992309571,2|0,0:0|0:0,1:0:0:0:
212,88,217758,6,0,L|228:184,1,83.9999974365235,0|2,1:0|1:0,0:0:0:0:
232,192,218203,1,2,1:0:0:0:
236,216,218500,1,2,1:0:0:0:
240,240,218797,2,0,P|276:260|380:224,1,140,6|0,0:1|0:0,0:0:0:0:
464,220,219243,2,0,L|460:316,1,70,10|0,0:0|0:0,0:0:0:0:
376,336,219540,1,2,0:0:0:0:
367,238,219688,6,0,B|368:188|368:188|381:163|381:163|374:118|374:118|396:86|396:86|388:20,1,218.75,2|0,0:0|2:0,0:0:0:0:
368,12,220134,6,0,P|332:28|296:32,1,70,4|0,0:2|0:0,0:0:0:0:
204,16,220431,1,8,0:2:0:0:
112,48,220579,2,2,L|108:196,1,140,2|0,0:2|0:2,0:0:0:0:
196,232,221025,1,8,2:0:0:0:
128,300,221173,2,2,P|193:282|252:328,1,140,2|0,2:0|0:0,0:0:0:0:
344,352,221619,1,8,0:0:0:0:
432,308,221768,2,2,P|472:248|464:172,1,140,0|0,0:0|0:0,0:0:0:0:
436,92,222213,2,0,L|364:88,1,70,10|0,0:0|0:0,0:0:0:0:
268,84,222510,5,4,0:0:0:0:
72,98,222807,1,8,0:0:0:0:
51,194,222956,2,0,B|43:230|43:230|51:270,1,70
142,233,223252,2,0,L|222:228,2,70,2|8|0,0:0|0:0|0:0,0:0:0:0:
96,336,223698,2,0,P|160:324|208:376,1,140,14|0,0:0|2:0,0:0:0:0:
304,374,224144,2,0,P|349:324|416:336,1,140,6|0,0:0|2:0,0:0:0:0:
460,248,224589,2,0,B|468:200|468:200|456:156|456:156|468:92,1,140,6|4,0:0|0:2,0:0:0:0:
488,16,225035,5,4,0:2:0:0:
292,27,225332,2,0,L|256:39,2,35
324,120,225629,1,0,0:0:0:0:
324,120,225926,2,2,B|256:140|256:140|188:120,1,140,6|2,0:0|2:0,0:0:0:0:
191,218,226372,2,0,B|257:237|257:237|325:217,1,140,2|0,0:0|0:0,0:0:0:0:
372,302,226817,2,0,L|296:322,1,70,2|2,0:0|2:0,0:0:0:0:
206,322,227114,6,2,B|143:303|143:303|256:168|256:168|373:302|373:302|304:320,1,490,4|2,0:0|0:2,0:0:0:0:
256,235,228302,2,2,B|222:203|218:145|256:110|256:110|295:75|291:18|256:-16,1,280
319,61,229045,2,2,L|487:41,1,140
459,45,229639,5,4,0:0:0:0:
472,126,229787,2,0,P|484:178|466:257,1,112,0|0,2:0|2:0,0:0:0:0:
407,275,230233,2,0,L|274:286,1,112,10|0,0:2|2:0,0:0:0:0:
217,284,230678,2,0,L|102:274,1,112,2|2,2:0|2:0,0:0:0:0:
30,251,231124,2,0,P|30:215|38:173,1,56,8|0,0:0|2:0,0:0:0:0:
103,135,231421,2,0,P|114:182|115:207,1,56,2|0,2:0|0:0,0:0:0:0:
30,99,231718,2,0,P|30:63|40:24,1,56,2|0,2:0|0:0,0:0:0:0:
110,24,232015,5,0,0:0:0:0:
187,39,232164,2,0,P|235:47|301:27,1,112,0|0,2:0|2:0,0:0:0:0:
373,34,232609,2,0,B|364:57|371:85|371:85|363:117|374:159,1,112,8|0,0:0|2:0,0:0:0:0:
375,223,233055,2,0,B|321:214|321:214|262:222,1,112,0|0,2:0|0:0,0:0:0:0:
204,271,233500,2,0,L|191:336,1,56,2|0,0:2|2:0,0:0:0:0:
119,255,233797,2,0,L|105:193,1,56,2|0,2:0|0:0,0:0:0:0:
202,126,234094,2,0,L|187:187,1,56,2|0,2:0|0:0,0:0:0:0:
124,89,234391,5,0,0:0:0:0:
48,64,234540,2,0,P|77:25|136:12,1,112,0|0,2:0|2:0,0:0:0:0:
124,89,234985,2,0,P|182:77|216:15,1,112,8|0,0:0|2:0,0:0:0:0:
299,36,235431,2,0,P|334:79|388:89,1,112,2|2,0:2|0:2,0:0:0:0:
375,12,235876,2,0,P|429:21|464:64,1,112,0|2,0:0|0:2,0:0:0:0:
486,139,236322,1,0,0:0:0:0:
469,215,236471,2,0,L|401:206,1,56,2|0,2:0|0:0,0:0:0:0:
351,256,236768,5,0,0:0:0:0:
279,287,236916,2,0,P|281:222|311:189,1,112,0|0,2:0|2:0,0:0:0:0:
275,118,237362,2,0,P|338:112|376:144,1,112,8|0,0:0|0:0,0:0:0:0:
413,207,237807,1,4,2:0:0:0:
279,287,238104,2,0,P|279:323|274:349,1,56,2|10,0:0|0:0,0:0:0:0:
198,358,238401,1,0,0:0:0:0:
174,282,238550,2,0,P|174:246|181:210,1,56,10|8,0:0|0:3,0:0:0:0:
141,93,238995,6,2,B|117:125|85:129|85:129|49:133|21:169,1,140,6|0,0:0|0:0,0:0:0:0:
100,226,239441,2,0,L|96:298,1,70,10|0,0:0|2:0,0:0:0:0:
166,364,239738,1,0,0:0:0:0:
243,304,239886,2,0,L|239:232,1,70,2|8,0:0|0:0,0:0:0:0:
280,150,240183,6,0,P|328:214|356:42,1,420.000016021729,4|0,1:2|0:0,0:0:0:0:
268,52,241520,6,0,L|200:36,1,70,4|2,0:2|0:0,0:0:0:0:
156,124,241817,2,0,L|76:104,1,70,2|0,0:0|0:0,0:0:0:0:
44,196,242114,2,0,P|60:228|60:304,1,105,2|0,0:0|2:0,0:0:0:0:
56,324,242411,6,0,B|86:331|86:331|121:318|121:318|162:324,1,105.000004005432,2|6,0:0|0:2,0:0:0:0:
