osu file format v14

[General]
AudioFilename: audio.mp3
AudioLeadIn: 0
PreviewTime: 61919
Countdown: 0
SampleSet: Soft
StackLeniency: 0.7
Mode: 2
LetterboxInBreaks: 0
WidescreenStoryboard: 1

[Editor]
DistanceSpacing: 0.8
BeatDivisor: 4
GridSize: 8
TimelineZoom: 2.5

[Metadata]
Title:Setsuna no Kajitsu (TV Size)
TitleUnicode:刹那の果実 (TV Size)
Artist:Kurosaki Maon
ArtistUnicode:黒崎真音
Creator:-Luminate
Version:Salad
Source:グリザイアの楽園
Tags:opening grisaia no rakuen - le eden de la anime japanese pop jpop j-pop female vocal op
BeatmapID:3047915
BeatmapSetID:1478145

[Difficulty]
HPDrainRate:4
CircleSize:3.3
OverallDifficulty:7
ApproachRate:7
SliderMultiplier:1.3
SliderTickRate:1

[Events]
//Background and Video events
0,0,"pic.jpg",0,0
//Break Periods
//Storyboard Layer 0 (Background)
//Storyboard Layer 1 (Fail)
//Storyboard Layer 2 (Pass)
//Storyboard Layer 3 (Foreground)
//Storyboard Layer 4 (Overlay)
//Storyboard Sound Samples

[TimingPoints]
662,368.098159509202,4,2,1,30,1,0
2134,352.941176470588,4,2,1,35,1,0
3545,337.078651685393,4,2,1,40,1,0
4893,309.278350515464,4,2,1,45,1,0
6130,297.029702970297,4,2,1,50,1,0
8654,-100,4,2,1,55,0,0
9831,-100,4,2,1,65,0,0
10733,-100,4,2,1,75,0,0
20387,-100,4,2,1,60,0,0
39397,-100,4,2,1,65,0,0
61971,-100,4,2,1,80,0,1
71030,-100,4,2,1,70,0,1
71476,-100,4,2,1,80,0,1
77268,-100,4,2,1,70,0,1
80981,-100,4,2,1,60,0,0
85585,-100,4,2,1,65,0,0
88110,-100,4,2,1,70,0,0

[Colours]
Combo1 : 255,159,113
Combo2 : 231,7,131
Combo3 : 255,128,192
Combo4 : 250,134,5

[HitObjects]
176,304,662,6,0,L|24:304,2,130,2|2|2,0:0|0:0|0:0,0:0:0:0:
344,296,1766,1,2,0:0:0:0:
344,216,1950,1,0,0:0:0:0:
256,152,2134,6,0,L|416:152,2,130,2|2|2,0:0|0:0|0:0,0:0:0:0:
104,72,3192,1,2,0:0:0:0:
104,152,3369,1,0,0:0:0:0:
184,208,3545,6,0,L|40:208,2,130,2|2|2,0:0|0:0|0:0,0:0:0:0:
352,296,4556,1,2,0:0:0:0:
272,280,4724,1,0,0:0:0:0:
192,272,4893,6,0,L|192:128,1,130,2|2,0:0|0:0,0:0:0:0:
272,112,5356,1,0,0:0:0:0:
192,96,5511,2,0,L|64:8,1,130,2|2,0:0|0:0,0:0:0:0:
352,336,6130,6,0,L|472:248,2,130,10|2|2,0:0|0:0|0:0,0:0:0:0:
240,312,7021,1,2,0:0:0:0:
352,296,7318,6,0,L|408:256,2,65,2|0|2,0:0|0:0|0:0,0:0:0:0:
232,288,7912,1,2,0:0:0:0:
144,224,8209,1,2,0:0:0:0:
232,152,8506,1,2,0:0:0:0:
304,152,8654,6,0,P|320:216|296:296,1,130,2|0,0:0|0:0,0:0:0:0:
240,288,9100,1,2,0:0:0:0:
64,288,9397,1,2,0:0:0:0:
64,288,9545,1,10,0:1:0:0:
224,288,9842,5,8,0:0:0:0:
280,240,9991,1,0,1:0:0:0:
224,200,10139,1,0,1:0:0:0:
176,152,10288,1,8,0:1:0:0:
224,104,10436,1,10,0:0:0:0:
464,112,10733,6,0,P|480:168|456:248,1,130,14|8,0:0|0:0,0:0:0:0:
384,288,11179,2,0,L|264:216,2,130,10|10|8,0:1|0:0|0:1,0:0:0:0:
152,352,12070,6,0,P|144:272|176:208,1,130,10|8,0:0|0:1,0:0:0:0:
224,224,12516,1,10,0:0:0:0:
288,221,12664,2,0,L|288:149,1,65,10|2,0:0|0:1,0:0:0:0:
48,192,13110,6,0,P|32:136|64:56,1,130,2|8,0:0|0:0,0:0:0:0:
128,160,13555,2,0,P|144:80|120:32,1,130,8|10,0:1|0:0,0:0:0:0:
52,69,14001,1,2,0:0:0:0:
299,335,14298,6,0,P|315:255|291:207,1,130,2|8,0:0|0:0,0:0:0:0:
232,208,14743,1,8,0:1:0:0:
112,208,15040,1,8,0:1:0:0:
168,208,15189,1,10,0:0:0:0:
448,336,15486,6,0,L|280:200,1,195,14|8,0:0|0:1,0:0:0:0:
440,200,16229,2,0,L|456:112,2,65,10|8|8,0:0|0:0|0:1,0:0:0:0:
296,336,16674,6,0,L|152:288,1,130,14|8,0:0|0:0,0:0:0:0:
172,294,17120,2,0,L|308:230,1,130,8|10,0:1|0:0,0:0:0:0:
328,184,17565,1,0,0:0:0:0:
288,144,17714,1,8,0:1:0:0:
64,208,18011,6,0,P|40:160|72:80,1,130,14|8,0:0|0:0,0:0:0:0:
136,88,18456,1,8,0:3:0:0:
264,328,18753,1,8,0:0:0:0:
344,288,18902,6,0,L|344:128,1,130,4|0,0:3|0:0,0:0:0:0:
344,96,19347,1,8,0:0:0:0:
272,64,19496,1,8,0:0:0:0:
40,48,19793,1,8,0:1:0:0:
40,48,19941,1,10,0:1:0:0:
232,48,20387,5,14,0:0:0:0:
112,144,20684,1,0,0:0:0:0:
112,144,20832,1,10,0:0:0:0:
320,208,21278,1,10,0:0:0:0:
192,280,21575,5,8,0:0:0:0:
192,280,21723,1,10,0:0:0:0:
328,336,22021,2,0,L|392:280,2,65,8|10|8,0:0|0:0|0:0,0:0:0:0:
24,344,22763,6,0,L|160:272,2,130,14|8|8,0:0|0:1|0:0,0:0:0:0:
160,352,23654,1,8,0:1:0:0:
240,336,23803,6,0,L|248:200,1,130,2|8,0:0|0:0,0:0:0:0:
168,200,24248,2,0,L|160:56,1,130,8|10,0:1|0:0,0:0:0:0:
304,72,24842,1,8,0:1:0:0:
304,72,24991,1,14,0:0:0:0:
160,128,25288,5,8,0:0:0:0:
160,128,25436,1,8,0:1:0:0:
304,280,25882,2,0,L|304:200,1,65,8|8,0:0|0:1,0:0:0:0:
240,200,26179,1,2,0:0:0:0:
88,200,26328,6,0,P|64:144|96:72,1,130,14|8,0:0|0:1,0:0:0:0:
152,56,26773,2,0,L|280:120,1,130,2|8,0:0|0:0,0:0:0:0:
328,144,27219,1,8,0:1:0:0:
40,336,27516,6,0,L|152:248,2,130,14|8|10,0:0|0:1|0:0,0:0:0:0:
176,344,28407,1,8,0:1:0:0:
432,328,28704,6,0,L|432:240,1,65,14|8,0:0|0:0,0:0:0:0:
368,248,29001,1,8,0:1:0:0:
296,248,29149,2,0,P|224:208|192:96,1,195,14|4,0:0|0:3,0:0:0:0:
432,72,29892,5,14,0:0:0:0:
280,136,30189,1,0,0:0:0:0:
280,136,30337,1,4,0:3:0:0:
80,248,30783,1,4,0:3:0:0:
232,296,31080,5,8,0:0:0:0:
232,296,31229,1,8,0:0:0:0:
80,336,31674,1,10,0:0:0:0:
80,248,31823,1,8,0:0:0:0:
152,208,31971,1,8,0:1:0:0:
424,216,32268,6,0,L|312:120,2,130,14|8|10,0:0|0:1|0:0,0:0:0:0:
488,256,33011,1,8,0:0:0:0:
240,344,33308,6,0,P|216:288|248:224,1,130,2|8,0:0|0:0,0:0:0:0:
312,224,33753,1,8,0:1:0:0:
440,208,34050,2,0,L|448:112,1,65,10|8,0:0|0:0,0:0:0:0:
376,104,34347,1,8,0:1:0:0:
136,304,34644,6,0,L|264:216,2,130,14|8|8,0:0|0:1|0:0,0:0:0:0:
64,264,35387,1,8,0:0:0:0:
56,192,35535,1,8,0:1:0:0:
304,336,35832,6,0,L|456:328,1,130,14|8,0:0|0:1,0:0:0:0:
288,256,36427,2,0,L|280:104,1,130,8|8,0:0|0:1,0:0:0:0:
352,104,36872,1,8,0:0:0:0:
424,80,37021,6,0,L|432:232,1,130,14|8,0:0|0:1,0:0:0:0:
360,328,37466,2,0,L|224:312,1,130,2|8,0:0|0:0,0:0:0:0:
152,304,37912,1,8,0:1:0:0:
384,224,38209,5,10,0:0:0:0:
384,224,38357,1,2,0:0:0:0:
152,192,38654,2,0,P|128:144|176:64,1,130,14|8,0:0|0:0,0:0:0:0:
208,72,39100,1,8,0:1:0:0:
464,80,39397,6,0,L|336:176,2,130,14|8|10,0:0|0:1|0:0,0:0:0:0:
464,168,40139,1,8,0:0:0:0:
312,320,40436,6,0,P|296:232|328:192,1,130,2|8,0:0|0:0,0:0:0:0:
392,200,40882,1,8,0:1:0:0:
264,128,41179,1,10,0:0:0:0:
392,72,41476,1,8,0:1:0:0:
136,328,41773,6,0,L|128:168,1,130,10|10,0:0|0:1,0:0:0:0:
256,192,42367,2,0,L|312:144,2,65,10|8|8,0:0|0:0|0:1,0:0:0:0:
104,352,42813,6,0,P|40:312|32:240,1,130,10|8,0:0|0:0,0:0:0:0:
104,248,43258,1,8,0:1:0:0:
232,176,43555,1,10,0:0:0:0:
96,40,43852,6,0,L|104:200,1,130,8|8,0:1|0:0,0:0:0:0:
360,288,44446,1,14,0:0:0:0:
240,280,44743,1,10,0:0:0:0:
184,272,44892,1,8,0:0:0:0:
416,320,45189,6,0,P|440:248|408:192,1,130,6|8,0:0|0:0,0:0:0:0:
336,192,45634,1,8,0:1:0:0:
248,128,45931,1,10,0:0:0:0:
336,72,46229,1,8,0:1:0:0:
96,320,46526,6,0,L|32:280,2,65,10|10|8,0:0|0:0|0:1,0:0:0:0:
176,328,46971,2,0,L|304:248,1,130,2|8,0:0|0:0,0:0:0:0:
224,184,47417,1,8,0:1:0:0:
144,176,47565,6,0,P|112:128|144:64,1,130,2|8,0:0|0:0,0:0:0:0:
224,56,48011,1,8,0:1:0:0:
376,56,48308,1,10,0:0:0:0:
432,120,48456,1,8,0:0:0:0:
376,184,48605,1,8,0:1:0:0:
240,184,48902,5,8,0:0:0:0:
480,312,49199,2,0,L|480:160,1,130,14|10,0:0|0:0,0:0:0:0:
400,160,49644,1,8,0:0:0:0:
400,80,49793,1,8,0:1:0:0:
480,176,49941,6,0,L|352:264,1,130,2|8,0:0|0:0,0:0:0:0:
304,296,50387,1,8,0:1:0:0:
176,216,50684,1,10,0:0:0:0:
304,152,50981,1,8,0:1:0:0:
440,96,51278,5,4,0:3:0:0:
200,80,51575,2,0,P|184:144|208:208,1,130,14|8,0:0|0:0,0:0:0:0:
280,208,52021,1,8,0:0:0:0:
288,288,52169,1,8,0:1:0:0:
136,336,52318,6,0,P|64:304|40:240,1,130,2|8,0:0|0:0,0:0:0:0:
40,200,52763,1,8,0:1:0:0:
168,120,53060,1,10,0:0:0:0:
40,64,53357,1,8,0:1:0:0:
280,48,53654,6,0,L|408:112,2,130,14|8|8,0:0|0:0|0:1,0:0:0:0:
176,72,54545,1,8,0:0:0:0:
176,72,54694,6,0,L|312:136,1,130,10|8,0:0|0:1,0:0:0:0:
293,127,55139,2,0,L|176:192,1,130,10|8,0:0|0:1,0:0:0:0:
120,208,55585,1,2,0:0:0:0:
416,336,56030,6,0,P|440:264|416:208,1,130,14|8,0:0|0:1,0:0:0:0:
352,216,56476,1,8,0:0:0:0:
422,215,56625,2,0,L|430:71,1,130,10|8,0:0|0:1,0:0:0:0:
192,208,57219,6,0,L|184:56,1,130,14|8,0:0|0:1,0:0:0:0:
256,80,57664,1,8,0:0:0:0:
184,80,57813,2,0,P|160:152|192:208,1,130,10|8,0:0|0:1,0:0:0:0:
424,344,58407,6,0,L|304:288,1,130,14|8,0:0|0:1,0:0:0:0:
368,272,58852,1,8,0:0:0:0:
432,256,59001,2,0,P|448:192|416:128,1,130,10|8,0:0|0:1,0:0:0:0:
264,136,59446,5,14,0:0:0:0:
256,192,59743,12,2,60634,0:0:0:0:
328,320,60931,5,8,0:0:0:0:
328,240,61080,1,8,0:1:0:0:
328,160,61229,1,2,0:0:0:0:
208,136,61526,1,8,0:0:0:0:
208,136,61674,1,8,0:1:0:0:
472,288,61971,5,14,0:0:0:0:
344,224,62268,1,8,0:1:0:0:
416,208,62417,2,0,L|424:64,1,130,2|8,0:0|0:0,0:0:0:0:
160,344,63011,6,0,P|136:288|168:216,1,130,6|0,0:0|0:0,0:0:0:0:
232,224,63456,1,8,0:1:0:0:
376,208,63605,2,0,L|384:64,1,130,2|2,0:0|0:0,0:0:0:0:
368,32,64050,1,8,0:1:0:0:
320,16,64199,1,2,0:0:0:0:
160,16,64347,5,14,0:0:0:0:
304,280,64793,2,0,L|304:192,1,65,2|8,0:0|0:0,0:0:0:0:
232,200,65090,2,0,P|192:144|232:120,1,130,8|2,0:0|0:0,0:0:0:0:
384,64,65535,5,4,0:3:0:0:
272,336,65832,1,8,0:1:0:0:
200,328,65981,2,0,P|120:240|128:144,1,195,10|8,0:0|0:1,0:0:0:0:
400,152,66724,6,0,L|272:80,2,130,14|8|10,0:0|0:1|0:0,0:0:0:0:
464,208,67466,1,8,0:0:0:0:
464,280,67615,1,8,0:1:0:0:
304,352,67763,6,0,L|168:296,1,130,6|8,0:0|0:0,0:0:0:0:
112,280,68209,1,8,0:1:0:0:
232,184,68506,1,10,0:0:0:0:
104,112,68803,1,8,0:1:0:0:
376,288,69100,6,0,P|400:232|368:160,1,130,14|8,0:0|0:1,0:0:0:0:
256,168,69694,2,0,L|192:112,2,65,10|8|8,0:0|0:0|0:1,0:0:0:0:
407,343,70139,6,0,P|455:319|471:231,1,130,14|8,0:0|0:0,0:0:0:0:
416,208,70585,2,0,L|280:152,1,130,8|10,0:1|0:0,0:0:0:0:
352,88,71030,2,0,P|392:136|344:152,1,130,2|2,3:2|3:2,0:0:0:0:
192,352,71476,6,0,L|64:312,1,130,14|8,0:0|0:1,0:0:0:0:
72,240,71922,1,2,0:0:0:0:
192,184,72219,1,2,0:0:0:0:
448,208,72516,6,0,P|417:111|329:79,1,195,6|8,0:0|0:1,0:0:0:0:
334,79,73110,2,0,L|456:136,1,130,2|2,0:0|0:0,0:0:0:0:
448,176,73555,1,8,0:1:0:0:
392,232,73704,1,2,0:0:0:0:
232,232,73852,5,14,0:0:0:0:
40,240,74298,1,2,0:0:0:0:
24,176,74446,1,8,0:0:0:0:
40,240,74595,1,10,0:0:0:0:
96,272,74743,1,8,0:1:0:0:
360,256,75040,6,0,L|176:168,2,195,14|14|14,0:0|0:0|0:0,0:0:0:0:
112,272,76229,5,10,0:1:0:0:
112,272,76377,1,8,0:1:0:0:
224,256,76674,1,2,0:0:0:0:
328,240,76971,1,10,0:0:0:0:
64,232,77268,6,0,P|48:160|80:96,1,130,14|0,0:0|0:0,0:0:0:0:
144,112,77714,1,10,0:0:0:0:
400,112,78011,1,8,0:1:0:0:
400,112,78159,1,14,0:0:0:0:
144,344,78456,6,0,L|264:256,1,130,14|0,0:0|0:0,0:0:0:0:
248,192,78902,1,2,0:0:0:0:
136,128,79199,1,2,0:0:0:0:
248,80,79496,1,8,0:0:0:0:
408,288,79644,6,0,P|432:240|400:168,1,130,14|8,0:0|0:1,0:0:0:0:
336,160,80090,2,0,L|280:112,2,65,8|8|8,0:0|0:0|0:1,0:0:0:0:
464,320,80684,1,8,0:0:0:0:
464,320,80832,1,4,0:3:0:0:
306,322,80981,6,0,L|168:283,1,130,14|8,0:0|0:0,0:0:0:0:
320,224,81575,2,0,L|190:182,1,130,8|10,0:1|0:0,0:0:0:0:
40,160,82169,5,8,0:0:0:0:
24,104,82318,1,8,0:1:0:0:
40,48,82466,1,8,0:0:0:0:
184,48,82763,1,10,0:1:0:0:
40,48,83060,1,10,0:0:0:0:
304,336,83357,6,0,L|432:288,1,130,14|8,0:0|0:0,0:0:0:0:
328,200,83951,1,8,0:1:0:0:
448,144,84248,1,8,0:1:0:0:
392,128,84397,1,14,0:0:0:0:
168,344,84694,5,2,0:0:0:0:
104,304,84842,1,8,0:1:0:0:
80,224,84991,1,8,0:0:0:0:
104,160,85139,1,8,0:1:0:0:
168,112,85288,1,10,0:0:0:0:
416,320,85585,6,0,P|448:256|408:192,1,130,14|8,0:0|0:0,0:0:0:0:
273,201,86030,2,0,L|265:121,1,65,10|8,0:1|0:0,0:0:0:0:
349,124,86328,2,0,L|357:36,1,65,10|8,0:0|0:0,0:0:0:0:
104,64,86773,1,2,0:0:0:0:
421,302,88110,5,14,0:0:0:0:
456,240,88258,1,2,0:0:0:0:
448,160,88407,1,8,0:1:0:0:
384,128,88555,1,8,0:0:0:0:
216,176,88704,5,10,0:0:0:0:
160,128,88852,1,8,0:0:0:0:
216,80,89001,1,8,0:1:0:0:
384,80,89149,1,14,0:0:0:0:
