osu file format v14

[General]
AudioFilename: audio.mp3
AudioLeadIn: 0
PreviewTime: 61919
Countdown: 0
SampleSet: Soft
StackLeniency: 0.7
Mode: 2
LetterboxInBreaks: 0
WidescreenStoryboard: 1

[Editor]
DistanceSpacing: 0.8
BeatDivisor: 4
GridSize: 8
TimelineZoom: 2.5

[Metadata]
Title:Setsuna no Kajitsu (TV Size)
TitleUnicode:刹那の果実 (TV Size)
Artist:Kurosaki Maon
ArtistUnicode:黒崎真音
Creator:-Luminate
Version:Platter
Source:グリザイアの楽園
Tags:opening grisaia no rakuen - le eden de la anime japanese pop jpop j-pop female vocal op
BeatmapID:3047914
BeatmapSetID:1478145

[Difficulty]
HPDrainRate:5
CircleSize:3.7
OverallDifficulty:8
ApproachRate:8
SliderMultiplier:1.5
SliderTickRate:2

[Events]
//Background and Video events
0,0,"pic.jpg",0,0
//Break Periods
//Storyboard Layer 0 (Background)
//Storyboard Layer 1 (Fail)
//Storyboard Layer 2 (Pass)
//Storyboard Layer 3 (Foreground)
//Storyboard Layer 4 (Overlay)
//Storyboard Sound Samples

[TimingPoints]
662,368.098159509202,4,2,1,30,1,0
2134,352.941176470588,4,2,1,35,1,0
3545,337.078651685393,4,2,1,40,1,0
4893,309.278350515464,4,2,1,45,1,0
6130,297.029702970297,4,2,1,50,1,0
8654,-100,4,2,1,55,0,0
9831,-100,4,2,1,65,0,0
10733,-100,4,2,1,75,0,0
20387,-100,4,2,1,60,0,0
39397,-100,4,2,1,65,0,0
61971,-90.9090909090909,4,2,1,80,0,1
71030,-90.9090909090909,4,2,1,70,0,1
71476,-90.9090909090909,4,2,1,80,0,1
77268,-90.9090909090909,4,2,1,70,0,1
80981,-100,4,2,1,60,0,0
85585,-100,4,2,1,65,0,0
88110,-100,4,2,1,70,0,0

[Colours]
Combo1 : 255,159,113
Combo2 : 231,7,131
Combo3 : 255,128,192
Combo4 : 250,134,5

[HitObjects]
120,328,662,6,0,L|112:155,1,150,2|2,0:0|0:0,0:0:0:0:
296,240,1398,1,2,0:0:0:0:
360,192,1582,1,0,0:0:0:0:
360,112,1766,1,2,0:0:0:0:
296,72,1950,1,0,0:0:0:0:
120,328,2134,6,0,L|112:144,1,150,2|2,0:0|0:0,0:0:0:0:
296,280,2839,1,2,0:0:0:0:
320,192,3016,1,0,0:0:0:0:
288,104,3192,1,2,0:0:0:0:
216,64,3369,1,0,0:0:0:0:
384,64,3545,6,0,L|392:248,1,150,2|2,0:0|0:0,0:0:0:0:
240,336,4219,1,2,0:0:0:0:
312,288,4387,1,0,0:0:0:0:
328,192,4556,1,2,0:0:0:0:
296,104,4724,1,0,0:0:0:0:
136,96,4893,6,0,L|136:264,1,150,2|2,0:0|0:0,0:0:0:0:
216,288,5356,1,0,0:0:0:0:
136,246,5511,1,2,0:0:0:0:
104,192,5666,1,0,0:0:0:0:
136,144,5820,1,2,0:0:0:0:
408,224,6130,6,0,L|288:128,2,150,10|2|2,0:0|0:0|0:0,0:0:0:0:
232,336,7021,1,2,0:0:0:0:
160,288,7169,1,0,0:0:0:0:
296,264,7318,5,2,0:0:0:0:
368,208,7466,1,0,0:0:0:0:
384,112,7615,1,2,0:0:0:0:
368,32,7763,1,0,0:0:0:0:
288,16,7912,2,0,L|416:112,2,150,2|2|2,0:0|0:0|0:0,0:0:0:0:
128,16,8654,6,0,P|96:96|152:168,1,150,2|0,0:0|0:0,0:0:0:0:
280,152,9100,2,0,P|304:224|272:296,1,150,2|2,0:0|0:0,0:0:0:0:
128,280,9545,1,10,0:1:0:0:
256,280,9842,5,8,0:0:0:0:
176,240,9991,1,0,1:0:0:0:
176,176,10065,1,0,1:0:0:0:
216,152,10139,1,0,1:0:0:0:
352,96,10288,1,8,0:1:0:0:
424,88,10436,1,10,0:0:0:0:
64,328,10733,6,0,P|40:224|88:192,1,150,14|8,0:0|0:0,0:0:0:0:
176,200,11179,2,0,L|272:200,1,75,10|8,0:1|0:0,0:0:0:0:
176,280,11476,2,0,L|32:176,1,150,10|8,0:0|0:1,0:0:0:0:
144,184,11922,1,8,0:0:0:0:
360,192,12070,6,0,P|392:128|336:48,1,150,10|8,0:0|0:1,0:0:0:0:
192,328,12664,2,0,L|120:256,2,75,10|8|8,0:0|0:0|0:1,0:0:0:0:
416,328,13110,6,0,P|448:256|400:184,1,150,2|8,0:0|0:0,0:0:0:0:
264,192,13555,2,0,P|232:120|296:48,1,150,8|10,0:1|0:0,0:0:0:0:
344,64,14001,2,0,L|256:64,1,75,8|8,0:0|0:1,0:0:0:0:
56,304,14298,6,0,L|208:232,1,150,2|8,0:0|0:0,0:0:0:0:
191,239,14743,2,0,L|48:304,1,150,8|8,0:1|0:1,0:0:0:0:
56,144,15189,1,10,0:0:0:0:
448,336,15486,6,0,P|480:264|432:208,1,150,14|8,0:0|0:0,0:0:0:0:
288,208,15931,2,0,P|264:136|296:72,1,150,8|10,0:1|0:0,0:0:0:0:
384,128,16377,2,0,L|384:32,1,75,8|8,0:0|0:1,0:0:0:0:
152,336,16674,6,0,P|80:304|64:224,1,150,14|8,0:0|0:0,0:0:0:0:
128,200,17120,1,8,0:1:0:0:
152,120,17268,1,0,0:0:0:0:
128,48,17417,1,10,0:0:0:0:
56,24,17565,1,8,0:0:0:0:
128,48,17714,1,8,0:1:0:0:
496,336,18011,6,0,L|352:232,1,150,14|8,0:0|0:0,0:0:0:0:
376,184,18456,1,8,0:3:0:0:
160,184,18753,1,8,0:0:0:0:
256,184,18902,6,0,P|328:144|352:64,1,150,4|0,0:3|0:0,0:0:0:0:
256,344,19347,2,0,P|176:312|152:224,1,150,8|8,0:0|0:0,0:0:0:0:
408,256,19793,1,8,0:1:0:0:
408,256,19941,1,10,0:1:0:0:
144,352,20387,6,0,L|136:168,1,150,14|0,0:0|0:0,0:0:0:0:
216,200,20832,1,10,0:0:0:0:
40,88,21130,1,0,0:0:0:0:
112,112,21278,1,10,0:0:0:0:
304,104,21575,5,8,0:0:0:0:
312,200,21724,1,10,0:0:0:0:
192,312,22021,1,8,0:0:0:0:
272,304,22169,2,0,L|280:208,1,75,10|8,0:0|0:0,0:0:0:0:
192,216,22466,2,0,L|184:120,1,75,8|0,3:1|3:2,0:0:0:0:
400,144,22763,6,0,L|256:48,2,150,14|8|8,0:0|0:1|0:0,0:0:0:0:
304,344,23654,1,8,0:1:0:0:
432,344,23803,6,0,P|464:272|408:192,1,150,2|8,0:0|0:0,0:0:0:0:
296,208,24248,2,0,P|280:112|304:64,1,150,8|10,0:1|0:0,0:0:0:0:
440,64,24842,1,8,0:1:0:0:
208,328,24991,6,0,P|112:272|96:224,1,150,14|8,0:0|0:0,0:0:0:0:
208,240,25436,2,0,P|232:152|184:96,1,150,8|8,0:1|0:0,0:0:0:0:
104,104,25882,2,0,L|64:24,2,75,8|8|2,0:0|0:1|0:0,0:0:0:0:
312,336,26328,6,0,P|392:296|408:224,1,150,14|8,0:0|0:1,0:0:0:0:
320,232,26773,2,0,P|336:128|400:112,1,150,2|8,0:0|0:0,0:0:0:0:
448,112,27219,1,8,0:1:0:0:
64,336,27516,6,0,L|56:184,1,150,14|8,0:0|0:1,0:0:0:0:
193,190,28110,2,0,L|201:94,1,75,10|8,0:0|0:0,0:0:0:0:
120,128,28407,2,0,L|112:40,1,75,8|0,0:1|0:0,0:0:0:0:
328,320,28704,6,0,L|432:320,2,75,14|8|8,0:0|0:0|0:1,0:0:0:0:
192,328,29149,2,0,P|168:248|200:184,1,150,14|8,0:0|0:0,0:0:0:0:
272,184,29595,1,4,0:3:0:0:
472,232,29892,6,0,L|304:232,1,150,14|0,0:0|0:0,0:0:0:0:
320,144,30337,2,0,L|472:144,1,150,4|0,0:3|0:0,0:0:0:0:
472,80,30783,1,4,0:3:0:0:
288,304,31080,5,8,0:0:0:0:
280,208,31229,1,8,0:0:0:0:
464,152,31526,1,2,0:0:0:0:
376,104,31674,1,10,0:0:0:0:
464,64,31823,2,0,L|464:240,1,150,10|8,0:0|0:0,0:0:0:0:
232,328,32268,6,0,L|88:256,2,150,14|8|10,0:0|0:1|0:0,0:0:0:0:
360,304,33011,2,0,L|368:216,1,75,8|8,0:0|0:1,0:0:0:0:
224,232,33308,6,0,P|144:184|136:120,1,150,2|8,0:0|0:0,0:0:0:0:
216,128,33753,1,8,0:1:0:0:
432,128,34050,2,0,L|512:64,2,75,10|8|8,0:0|0:0|0:1,0:0:0:0:
72,336,34644,6,0,P|40:264|96:200,1,150,14|8,0:0|0:1,0:0:0:0:
216,200,35090,2,0,P|256:128|200:72,1,150,2|8,0:0|0:0,0:0:0:0:
88,56,35535,2,0,L|80:144,1,75,8|0,0:1|0:0,0:0:0:0:
296,320,35832,6,0,P|320:248|280:192,1,150,14|8,0:0|0:1,0:0:0:0:
200,192,36278,1,8,0:0:0:0:
344,136,36575,1,8,0:0:0:0:
272,112,36724,1,8,0:1:0:0:
264,48,36872,1,8,0:0:0:0:
400,328,37021,6,0,P|424:256|392:184,1,150,14|8,0:0|0:1,0:0:0:0:
272,240,37466,2,0,P|192:200|184:136,1,150,2|8,0:0|0:0,0:0:0:0:
304,128,37912,2,0,L|312:48,1,75,8|8,0:1|0:0,0:0:0:0:
67,213,38209,6,0,L|70:106,1,75,10|2,0:0|0:0,0:0:0:0:
456,240,38654,2,0,P|488:168|448:104,1,150,14|8,0:0|0:0,0:0:0:0:
384,104,39100,1,8,0:1:0:0:
16,336,39397,6,0,L|176:264,1,150,14|8,0:0|0:1,0:0:0:0:
328,248,39991,1,10,0:0:0:0:
248,224,40139,2,0,L|248:120,1,75,8|8,0:0|0:1,0:0:0:0:
472,152,40436,6,0,P|496:56|456:8,1,150,2|8,0:0|0:0,0:0:0:0:
328,304,40882,2,0,L|192:200,2,150,8|10|8,0:1|0:0|0:1,0:0:0:0:
88,336,41773,5,10,0:0:0:0:
240,280,42070,1,10,0:1:0:0:
88,264,42367,2,0,L|88:176,1,75,10|8,0:0|0:0,0:0:0:0:
160,184,42664,1,8,0:1:0:0:
296,184,42813,6,0,P|376:136|392:64,1,150,10|8,0:0|0:0,0:0:0:0:
248,344,43258,2,0,L|96:256,2,150,8|10|10,0:1|0:0|0:1,0:0:0:0:
480,336,44149,5,8,0:0:0:0:
120,288,44446,2,0,P|96:192|144:160,1,150,14|10,0:0|0:0,0:0:0:0:
208,160,44892,2,0,L|216:64,1,75,8|8,0:0|0:1,0:0:0:0:
64,208,45189,6,0,P|32:120|88:64,1,150,6|8,0:0|0:0,0:0:0:0:
144,328,45634,2,0,L|272:232,2,150,8|10|8,0:1|0:0|0:1,0:0:0:0:
408,328,46526,6,0,L|416:232,1,75,10|10,0:0|0:0,0:0:0:0:
328,240,46823,1,8,0:1:0:0:
416,248,46971,2,0,P|448:184|400:120,1,150,2|8,0:0|0:0,0:0:0:0:
328,120,47417,1,8,0:1:0:0:
176,328,47565,6,0,P|192:240|272:200,1,150,2|8,0:0|0:0,0:0:0:0:
320,208,48011,1,8,0:1:0:0:
184,328,48308,2,0,L|120:272,2,75,10|8|8,0:0|0:0|0:1,0:0:0:0:
416,272,48902,5,8,0:0:0:0:
56,192,49199,2,0,L|48:40,1,150,14|10,0:0|0:0,0:0:0:0:
136,272,49644,2,0,L|144:176,1,75,8|8,0:0|0:1,0:0:0:0:
56,192,49941,6,0,L|232:168,1,150,2|8,0:0|0:0,0:0:0:0:
280,160,50387,1,8,0:1:0:0:
136,96,50684,1,10,0:0:0:0:
208,72,50832,1,8,0:0:0:0:
280,56,50981,1,8,0:1:0:0:
64,312,51278,5,4,0:3:0:0:
424,344,51575,2,0,P|448:248|416:208,1,150,14|8,0:0|0:0,0:0:0:0:
216,216,52169,1,8,0:1:0:0:
128,216,52318,6,0,P|104:112|144:72,1,150,2|8,0:0|0:0,0:0:0:0:
216,216,52763,2,0,P|240:112|208:80,1,150,8|10,0:1|0:0,0:0:0:0:
72,88,53357,1,8,0:1:0:0:
432,328,53654,6,0,L|312:232,2,150,14|8|8,0:0|0:0|0:1,0:0:0:0:
256,328,54545,2,0,L|248:224,1,75,8|10,0:0|0:0,0:0:0:0:
432,208,54991,5,8,0:1:0:0:
432,208,55139,2,0,L|264:152,1,150,10|8,0:0|0:1,0:0:0:0:
136,320,55585,2,0,P|112:224|152:168,1,150,2|0,0:0|0:0,0:0:0:0:
352,184,56030,6,0,L|224:88,2,150,14|8|10,0:0|0:1|0:0,0:0:0:0:
416,224,56773,1,8,0:0:0:0:
416,304,56922,1,8,0:1:0:0:
352,352,57070,1,8,0:0:0:0:
144,184,57219,6,0,L|272:88,2,150,14|8|10,0:0|0:1|0:0,0:0:0:0:
80,224,57962,1,8,0:0:0:0:
80,304,58111,1,8,0:1:0:0:
144,352,58259,1,8,0:0:0:0:
352,344,58407,5,14,0:0:0:0:
224,256,58704,2,0,L|144:256,2,75,8|8|10,0:1|0:0|0:0,0:0:0:0:
352,224,59149,2,0,L|360:128,1,75,8|8,0:0|0:1,0:0:0:0:
128,144,59446,5,14,0:0:0:0:
256,192,59595,12,2,60634,0:0:0:0:
208,232,60931,5,8,0:0:0:0:
144,168,61080,1,8,0:1:0:0:
208,104,61229,1,2,0:0:0:0:
440,80,61526,2,0,L|488:80,2,37.5,8|8|8,0:0|0:0|0:1,0:0:0:0:
80,352,61971,6,0,P|96:264|192:248,1,165.000005035401,14|8,0:0|0:1,0:0:0:0:
88,216,62417,1,2,0:0:0:0:
344,272,62714,2,0,P|376:200|328:112,1,165.000005035401,8|2,0:0|0:0,0:0:0:0:
136,272,63159,6,0,P|96:200|144:128,1,165.000005035401,14|8,0:0|0:1,0:0:0:0:
280,128,63605,2,0,P|376:88|392:16,1,165.000005035401,2|2,0:0|0:0,0:0:0:0:
248,32,64050,2,0,L|176:96,1,82.5000025177003,8|2,0:1|0:0,0:0:0:0:
400,272,64347,5,14,0:0:0:0:
272,272,64644,1,8,0:1:0:0:
352,232,64793,2,0,L|360:128,1,82.5000025177003,2|8,0:0|0:0,0:0:0:0:
216,176,65090,2,0,P|176:96|224:32,1,165.000005035401,8|2,0:0|0:0,0:0:0:0:
464,312,65535,6,0,L|464:208,1,82.5000025177003,4|4,0:3|0:3,0:0:0:0:
384,216,65832,1,8,0:1:0:0:
224,336,65981,2,0,L|48:256,1,165.000005035401,10|8,0:0|0:0,0:0:0:0:
72,192,66427,1,8,0:1:0:0:
456,280,66724,6,0,L|464:184,1,82.5000025177003,14|0,0:0|0:0,0:0:0:0:
336,176,67021,2,0,L|264:112,1,82.5000025177003,8|0,0:1|0:0,0:0:0:0:
432,48,67318,2,0,P|464:104|424:192,1,165.000005035401,10|8,0:0|0:1,0:0:0:0:
216,336,67763,6,0,P|176:248|224:184,1,165.000005035401,6|8,0:0|0:0,0:0:0:0:
304,192,68209,2,0,L|312:80,1,82.5000025177003,8|0,0:1|0:0,0:0:0:0:
96,128,68506,2,0,L|88:32,1,82.5000025177003,10|8,0:0|0:0,0:0:0:0:
171,45,68803,2,0,L|83:45,1,82.5000025177003,8|0,0:1|0:0,0:0:0:0:
304,344,69100,6,0,P|344:280|288:200,1,165.000005035401,14|8,0:0|0:1,0:0:0:0:
80,200,69694,2,0,L|72:112,1,82.5000025177003,10|8,0:0|0:0,0:0:0:0:
144,104,69991,1,8,0:1:0:0:
352,344,70139,6,0,P|432:312|448:208,1,165.000005035401,14|8,0:0|0:0,0:0:0:0:
384,208,70585,1,8,0:1:0:0:
384,128,70733,1,8,0:0:0:0:
456,96,70882,1,10,0:0:0:0:
240,360,71030,2,0,P|144:296|136:232,1,165.000005035401,2|2,3:2|3:2,0:0:0:0:
376,264,71476,5,14,0:0:0:0:
448,216,71625,1,8,0:0:0:0:
376,176,71773,1,8,0:1:0:0:
232,224,71922,2,0,P|200:144|240:72,1,165.000005035401,2|8,0:0|0:0,0:0:0:0:
344,80,72516,1,2,0:0:0:0:
120,344,72664,6,0,P|88:264|128:192,1,165.000005035401,14|8,0:0|0:1,0:0:0:0:
256,256,73110,2,0,P|280:176|232:112,1,165.000005035401,2|2,0:0|0:0,0:0:0:0:
104,152,73555,2,0,L|96:56,1,82.5000025177003,8|2,0:1|0:0,0:0:0:0:
312,72,73852,5,14,0:0:0:0:
184,280,74149,1,8,0:1:0:0:
264,280,74298,2,0,L|264:184,1,82.5000025177003,2|8,0:0|0:0,0:0:0:0:
112,192,74595,2,0,P|120:104|216:64,1,165.000005035401,10|0,0:0|0:0,0:0:0:0:
408,328,75040,6,0,L|200:168,2,247.500007553101,14|14|14,0:0|0:0|0:0,0:0:0:0:
32,328,76229,5,10,0:1:0:0:
32,328,76377,1,8,0:1:0:0:
256,328,76823,1,8,0:0:0:0:
176,296,76971,2,0,L|176:184,1,82.5000025177003,10|0,0:0|0:0,0:0:0:0:
320,208,77268,6,0,P|360:144|320:72,1,165.000005035401,14|0,0:0|0:0,0:0:0:0:
240,72,77714,1,10,0:0:0:0:
384,280,78011,1,8,0:1:0:0:
384,280,78159,1,14,0:0:0:0:
112,344,78456,6,0,P|72:288|120:208,1,165.000005035401,14|0,0:0|0:0,0:0:0:0:
192,208,78902,1,2,0:0:0:0:
48,128,79199,1,2,0:0:0:0:
192,72,79496,1,8,0:0:0:0:
416,344,79644,6,0,P|456:288|400:208,1,165.000005035401,14|8,0:0|0:1,0:0:0:0:
352,168,80090,1,8,0:0:0:0:
352,88,80238,1,8,0:0:0:0:
416,56,80387,1,8,0:1:0:0:
480,96,80535,1,8,0:3:0:0:
480,168,80684,1,8,0:0:0:0:
416,208,80832,1,4,0:3:0:0:
208,336,80981,6,0,L|64:232,2,150,14|8|8,0:0|0:0|0:1,0:0:0:0:
376,304,81872,1,10,0:0:0:0:
304,272,82021,1,8,0:1:0:0:
376,224,82169,6,0,L|376:136,1,75,8|8,0:0|0:1,0:0:0:0:
304,120,82466,1,8,0:0:0:0:
208,120,82763,1,10,0:1:0:0:
384,240,83060,1,10,0:0:0:0:
24,320,83357,5,14,0:0:0:0:
152,320,83654,2,0,L|280:216,1,150,8|8,0:0|0:1,0:0:0:0:
96,216,84248,1,8,0:1:0:0:
96,216,84397,1,14,0:0:0:0:
320,328,84694,5,2,0:0:0:0:
248,296,84842,1,8,0:1:0:0:
176,272,84991,1,8,0:0:0:0:
384,192,85139,2,0,L|472:192,1,75,8|10,0:1|0:0,0:0:0:0:
80,352,85585,6,0,P|48:256|88:216,1,150,14|8,0:0|0:0,0:0:0:0:
216,224,86030,1,10,0:1:0:0:
288,176,86179,1,8,0:0:0:0:
216,128,86328,1,10,0:0:0:0:
72,144,86476,2,0,L|72:48,1,75,8|8,0:0|0:1,0:0:0:0:
304,64,86773,5,2,0:0:0:0:
72,336,88110,5,14,0:0:0:0:
280,336,88258,1,2,0:0:0:0:
360,288,88407,1,8,0:1:0:0:
280,248,88555,1,8,0:0:0:0:
72,224,88704,1,10,0:0:0:0:
72,144,88852,1,8,0:0:0:0:
152,104,89001,1,8,0:1:0:0:
376,104,89149,1,14,0:0:0:0:
