osu file format v14

[General]
AudioFilename: audio.mp3
AudioLeadIn: 0
PreviewTime: 57249
Countdown: 0
SampleSet: Soft
StackLeniency: 0.3
Mode: 0
LetterboxInBreaks: 0
WidescreenStoryboard: 1

[Editor]
DistanceSpacing: 3.4
BeatDivisor: 4
GridSize: 32
TimelineZoom: 2.1

[Metadata]
Title:Rakuen no Tsubasa (TV Size)
TitleUnicode:楽園の翼 (TV Size)
Artist:Kurosaki Maon
ArtistUnicode:黒崎真音
Creator:Shocko
Version:Insane
Source:グリザイアの果実
Tags:-LE FRUIT DE LA GRISAIA- grisaia no kajitsu frontwing visual novel vn anime opening op japanese jpop j-pop 桑島由一 藤間仁 Elements Garden
BeatmapID:2440938
BeatmapSetID:1170057

[Difficulty]
HPDrainRate:6
CircleSize:4.4
OverallDifficulty:8.2
ApproachRate:9
SliderMultiplier:1.5
SliderTickRate:1

[Events]
//Background and Video events
0,0,"yandere.jpg",0,0
Video,-1100,"grisaia.mp4"
//Break Periods
//Storyboard Layer 0 (Background)
//Storyboard Layer 1 (Fail)
//Storyboard Layer 2 (Pass)
//Storyboard Layer 3 (Foreground)
//Storyboard Layer 4 (Overlay)
//Storyboard Sound Samples

[TimingPoints]
-523,387.096774193548,4,2,1,70,1,0
638,-100,4,2,1,50,0,0
1025,-133.333333333333,4,2,1,50,0,0
4122,-83.3333333333333,4,2,1,70,0,0
4315,-83.3333333333333,4,2,1,5,0,0
4412,-83.3333333333333,4,2,1,70,0,0
4606,-83.3333333333333,4,2,1,5,0,0
4702,-83.3333333333333,4,2,1,70,0,0
5089,-83.3333333333333,4,2,1,5,0,0
5186,-83.3333333333333,4,2,1,70,0,0
5380,-83.3333333333333,4,2,1,5,0,0
5476,-83.3333333333333,4,2,1,70,0,0
7799,-200,4,2,1,40,0,0
8573,-83.3333333333333,4,2,2,80,0,0
8767,-83.3333333333333,4,2,1,80,0,0
10412,-83.3333333333333,4,2,1,5,0,0
10509,-83.3333333333333,4,2,1,80,0,0
15057,-83.3333333333333,4,2,1,5,0,0
15154,-83.3333333333333,4,2,1,80,0,0
16412,-83.3333333333333,4,2,1,5,0,0
16509,-83.3333333333333,4,2,1,80,0,0
18251,-83.3333333333333,4,2,1,5,0,0
18347,-83.3333333333333,4,2,1,80,0,0
18541,-83.3333333333333,4,2,1,5,0,0
18638,-83.3333333333333,4,2,1,80,0,0
19025,-83.3333333333333,4,2,1,5,0,0
19122,-83.3333333333333,4,2,1,80,0,0
19315,-83.3333333333333,4,2,1,5,0,0
19412,-83.3333333333333,4,2,1,80,0,0
21154,-125,4,2,3,40,0,0
31896,-125,4,2,1,5,0,0
31993,-125,4,2,1,70,0,0
32573,-100,4,2,1,60,0,0
37509,-100,4,2,1,5,0,0
37606,-100,4,2,1,60,0,0
44380,-83.3333333333333,4,2,1,60,0,0
44476,-83.3333333333333,4,2,1,5,0,0
44573,-83.3333333333333,4,2,1,60,0,0
44670,-83.3333333333333,4,2,1,5,0,0
44960,-83.3333333333333,4,2,1,60,0,0
45928,-100,4,2,1,60,0,0
55218,-100,4,2,1,70,0,0
56573,-83.3333333333333,4,2,1,80,0,0
58122,-83.3333333333333,4,2,2,80,0,1
58315,-83.3333333333333,4,2,1,80,0,1
58993,-83.3333333333333,4,2,1,5,0,1
59089,-83.3333333333333,4,2,1,80,0,1
59960,-83.3333333333333,4,2,1,5,0,1
60057,-83.3333333333333,4,2,1,80,0,1
61509,-83.3333333333333,4,2,1,5,0,1
61606,-83.3333333333333,4,2,1,80,0,1
64606,-83.3333333333333,4,2,1,5,0,1
64702,-83.3333333333333,4,2,1,80,0,1
66154,-83.3333333333333,4,2,1,5,0,1
66251,-83.3333333333333,4,2,1,80,0,1
67702,-83.3333333333333,4,2,1,5,0,1
67799,-83.3333333333333,4,2,1,80,0,1
70799,-83.3333333333333,4,2,1,5,0,1
70896,-83.3333333333333,4,2,1,80,0,1
72347,-83.3333333333333,4,2,1,5,0,1
72444,-83.3333333333333,4,2,1,80,0,1
73896,-83.3333333333333,4,2,1,5,0,1
73993,-83.3333333333333,4,2,1,80,0,1
76993,-83.3333333333333,4,2,1,5,0,1
77089,-83.3333333333333,4,2,1,80,0,1
80186,-83.3333333333333,4,2,1,5,0,1
80283,-83.3333333333333,4,2,1,80,0,1
80476,-83.3333333333333,4,2,1,5,0,1
80573,-83.3333333333333,4,2,1,80,0,1
80960,-83.3333333333333,4,2,1,5,0,1
81057,-83.3333333333333,4,2,1,80,0,1
81251,-83.3333333333333,4,2,1,5,0,1
81347,-83.3333333333333,4,2,1,80,0,1
81541,-83.3333333333333,4,2,1,80,0,0
83089,-83.3333333333333,4,2,2,80,0,0
83283,-83.3333333333333,4,2,1,80,0,0
83960,-83.3333333333333,4,2,1,5,0,0
84057,-83.3333333333333,4,2,1,80,0,0
88896,-83.3333333333333,4,2,1,40,0,0
89670,-83.3333333333333,4,2,1,5,0,0

[Colours]
Combo1 : 255,159,159
Combo2 : 255,215,196
Combo3 : 255,255,185
Combo4 : 255,185,185
Combo5 : 255,190,159

[HitObjects]
0,362,638,6,0,P|40:356|79:350,1,75,2|2,0:0|0:0,0:0:0:0:
118,283,928,1,2,0:0:0:0:
122,277,1025,6,0,P|118:237|112:184,2,84.3750032186509,6|2|2,3:2|0:0|0:0,0:0:0:0:
210,225,1799,2,0,P|214:185|219:132,2,84.3750032186509,2|2|2,0:0|0:0|0:0,0:0:0:0:
288,299,2573,2,0,B|410:276|381:364|519:345,1,225.000008583069,6|0,3:2|0:0,0:0:0:0:
511,255,3735,1,2,0:0:0:0:
511,255,3928,1,2,0:0:0:0:
310,65,4122,6,0,P|359:59|414:52,1,89.9999972534181,8|0,3:0|0:0,0:0:0:0:
462,147,4412,2,0,B|417:141|372:136,1,89.9999972534181,8|0,3:0|0:0,0:0:0:0:
309,209,4702,1,4,0:3:0:0:
184,0,4896,6,0,P|192:49|200:96,1,89.9999972534181,8|0,0:3|0:0,0:0:0:0:
106,193,5186,2,0,P|90:147|112:111,1,89.9999972534181,4|0,0:3|0:0,0:0:0:0:
198,88,5476,1,4,0:3:0:0:
78,20,5670,5,4,3:2:0:0:
286,0,7799,5,2,0:0:0:0:
231,58,7993,2,0,P|212:53|194:49,2,37.5,2|2|2,0:0|0:0|0:0,0:0:0:0:
489,40,8573,6,0,P|403:33|360:107,1,179.999994506836,14|2,3:2|3:2,0:0:0:0:
499,233,9154,2,0,P|487:189|480:145,1,89.9999972534181,10|0,0:0|0:0,0:0:0:0:
394,287,9541,5,2,3:2:0:0:
502,353,9734,1,0,3:0:0:0:
499,233,9928,1,10,0:0:0:0:
359,378,10122,2,0,P|301:331|237:359,1,134.999995880127,2|0,3:2|0:0,0:0:0:0:
219,349,10509,1,2,3:2:0:0:
62,296,10702,6,0,P|72:198|81:100,1,179.999994506836,8|0,0:0|3:0,0:0:0:0:
0,26,11283,1,2,3:2:0:0:
0,26,11476,1,10,0:0:0:0:
160,156,11670,6,0,P|224:103|331:131,1,179.999994506836,2|0,3:2|3:0,0:0:0:0:
439,287,12251,1,10,0:0:0:0:
504,216,12444,2,0,P|460:210|413:201,1,89.9999972534181,2|0,0:0|3:0,0:0:0:0:
314,117,12831,1,2,3:2:0:0:
416,17,13025,1,10,0:0:0:0:
314,117,13218,6,0,P|319:212|326:308,1,179.999994506836,2|0,3:2|3:0,0:0:0:0:
216,382,13799,2,0,P|156:327|61:360,1,179.999994506836,8|0,0:0|3:0,0:0:0:0:
3,252,14380,1,2,3:2:0:0:
3,252,14573,1,10,0:0:0:0:
261,173,14767,6,0,P|264:108|275:4,1,134.999995880127,6|0,3:2|0:0,0:0:0:0:
251,9,15154,1,2,3:2:0:0:
108,95,15347,1,10,0:0:0:0:
261,173,15541,6,0,B|339:154|358:219|436:205,1,179.999994506836,2|0,3:2|3:0,0:0:0:0:
495,369,16122,2,0,P|445:330|377:354,1,134.999995880127,10|0,0:0|0:0,0:0:0:0:
253,301,16509,6,0,P|298:292|341:284,1,89.9999972534181,6|0,3:2|0:0,0:0:0:0:
376,48,16896,1,10,0:0:0:0:
244,136,17089,2,0,B|179:130|179:130|149:102|149:102|68:96,1,179.999994506836,2|0,3:2|3:0,0:0:0:0:
0,195,17670,1,10,0:0:0:0:
142,367,17864,5,4,0:3:0:0:
148,370,17960,1,4,0:3:0:0:
154,373,18057,2,0,P|203:368|247:364,1,89.9999972534181,14|0,0:0|0:0,0:0:0:0:
330,307,18347,2,0,P|325:275|320:303,1,89.9999972534181,10|0,2:3|2:0,0:0:0:0:
244,365,18638,1,6,0:3:0:0:
224,164,18831,6,0,B|264:157|264:157|276:149|276:149|319:143,1,89.9999972534181,10|0,0:3|0:0,0:0:0:0:
427,52,19122,2,0,B|430:37|422:18|422:18|455:30|434:62,1,89.9999972534181,6|0,0:3|0:0,0:0:0:0:
383,125,19412,1,6,0:3:0:0:
248,56,19606,5,10,0:0:0:0:
489,124,19799,1,10,0:0:0:0:
248,56,20186,1,10,0:0:0:0:
0,268,21154,5,6,3:2:0:0:
77,358,21347,2,0,P|137:366|195:381,1,120,0|0,3:0|0:0,0:0:0:0:
295,311,21928,2,0,P|258:279|175:300,1,120,0|0,0:0|0:0,0:0:0:0:
190,286,22702,6,0,P|195:226|202:166,1,120,0|0,0:0|0:0,0:0:0:0:
133,0,23283,1,2,0:0:0:0:
89,74,23476,2,0,P|98:106|103:136,1,60,2|2,0:0|0:0,0:0:0:0:
243,91,23864,2,0,P|247:61|256:33,1,60,2|0,0:0|0:0,0:0:0:0:
321,0,24154,1,0,0:0:0:0:
328,3,24251,5,0,3:0:0:0:
391,125,24444,2,0,P|447:118|510:110,1,120,0|0,3:0|0:0,0:0:0:0:
430,245,25025,2,0,P|382:218|324:238,1,120,0|0,0:0|0:0,0:0:0:0:
324,239,25799,6,0,P|336:298|342:358,1,120,0|0,0:0|0:0,0:0:0:0:
416,195,26380,1,2,0:0:0:0:
348,144,26573,2,0,P|353:114|361:85,1,60,2|0,0:0|0:0,0:0:0:0:
347,49,26864,2,0,P|310:29|257:36,1,90,2|2,0:0|0:0,0:0:0:0:
184,157,27347,5,0,3:0:0:0:
270,229,27541,2,0,P|263:283|253:348,1,120,0|0,3:0|0:0,0:0:0:0:
158,384,28122,2,0,P|111:348|54:358,1,120
31,213,28702,5,2,0:0:0:0:
118,164,28896,2,0,P|150:168|176:175,1,60,2|0,0:0|0:0,0:0:0:0:
48,96,29283,2,0,P|45:62|43:36,1,60,2|0,0:0|0:0,0:0:0:0:
146,0,29670,1,2,0:0:0:0:
231,59,29864,2,0,P|292:50|360:41,1,120,2|0,0:0|0:0,0:0:0:0:
405,90,30347,1,0,0:0:0:0:
415,100,30444,5,2,3:2:0:0:
306,238,30638,1,2,3:2:0:0:
306,238,31025,2,0,P|313:301|320:384,1,120,2|0,0:0|0:0,0:0:0:0:
152,381,31606,2,0,P|113:362|58:375,1,90,2|0,0:0|0:0,0:0:0:0:
7,315,31993,5,8,0:0:0:0:
162,261,32186,1,8,0:3:0:0:
7,315,32380,1,4,0:3:0:0:
192,155,32573,6,0,P|195:82|200:5,1,150,4|0,3:2|3:0,0:0:0:0:
99,89,33154,1,8,0:0:0:0:
313,26,33347,1,8,0:0:0:0:
313,26,33444,1,8,0:0:0:0:
313,26,33541,6,0,P|372:19|411:14,1,75,4|0,3:2|3:0,0:0:0:0:
484,94,33928,1,8,0:0:0:0:
433,176,34122,2,0,P|360:166|263:155,1,150,0|0,3:0|3:0,0:0:0:0:
240,249,34702,2,0,P|281:245|320:240,1,75,8|0,0:0|0:0,0:0:0:0:
125,372,35089,6,0,P|71:328|-2:352,1,150,0|8,3:0|0:0,0:0:0:0:
161,219,35670,1,2,3:2:0:0:
68,175,35864,2,0,P|64:146|56:101,1,75,2|0,0:0|3:0,0:0:0:0:
137,25,36251,1,10,0:0:0:0:
137,25,36444,1,2,0:0:0:0:
275,239,36638,6,0,P|322:229|358:222,1,75,10|0,0:3|0:0,0:0:0:0:
423,252,36928,1,8,0:0:0:0:
431,260,37025,1,10,0:0:0:0:
298,125,37218,6,0,P|291:63|285:6,1,112.5,2|0,3:2|0:0,0:0:0:0:
366,3,37606,1,2,3:2:0:0:
219,131,37799,1,8,0:0:0:0:
366,3,37993,6,0,P|452:1|480:80,1,150,6|0,3:2|3:0,0:0:0:0:
433,172,38573,2,0,P|396:168|359:163,1,75,10|0,0:0|0:0,0:0:0:0:
279,274,38960,2,0,P|223:280|167:288,2,112.5,10|10|6,0:0|0:3|0:3,0:0:0:0:
490,288,39735,5,6,3:2:0:0:
410,307,39928,1,0,3:0:0:0:
362,375,40122,1,8,0:0:0:0:
244,197,40315,2,0,P|239:117|233:46,1,150,2|0,3:2|3:0,0:0:0:0:
312,0,40896,1,8,0:0:0:0:
144,89,41089,1,2,0:0:0:0:
137,90,41186,1,2,0:0:0:0:
131,91,41283,5,6,3:2:0:0:
65,29,41476,1,0,3:0:0:0:
1,141,41670,1,8,0:0:0:0:
65,227,41864,2,0,P|100:217|137:211,1,75,2|2,3:2|0:0,0:0:0:0:
359,55,42251,1,2,3:2:0:0:
290,9,42444,2,0,P|286:51|281:108,1,75,10|0,0:0|0:0,0:0:0:0:
367,255,42831,6,0,B|443:264|440:218|517:235,1,150,6|8,3:2|0:0,0:0:0:0:
292,367,43412,2,0,P|251:322|169:332,1,150,2|0,3:2|3:0,0:0:0:0:
343,177,43993,2,0,P|347:142|355:78,1,75,10|0,0:0|0:0,0:0:0:0:
140,31,44380,6,0,L|95:38,1,44.999998626709,10|0,0:0|0:0,0:0:0:0:
44,112,44573,2,0,L|-1:105,1,44.999998626709,10|0,0:0|0:0,0:0:0:0:
146,295,44960,5,4,3:2:0:0:
507,99,45347,5,8,0:3:0:0:
376,62,45541,1,8,0:3:0:0:
466,21,45735,1,4,0:3:0:0:
359,178,45928,6,0,P|364:225|369:263,1,75,6|0,3:2|0:0,0:0:0:0:
497,296,46315,1,10,0:0:0:0:
399,383,46509,2,0,P|362:375|303:369,1,75,2|8,0:0|0:0,0:0:0:0:
134,311,46896,1,2,0:0:0:0:
265,214,47089,1,10,0:0:0:0:
134,311,47283,2,0,P|141:347|146:384,1,75,2|8,0:0|0:0,0:0:0:0:
52,261,47670,1,0,0:0:0:0:
182,71,47864,5,10,0:0:0:0:
102,8,48057,2,0,P|68:19|18:30,1,75,2|8,0:0|0:0,0:0:0:0:
180,230,48444,1,2,3:2:0:0:
233,153,48638,1,10,0:0:0:0:
102,8,48831,1,2,3:2:0:0:
364,84,49025,6,0,P|412:78|457:75,1,75,10|0,0:0|0:0,0:0:0:0:
243,9,49412,1,8,0:0:0:0:
342,169,49606,2,0,P|337:206|333:243,1,75,2|8,0:0|0:0,0:0:0:0:
149,335,49993,1,2,0:0:0:0:
305,384,50186,1,10,0:0:0:0:
149,335,50380,2,0,P|104:343|68:349,1,75,2|8,0:0|0:0,0:0:0:0:
332,243,50767,5,2,0:0:0:0:
404,317,50960,1,10,0:0:0:0:
502,203,51154,2,0,P|506:169|515:116,1,75,2|8,0:0|0:0,0:0:0:0:
292,55,51541,1,2,3:2:0:0:
389,0,51735,2,0,P|433:8|465:16,1,75,8|0,0:0|0:0,0:0:0:0:
268,177,52122,6,0,P|217:141|128:173,1,150,4|8,3:2|0:0,0:0:0:0:
36,79,52702,2,0,P|42:122|47:159,1,75,0|0,3:0|0:0,0:0:0:0:
196,321,53089,1,0,3:0:0:0:
96,384,53283,2,0,P|59:377|22:370,1,75,8|0,0:0|3:0,0:0:0:0:
269,226,53670,5,14,0:0:0:0:
288,121,53864,1,8,0:3:0:0:
306,13,54057,1,2,0:0:0:0:
160,144,54251,1,8,0:3:0:0:
411,222,54444,1,2,0:0:0:0:
326,290,54638,1,4,0:3:0:0:
374,129,54831,2,0,P|415:135|457:143,1,75,8|0,0:0|0:0,0:0:0:0:
500,76,55122,1,8,0:0:0:0:
505,69,55218,6,0,P|478:43|434:47,1,75,6|0,3:2|3:0,0:0:0:0:
277,138,55606,2,0,P|284:181|291:225,1,75,8|0,0:0|3:0,0:0:0:0:
418,343,55993,1,8,0:0:0:0:
309,383,56186,5,2,3:2:0:0:
407,247,56380,1,4,0:3:0:0:
309,383,56573,2,0,B|216:403|234:331|128:362,1,179.999994506836,14|4,0:0|0:3,0:0:0:0:
0,277,57154,1,4,0:3:0:0:
83,248,57347,1,4,0:3:0:0:
201,49,57541,5,8,0:0:0:0:
283,99,57735,1,2,0:0:0:0:
280,107,57831,1,8,0:0:0:0:
278,115,57928,1,10,0:0:0:0:
170,219,58122,6,0,P|175:175|181:124,1,89.9999972534181,14|0,3:2|0:0,0:0:0:0:
0,277,58509,1,2,3:2:0:0:
118,356,58702,2,0,P|167:321|245:337,1,134.999995880127,10|0,0:0|0:0,0:0:0:0:
313,302,59089,5,2,3:2:0:0:
294,201,59283,1,2,3:2:0:0:
277,95,59476,1,10,0:0:0:0:
313,302,59670,2,0,P|386:311|458:323,1,134.999995880127,2|0,3:2|0:0,0:0:0:0:
468,302,60057,1,2,3:2:0:0:
219,195,60251,6,0,P|134:210|80:142,1,179.999994506836,8|0,0:0|3:0,0:0:0:0:
157,38,60831,1,2,3:2:0:0:
157,38,61025,1,10,0:0:0:0:
311,175,61218,6,0,P|308:234|304:340,1,134.999995880127,2|0,3:2|0:0,0:0:0:0:
288,330,61606,1,2,3:2:0:0:
384,263,61799,1,10,0:0:0:0:
453,351,61993,2,0,P|459:306|469:262,1,89.9999972534181,2|0,0:0|3:0,0:0:0:0:
311,175,62380,1,2,3:2:0:0:
418,83,62573,1,10,0:0:0:0:
311,175,62767,6,0,B|218:154|237:217|131:202,1,179.999994506836,2|0,3:2|3:0,0:0:0:0:
167,98,63347,1,8,0:0:0:0:
295,265,63541,2,0,P|285:309|278:353,1,89.9999972534181,0|0,3:0|0:0,0:0:0:0:
136,360,63928,1,2,3:2:0:0:
136,360,64122,1,10,0:0:0:0:
302,182,64315,6,0,P|382:175|415:211,1,134.999995880127,6|0,3:2|0:0,0:0:0:0:
455,283,64702,1,2,3:2:0:0:
277,353,64896,1,10,0:0:0:0:
455,283,65089,6,0,P|464:181|472:95,1,179.999994506836,6|0,3:2|3:0,0:0:0:0:
275,21,65670,1,10,0:0:0:0:
359,131,65864,6,0,P|409:89|472:104,1,134.999995880127,6|0,3:2|0:0,0:0:0:0:
496,136,66251,1,2,3:2:0:0:
512,15,66444,1,10,0:0:0:0:
446,217,66638,6,0,P|358:202|253:188,1,179.999994506836,6|0,3:2|3:0,0:0:0:0:
164,128,67218,1,8,0:0:0:0:
327,312,67412,6,0,P|411:292|456:351,1,134.999995880127,6|0,3:2|0:0,0:0:0:0:
450,352,67799,1,2,3:2:0:0:
248,372,67993,2,0,P|211:366|143:359,1,89.9999972534181,10|2,0:0|0:0,0:0:0:0:
91,324,68283,1,8,0:0:0:0:
78,330,68380,5,2,3:2:0:0:
260,283,68573,1,2,3:2:0:0:
119,154,68767,1,10,0:0:0:0:
260,283,68960,6,0,B|333:289|333:289|361:317|361:317|437:322,1,179.999994506836,6|8,3:2|0:3,0:0:0:0:
512,114,69541,2,0,P|465:121|418:129,1,89.9999972534181,8|2,0:0|0:0,0:0:0:0:
363,90,69831,1,4,0:3:0:0:
350,79,69928,5,6,0:3:0:0:
260,283,70122,1,10,0:3:0:0:
267,318,70218,1,8,0:0:0:0:
272,349,70315,1,10,0:0:0:0:
170,83,70509,6,0,P|102:76|25:67,1,134.999995880127,6|0,3:2|0:0,0:0:0:0:
11,86,70896,1,2,3:2:0:0:
95,212,71089,2,0,P|143:201|193:191,1,89.9999972534181,10|0,0:0|0:0,0:0:0:0:
250,152,71380,1,2,0:0:0:0:
258,139,71476,5,6,3:2:0:0:
351,272,71670,1,2,3:2:0:0:
183,193,71864,1,10,0:0:0:0:
398,143,72057,2,0,P|403:79|413:2,1,134.999995880127,2|0,3:2|0:0,0:0:0:0:
433,0,72444,1,2,3:2:0:0:
257,139,72638,6,0,B|167:156|172:92|76:118,1,179.999994506836,8|0,0:0|3:0,0:0:0:0:
19,219,73218,1,2,3:2:0:0:
19,219,73412,1,10,0:0:0:0:
212,361,73606,6,0,P|259:321|339:342,1,134.999995880127,2|0,3:2|0:0,0:0:0:0:
389,287,73993,1,2,3:2:0:0:
421,371,74186,1,10,0:0:0:0:
302,244,74380,2,0,P|300:212|295:140,1,89.9999972534181,2|0,0:0|3:0,0:0:0:0:
349,22,74767,1,2,3:2:0:0:
226,85,74960,1,10,0:0:0:0:
349,22,75154,6,0,P|434:19|469:109,1,179.999994506836,2|0,3:2|3:0,0:0:0:0:
343,225,75735,1,8,0:0:0:0:
268,163,75928,2,0,P|314:156|358:150,1,89.9999972534181,0|0,3:0|0:0,0:0:0:0:
430,252,76315,1,2,3:2:0:0:
430,252,76509,1,10,0:0:0:0:
194,378,76702,6,0,P|142:339|68:368,1,134.999995880127,6|0,3:2|0:0,0:0:0:0:
13,316,77089,1,2,3:2:0:0:
109,207,77283,1,10,0:0:0:0:
276,347,77476,2,0,B|374:329|356:389|454:379,1,179.999994506836,2|0,3:2|3:0,0:0:0:0:
506,270,78057,1,10,0:0:0:0:
506,270,78251,1,2,0:0:0:0:
339,32,78444,6,0,P|346:82|355:150,1,89.9999972534181,6|0,3:2|3:0,0:0:0:0:
281,200,78831,1,10,0:0:0:0:
506,270,79025,2,0,P|443:210|360:234,1,179.999994506836,2|0,3:2|3:0,0:0:0:0:
281,347,79606,1,10,0:2:0:0:
281,347,79799,1,2,0:0:0:0:
222,88,79993,6,0,P|175:82|115:72,1,89.9999972534181,8|0,3:0|0:0,0:0:0:0:
10,172,80283,2,0,P|51:186|92:168,1,89.9999972534181,8|0,3:0|0:0,0:0:0:0:
132,75,80573,1,4,0:3:0:0:
312,205,80767,6,0,P|363:196|402:189,1,89.9999972534181,8|0,0:3|0:0,0:0:0:0:
499,138,81057,2,0,P|470:104|427:100,1,89.9999972534181,4|0,0:3|0:0,0:0:0:0:
312,205,81347,1,4,0:3:0:0:
435,313,81541,5,4,3:2:0:0:
11,69,82702,1,2,0:0:0:0:
50,61,82799,1,2,0:0:0:0:
81,84,82896,1,2,0:0:0:0:
116,107,82993,1,2,0:0:0:0:
149,99,83089,6,0,P|153:55|160:9,1,89.9999972534181,14|0,3:2|3:0,0:0:0:0:
30,219,83476,1,8,0:0:0:0:
142,307,83670,2,0,P|226:296|283:293,1,134.999995880127,2|0,3:2|0:0,0:0:0:0:
298,274,84057,1,2,3:2:0:0:
201,165,84251,1,10,0:0:0:0:
409,57,84444,1,2,0:0:0:0:
410,51,84541,1,2,0:0:0:0:
411,45,84638,6,0,P|468:38|509:34,1,89.9999972534181,2|0,3:2|3:0,0:0:0:0:
268,84,85025,2,0,P|246:39|258:-6,1,89.9999972534181,10|0,0:0|3:0,0:0:0:0:
403,164,85412,1,2,0:0:0:0:
379,273,85606,1,2,3:2:0:0:
360,380,85799,1,10,0:0:0:0:
491,330,85993,1,2,0:0:0:0:
360,380,86186,6,0,P|316:367|257:361,1,89.9999972534181,0|0,3:0|3:0,0:0:0:0:
139,146,86573,1,8,0:0:0:0:
220,201,86767,2,0,P|215:246|210:300,1,89.9999972534181,2|0,0:0|3:0,0:0:0:0:
92,372,87154,5,2,3:2:0:0:
228,18,87541,1,6,3:2:0:0:
256,192,87638,12,0,89670,0:0:0:0:
