osu file format v14

[General]
AudioFilename: audio.mp3
AudioLeadIn: 0
PreviewTime: 57249
Countdown: 0
SampleSet: Soft
StackLeniency: 0.7
Mode: 0
LetterboxInBreaks: 0
WidescreenStoryboard: 1

[Editor]
DistanceSpacing: 1
BeatDivisor: 16
GridSize: 32
TimelineZoom: 2.6

[Metadata]
Title:Rakuen no Tsubasa (TV Size)
TitleUnicode:楽園の翼 (TV Size)
Artist:Kurosaki Maon
ArtistUnicode:黒崎真音
Creator:Shocko
Version:Normal
Source:グリザイアの果実
Tags:-LE FRUIT DE LA GRISAIA- grisaia no kajitsu frontwing visual novel vn anime opening op japanese jpop j-pop 桑島由一 藤間仁 Elements Garden
BeatmapID:2442817
BeatmapSetID:1170057

[Difficulty]
HPDrainRate:4
CircleSize:3
OverallDifficulty:4
ApproachRate:5
SliderMultiplier:1.2
SliderTickRate:1

[Events]
//Background and Video events
0,0,"yandere.jpg",0,0
Video,-1100,"grisaia.mp4"
//Break Periods
//Storyboard Layer 0 (Background)
//Storyboard Layer 1 (Fail)
//Storyboard Layer 2 (Pass)
//Storyboard Layer 3 (Foreground)
//Storyboard Layer 4 (Overlay)
//Storyboard Sound Samples

[TimingPoints]
-523,387.096774193548,4,2,1,70,1,0
8573,-90.9090909090909,4,2,2,80,0,0
8767,-90.9090909090909,4,2,1,80,0,0
21154,-100,4,2,3,40,0,0
31993,-100,4,2,1,60,0,0
32573,-100,4,2,1,60,0,0
56573,-100,4,2,1,80,0,0
58122,-90.9090909090909,4,2,2,80,0,1
58315,-90.9090909090909,4,2,1,80,0,1
81541,-90.9090909090909,4,2,1,80,0,0
83089,-90.9090909090909,4,2,2,80,0,0
83283,-90.9090909090909,4,2,1,80,0,0
88896,-90.9090909090909,4,2,1,40,0,0
89670,-90.9090909090909,4,2,1,5,0,0

[Colours]
Combo1 : 255,159,159
Combo2 : 255,215,196
Combo3 : 255,255,185
Combo4 : 255,185,185
Combo5 : 255,190,159

[HitObjects]
0,214,1025,6,0,P|-2:303|133:344,1,240,6|2,3:2|0:0,0:0:0:0:
361,317,2573,2,0,P|372:213|398:64,1,240,6|0,3:2|0:0,0:0:0:0:
158,37,4122,6,0,P|113:36|70:60,2,90,8|8|8,3:0|0:3|0:3,0:0:0:0:
195,83,4896,2,0,P|189:124|183:172,2,90,8|8|8,3:0|0:3|0:3,0:0:0:0:
241,45,5670,1,4,3:2:0:0:
21,354,8573,6,0,P|86:348|161:334,1,132.00000402832,14|2,3:2|3:2,0:0:0:0:
208,369,9154,1,10,0:0:0:0:
341,368,9541,2,0,P|352:317|356:294,1,66.0000020141602,2|0,3:2|3:0,0:0:0:0:
327,248,9928,1,10,0:0:0:0:
327,248,10122,2,0,P|386:225|462:262,1,132.00000402832,2|2,3:2|3:2,0:0:0:0:
505,214,10702,1,8,0:0:0:0:
478,84,11089,2,0,P|484:49|492:13,2,66.0000020141602,0|2|10,3:0|3:2|0:0,0:0:0:0:
416,108,11670,6,0,P|355:96|262:82,1,132.00000402832,2|0,3:2|3:0,0:0:0:0:
240,36,12251,1,10,0:0:0:0:
240,36,12444,1,2,0:0:0:0:
121,94,12831,2,0,P|89:80|44:82,1,66.0000020141602,2|10,3:2|0:0,0:0:0:0:
14,128,13218,2,0,P|23:209|32:273,1,132.00000402832,2|0,3:2|3:0,0:0:0:0:
2,319,13799,1,8,0:0:0:0:
118,380,14186,2,0,P|160:370|207:360,1,66.0000020141602,0|2,3:0|3:2,0:0:0:0:
247,378,14573,1,10,0:0:0:0:
247,378,14767,6,0,P|244:310|231:235,1,132.00000402832,6|2,3:2|3:2,0:0:0:0:
281,199,15347,1,10,0:0:0:0:
281,199,15541,2,0,P|212:227|153:202,1,132.00000402832,2|0,3:2|3:0,0:0:0:0:
120,156,16122,1,10,0:0:0:0:
169,33,16509,2,0,P|196:42|242:48,1,66.0000020141602,6|0,3:2|0:0,0:0:0:0:
292,77,16896,1,10,0:0:0:0:
292,77,17089,2,0,P|352:33|425:57,1,132.00000402832,2|0,3:2|3:0,0:0:0:0:
458,80,17670,1,10,0:0:0:0:
354,160,18057,6,0,P|316:151|245:142,2,99.0000030212403,14|8|8,0:0|0:3|0:3,0:0:0:0:
407,200,18831,2,0,P|452:176|503:178,2,99.0000030212403,8|4|4,0:3|0:3|0:3,0:0:0:0:
386,263,19606,1,10,0:0:0:0:
386,263,19799,1,10,0:0:0:0:
319,364,20186,1,10,0:0:0:0:
19,380,21154,6,0,P|12:314|0:248,1,120,6|2,3:2|0:0,0:0:0:0:
29,207,21735,2,0,P|94:230|175:148,1,180,2|0,0:0|0:0,0:0:0:0:
148,46,22702,2,0,P|203:53|268:61,1,120
321,86,23283,1,2,0:0:0:0:
321,86,23476,2,0,P|366:53|448:64,1,120,2|2,0:0|0:0,0:0:0:0:
485,159,24251,6,0,P|473:220|465:298,1,120,2|2,3:2|0:0,0:0:0:0:
431,326,24831,2,0,B|331:305|352:375|257:364,1,180,2|0,0:0|0:0,0:0:0:0:
148,324,25799,2,0,P|142:267|130:204,1,120
92,166,26380,1,2,0:0:0:0:
92,166,26573,2,0,P|48:186|3:178,2,90,2|2|2,0:0|0:0|0:0,0:0:0:0:
115,110,27347,6,0,P|188:124|259:130,1,120,2|0,3:2|0:0,0:0:0:0:
272,82,27928,2,0,P|356:103|418:43,1,180,2|0,0:0|0:0,0:0:0:0:
473,150,28896,2,0,P|462:210|456:274,1,120
384,365,29670,1,2,0:0:0:0:
384,365,29864,2,0,P|311:350|266:343,1,120,2|0,0:0|0:0,0:0:0:0:
215,310,30444,6,0,P|153:326|71:332,1,120,2|0,3:2|0:0,0:0:0:0:
41,354,31025,2,0,P|6:276|73:191,1,180,2|0,0:0|0:0,0:0:0:0:
102,92,31993,2,0,P|97:62|91:32,2,60,8|8|4,0:0|0:3|0:3,0:0:0:0:
163,108,32573,2,0,P|221:95|291:84,1,120,6|2,3:2|3:2,0:0:0:0:
319,38,33154,1,10,0:0:0:0:
426,90,33541,6,0,P|411:148|404:207,1,120,6|10,3:2|0:0,0:0:0:0:
443,253,34122,2,0,P|362:241|307:321,1,180,2|8,3:2|0:0,0:0:0:0:
210,382,35089,2,0,P|150:373|72:369,1,120,0|8,3:0|0:0,0:0:0:0:
39,350,35670,1,2,3:2:0:0:
39,350,35864,2,0,P|34:310|28:278,1,60,2|0,0:0|3:0,0:0:0:0:
73,248,36251,2,0,P|80:213|87:183,1,60,10|2,0:0|0:0,0:0:0:0:
55,136,36638,5,8,0:3:0:0:
151,63,37025,1,10,0:0:0:0:
151,63,37218,2,0,P|211:52|280:38,1,120,2|2,3:2|3:2,0:0:0:0:
327,68,37799,1,8,0:0:0:0:
327,68,37993,2,0,P|368:108|367:167,1,120,6|0,3:2|3:0,0:0:0:0:
312,190,38573,1,10,0:0:0:0:
196,157,38960,2,0,P|158:150|95:143,2,90,8|8|4,0:0|0:3|0:3,0:0:0:0:
211,215,39735,6,0,P|183:266|183:331,1,120,6|8,3:2|0:0,0:0:0:0:
231,366,40315,2,0,P|308:338|417:348,1,180,2|8,3:2|0:0,0:0:0:0:
450,233,41283,2,0,P|454:185|474:106,1,120,6|8,3:2|0:0,0:0:0:0:
444,67,41864,1,2,3:2:0:0:
444,67,42057,2,0,P|433:33|423:8,2,60,2|2|10,0:0|3:2|0:0,0:0:0:0:
356,148,42831,6,0,P|300:135|220:125,1,120,6|8,3:2|0:0,0:0:0:0:
209,185,43412,2,0,P|157:217|82:204,1,120,2|0,3:2|3:0,0:0:0:0:
42,195,43993,1,10,0:0:0:0:
27,317,44380,5,10,0:0:0:0:
27,317,44573,1,10,0:0:0:0:
130,376,44960,1,6,3:2:0:0:
229,308,45347,2,0,P|234:280|243:229,2,60,8|8|4,0:3|0:3|0:3,0:0:0:0:
264,356,45928,5,6,3:2:0:0:
379,325,46315,1,10,0:0:0:0:
379,325,46509,2,0,P|387:261|398:192,1,120,2|2,0:0|0:0,0:0:0:0:
361,157,47089,1,10,0:0:0:0:
432,60,47476,1,8,0:0:0:0:
322,9,47864,1,10,0:0:0:0:
322,9,48057,2,0,P|278:41|197:37,1,120,2|2,0:0|3:2,0:0:0:0:
180,93,48638,2,0,P|145:84|122:80,1,60,10|2,0:0|3:2,0:0:0:0:
64,59,49025,5,10,0:0:0:0:
0,164,49412,1,8,0:0:0:0:
86,255,49799,1,8,0:0:0:0:
86,255,49993,2,0,P|119:247|146:243,2,60,2|10|2,0:0|0:0|0:0,0:0:0:0:
31,280,50573,1,8,0:0:0:0:
112,375,50960,1,10,0:0:0:0:
112,375,51154,2,0,P|170:344|238:360,1,120,2|2,0:0|3:2,0:0:0:0:
277,327,51735,1,8,0:0:0:0:
382,383,52122,6,0,P|392:321|404:258,1,120,6|8,3:2|0:0,0:0:0:0:
380,209,52702,2,0,P|319:218|268:180,1,120,0|0,3:0|3:0,0:0:0:0:
251,130,53283,1,8,0:0:0:0:
342,52,53670,2,0,P|371:55|400:63,2,60,14|8|2,0:0|0:3|0:0,0:0:0:0:
292,17,54251,2,0,P|247:27|173:43,1,120,8|4,0:3|0:3,0:0:0:0:
131,83,54831,2,0,P|102:80|72:72,1,60,8|2,0:0|0:0,0:0:0:0:
28,113,55218,5,6,3:2:0:0:
3,230,55606,1,8,0:0:0:0:
77,331,55993,1,8,0:0:0:0:
77,331,56186,2,0,P|118:323|155:316,1,60,2|4,3:2|0:3,0:0:0:0:
180,278,56573,2,0,P|244:276|298:309,1,120,12|4,0:2|0:3,0:0:0:0:
313,358,57154,1,4,0:3:0:0:
413,292,57541,2,0,P|447:297|475:301,2,60,8|2|10,0:0|0:0|0:0,0:0:0:0:
364,247,58122,6,0,P|345:185|374:127,1,132.00000402832,14|2,3:2|3:2,0:0:0:0:
428,91,58702,1,10,0:0:0:0:
330,2,59089,2,0,P|300:9|257:18,1,66.0000020141602,2|2,3:2|3:2,0:0:0:0:
226,69,59476,1,10,0:0:0:0:
226,69,59670,2,0,P|235:139|242:212,1,132.00000402832,2|2,3:2|3:2,0:0:0:0:
291,242,60251,1,8,0:0:0:0:
220,354,60638,1,0,3:0:0:0:
220,354,60831,2,0,P|185:347|150:343,1,66.0000020141602,2|10,3:2|0:0,0:0:0:0:
92,364,61218,6,0,P|46:308|74:243,1,132.00000402832,2|2,3:2|3:2,0:0:0:0:
119,222,61799,1,10,0:0:0:0:
119,222,61993,1,2,0:0:0:0:
25,128,62380,2,0,P|29:88|36:54,1,66.0000020141602,2|10,3:2|0:0,0:0:0:0:
79,14,62767,2,0,P|126:51|219:42,1,132.00000402832,2|0,3:2|3:0,0:0:0:0:
257,28,63347,1,8,0:0:0:0:
257,28,63541,1,0,3:0:0:0:
373,89,63928,2,0,P|368:124|368:161,1,66.0000020141602,2|8,3:2|0:0,0:0:0:0:
328,207,64315,6,0,P|390:199|482:191,1,132.00000402832,6|2,3:2|3:2,0:0:0:0:
510,241,64896,1,10,0:0:0:0:
510,241,65089,2,0,P|506:307|452:345,1,132.00000402832,6|0,3:2|3:0,0:0:0:0:
395,335,65670,1,10,0:0:0:0:
395,335,65864,1,6,3:2:0:0:
269,376,66251,2,0,P|234:369|182:362,1,66.0000020141602,2|10,3:2|0:0,0:0:0:0:
161,313,66638,2,0,P|111:348|30:328,1,132.00000402832,6|0,3:2|3:0,0:0:0:0:
19,283,67218,1,8,0:0:0:0:
19,283,67412,6,0,P|23:211|31:145,1,132.00000402832,6|2,3:2|3:2,0:0:0:0:
9,88,67993,1,10,0:0:0:0:
99,6,68380,2,0,P|133:19|184:28,1,66.0000020141602,2|2,3:2|3:2,0:0:0:0:
216,71,68767,1,10,0:0:0:0:
216,71,68960,2,0,P|205:141|195:217,1,132.00000402832,6|8,3:2|0:3,0:0:0:0:
147,245,69541,1,8,0:0:0:0:
256,319,69928,2,0,P|250:347|246:394,2,66.0000020141602,4|2|10,0:3|0:0|0:0,0:0:0:0:
305,275,70509,6,0,P|370:282|436:290,1,132.00000402832,6|2,3:2|3:2,0:0:0:0:
491,255,71089,1,10,0:0:0:0:
412,148,71476,2,0,P|415:120|425:74,1,66.0000020141602,6|2,3:2|3:2,0:0:0:0:
387,33,71864,1,10,0:0:0:0:
387,33,72057,2,0,P|323:26|279:72,1,132.00000402832,2|2,3:2|3:2,0:0:0:0:
277,138,72638,1,8,0:0:0:0:
175,62,73025,1,0,3:0:0:0:
175,62,73218,2,0,P|139:67|107:74,1,66.0000020141602,2|10,3:2|0:0,0:0:0:0:
50,102,73606,6,0,P|57:167|65:233,1,132.00000402832,2|2,3:2|3:2,0:0:0:0:
44,298,74186,1,10,0:0:0:0:
44,298,74380,1,2,0:0:0:0:
151,374,74767,2,0,P|183:370|215:359,1,66.0000020141602,2|10,3:2|0:0,0:0:0:0:
263,315,75154,2,0,P|327:327|399:337,1,132.00000402832,2|0,3:2|3:0,0:0:0:0:
462,360,75735,1,8,0:0:0:0:
462,360,75928,1,0,3:0:0:0:
422,234,76315,2,0,P|426:200|431:155,1,66.0000020141602,2|10,3:2|0:0,0:0:0:0:
461,110,76702,6,0,P|411:147|332:129,1,132.00000402832,6|2,3:2|3:2,0:0:0:0:
308,82,77283,1,10,0:0:0:0:
308,82,77476,2,0,P|238:78|174:75,1,132.00000402832,2|0,3:2|3:0,0:0:0:0:
128,29,78057,1,10,0:0:0:0:
32,119,78444,2,0,P|40:166|44:201,1,66.0000020141602,6|0,3:2|3:0,0:0:0:0:
88,231,78831,1,10,0:0:0:0:
88,231,79025,2,0,P|150:202|232:221,1,132.00000402832,2|0,3:2|3:0,0:0:0:0:
263,247,79606,1,10,0:2:0:0:
384,199,79993,6,0,P|376:150|365:101,2,99.0000030212403,8|8|8,3:0|0:3|0:3,0:0:0:0:
427,249,80767,2,0,P|417:292|407:356,2,99.0000030212403,8|4|4,0:3|0:3|0:3,0:0:0:0:
475,204,81541,1,4,3:2:0:0:
28,22,83089,6,0,P|34:89|39:156,1,132.00000402832,14|8,3:2|0:0,0:0:0:0:
25,218,83670,1,2,3:2:0:0:
113,323,84057,1,2,3:2:0:0:
113,323,84251,2,0,P|152:311|191:305,1,66.0000020141602,10|2,0:0|0:0,0:0:0:0:
226,350,84638,2,0,P|296:359|360:318,1,132.00000402832,0|10,3:0|0:0,0:0:0:0:
447,243,85412,2,0,P|485:248|528:252,2,66.0000020141602,2|2|8,0:0|3:2|0:0,0:0:0:0:
397,198,85993,1,2,0:0:0:0:
397,198,86186,6,0,P|392:131|386:61,1,132.00000402832,0|8,3:2|0:0,0:0:0:0:
346,13,86767,1,2,0:0:0:0:
242,94,87154,1,2,3:2:0:0:
122,38,87541,1,6,3:2:0:0:
256,192,87638,12,0,89670,0:0:0:0:
