osu file format v14

[General]
AudioFilename: audio.mp3
AudioLeadIn: 0
PreviewTime: 57249
Countdown: 0
SampleSet: Soft
StackLeniency: 0.5
Mode: 0
LetterboxInBreaks: 0
WidescreenStoryboard: 1

[Editor]
DistanceSpacing: 1.6
BeatDivisor: 4
GridSize: 32
TimelineZoom: 2.6

[Metadata]
Title:Rakuen no Tsubasa (TV Size)
TitleUnicode:楽園の翼 (TV Size)
Artist:Kurosaki Maon
ArtistUnicode:黒崎真音
Creator:Shocko
Version:Hard
Source:グリザイアの果実
Tags:-LE FRUIT DE LA GRISAIA- grisaia no kajitsu frontwing visual novel vn anime opening op japanese jpop j-pop 桑島由一 藤間仁 Elements Garden
BeatmapID:2442816
BeatmapSetID:1170057

[Difficulty]
HPDrainRate:5
CircleSize:4
OverallDifficulty:6
ApproachRate:7.5
SliderMultiplier:1.4
SliderTickRate:1

[Events]
//Background and Video events
0,0,"yandere.jpg",0,0
Video,-1100,"grisaia.mp4"
//Break Periods
//Storyboard Layer 0 (Background)
//Storyboard Layer 1 (Fail)
//Storyboard Layer 2 (Pass)
//Storyboard Layer 3 (Foreground)
//Storyboard Layer 4 (Overlay)
//Storyboard Sound Samples

[TimingPoints]
-523,387.096774193548,4,2,1,70,1,0
1025,-125,4,2,1,50,0,0
4122,-100,4,2,1,70,0,0
4315,-100,4,2,1,5,0,0
4412,-100,4,2,1,70,0,0
4702,-100,4,2,1,70,0,0
5089,-100,4,2,1,5,0,0
5186,-100,4,2,1,70,0,0
5476,-100,4,2,1,70,0,0
7799,-125,4,2,1,40,0,0
8573,-100,4,2,2,80,0,0
8767,-100,4,2,1,80,0,0
16412,-100,4,2,1,5,0,0
16509,-100,4,2,1,80,0,0
18251,-100,4,2,1,5,0,0
18347,-100,4,2,1,80,0,0
19025,-100,4,2,1,5,0,0
19122,-100,4,2,1,80,0,0
21154,-125,4,2,3,40,0,0
31896,-125,4,2,1,5,0,0
31993,-111.111111111111,4,2,1,70,0,0
32573,-111.111111111111,4,2,1,60,0,0
44283,-111.111111111111,4,2,1,5,0,0
44380,-111.111111111111,4,2,1,60,0,0
56573,-111.111111111111,4,2,1,80,0,0
58122,-100,4,2,2,80,0,1
58315,-100,4,2,1,80,0,1
67702,-100,4,2,1,5,0,1
67799,-100,4,2,1,80,0,1
80186,-100,4,2,1,5,0,1
80283,-100,4,2,1,80,0,1
80960,-100,4,2,1,5,0,1
81057,-100,4,2,1,80,0,1
81541,-100,4,2,1,80,0,0
82315,-100,4,2,1,40,0,0
82509,-100,4,2,3,40,0,0
82799,-100,4,2,1,40,0,0
83089,-100,4,2,2,80,0,0
83283,-100,4,2,1,80,0,0
83960,-100,4,2,1,5,0,0
84057,-100,4,2,1,80,0,0
88896,-100,4,2,1,40,0,0
89670,-100,4,2,1,5,0,0

[Colours]
Combo1 : 255,159,159
Combo2 : 255,215,196
Combo3 : 255,255,185
Combo4 : 255,185,185
Combo5 : 255,190,159

[HitObjects]
25,324,638,5,2,0:0:0:0:
25,324,831,1,2,0:0:0:0:
119,302,1025,2,0,P|112:343|106:386,2,84,6|2|2,3:2|0:0|0:0,0:0:0:0:
92,215,1799,2,0,P|48:202|9:229,2,84,2|2|2,0:0|0:0|0:0,0:0:0:0:
191,262,2573,6,0,B|314:237|290:307|421:299,1,224,6|0,3:2|0:0,0:0:0:0:
491,190,3735,1,2,0:0:0:0:
491,190,3928,1,2,0:0:0:0:
433,72,4122,6,0,P|398:76|350:81,1,70,8|0,3:0|0:0,0:0:0:0:
341,60,4412,2,0,P|287:58|248:92,1,105,8|4,3:0|0:3,0:0:0:0:
185,192,4896,2,0,P|192:222|200:260,1,70,8|0,0:3|0:0,0:0:0:0:
224,277,5186,2,0,P|276:271|328:266,1,105,4|4,0:3|0:3,0:0:0:0:
286,384,5670,5,4,3:2:0:0:
20,183,7799,1,2,0:0:0:0:
94,135,7993,2,0,P|95:112|99:71,2,56,2|2|2,0:0|0:0|0:0,0:0:0:0:
15,42,8573,6,0,P|89:35|157:28,1,140,14|2,3:2|3:2,0:0:0:0:
248,90,9154,2,0,P|242:139|236:214,1,105,10|0,0:0|0:0,0:0:0:0:
210,216,9541,2,0,P|170:204|129:203,1,70,2|0,3:2|3:0,0:0:0:0:
57,139,9928,1,10,0:0:0:0:
7,241,10122,6,0,P|23:309|30:391,1,140,2|2,3:2|3:2,0:0:0:0:
131,340,10702,2,0,B|203:323|193:373|266:363,1,140,8|0,0:0|3:0,0:0:0:0:
346,300,11283,1,2,3:2:0:0:
346,300,11476,1,10,0:0:0:0:
419,384,11670,6,0,P|426:314|437:229,1,140,2|0,3:2|3:0,0:0:0:0:
512,184,12251,1,10,0:0:0:0:
437,116,12444,2,0,P|409:124|355:136,1,70,2|0,0:0|3:0,0:0:0:0:
297,83,12831,2,0,P|299:49|305:6,1,70,2|10,3:2|0:0,0:0:0:0:
239,166,13218,6,0,P|179:199|112:185,1,140,2|0,3:2|3:0,0:0:0:0:
33,118,13799,2,0,P|48:169|67:278,1,140,8|0,0:0|3:0,0:0:0:0:
160,294,14380,1,2,3:2:0:0:
160,294,14573,1,10,0:0:0:0:
90,384,14767,6,0,P|150:341|231:360,1,140,6|2,3:2|3:2,0:0:0:0:
295,282,15347,1,10,0:0:0:0:
361,362,15541,2,0,P|435:355|517:345,1,140,2|0,3:2|3:0,0:0:0:0:
440,270,16122,2,0,P|414:225|427:175,1,105,10|0,0:0|0:0,0:0:0:0:
458,165,16509,6,0,P|465:131|470:95,1,70,6|0,3:2|0:0,0:0:0:0:
397,18,16896,1,10,0:0:0:0:
318,84,17089,2,0,B|261:82|261:82|234:96|234:96|166:91,1,140,2|0,3:2|3:0,0:0:0:0:
111,13,17670,1,10,0:0:0:0:
47,101,17864,5,4,0:3:0:0:
42,105,17960,1,4,0:3:0:0:
38,109,18057,2,0,P|47:152|56:198,1,70,12|0,0:0|0:0,0:0:0:0:
78,189,18347,2,0,P|128:177|182:211,1,105,10|6,0:3|0:3,0:0:0:0:
240,295,18831,2,0,P|233:339|231:387,1,70,10|0,0:3|0:0,0:0:0:0:
213,384,19122,2,0,P|167:376|110:368,1,105,6|6,0:3|0:3,0:0:0:0:
0,331,19606,5,10,0:0:0:0:
113,270,19799,1,10,0:0:0:0:
0,331,20186,1,10,0:0:0:0:
388,384,21154,6,0,P|389:348|393:309,1,56,6|0,3:2|3:0,0:0:0:0:
460,273,21541,1,0,0:0:0:0:
397,210,21735,2,0,P|346:220|281:229,1,112,0|0,0:0|0:0,0:0:0:0:
220,171,22315,2,0,P|216:136|228:106,1,56,0|0,0:0|0:0,0:0:0:0:
165,48,22702,2,0,P|106:42|59:68,1,112,0|0,0:0|0:0,0:0:0:0:
109,135,23283,1,2,0:0:0:0:
40,190,23476,2,0,P|47:221|53:255,1,56,2|2,0:0|0:0,0:0:0:0:
23,333,23864,1,2,0:0:0:0:
23,333,24057,1,0,0:0:0:0:
99,384,24251,6,0,P|128:374|178:367,1,56,0|0,3:0|3:0,0:0:0:0:
220,312,24638,1,0,0:0:0:0:
283,373,24831,2,0,P|332:375|384:339,1,112,0|0,0:0|0:0,0:0:0:0:
454,289,25412,2,0,P|447:260|445:230,1,56,0|0,0:0|0:0,0:0:0:0:
499,160,25799,2,0,P|443:151|390:135,1,112,0|0,0:0|0:0,0:0:0:0:
342,62,26380,1,2,0:0:0:0:
286,132,26573,2,0,P|299:169|309:223,2,84,2|2|2,0:0|0:0|0:0,0:0:0:0:
223,57,27347,6,0,P|176:51|111:102,1,112,0|0,3:0|0:0,0:0:0:0:
175,156,27928,2,0,P|166:210|152:325,1,168,0|0,0:0|0:0,0:0:0:0:
82,377,28702,1,2,0:0:0:0:
34,294,28896,2,0,P|60:286|84:271,1,56,2|0,0:0|0:0,0:0:0:0:
152,322,29283,2,0,P|178:329|202:344,1,56,2|0,0:0|0:0,0:0:0:0:
285,293,29670,1,2,0:0:0:0:
339,363,29864,2,0,P|414:349|473:342,1,112,2|0,0:0|0:0,0:0:0:0:
499,267,30444,5,2,3:2:0:0:
499,267,30638,1,2,3:2:0:0:
428,151,31025,2,0,P|436:81|445:32,1,112,2|0,0:0|0:0,0:0:0:0:
346,0,31606,2,0,P|307:0|270:37,1,84,2|0,0:0|0:0,0:0:0:0:
268,58,31993,5,8,0:0:0:0:
350,134,32186,2,0,P|342:164|339:198,1,62.9999980773926,8|4,0:3|0:3,0:0:0:0:
262,266,32573,2,0,P|207:235|131:243,1,125.999996154785,4|0,3:2|3:0,0:0:0:0:
70,302,33154,1,8,0:0:0:0:
8,226,33347,5,8,0:0:0:0:
8,226,33444,1,8,0:0:0:0:
8,226,33541,2,0,P|14:191|22:160,1,62.9999980773926,4|0,3:2|3:0,0:0:0:0:
94,103,33928,1,8,0:0:0:0:
20,29,34122,2,0,P|75:47|149:3,1,125.999996154785,0|0,3:0|3:0,0:0:0:0:
210,96,34702,2,0,P|203:126|195:167,1,62.9999980773926,8|0,0:0|0:0,0:0:0:0:
283,37,35089,6,0,P|348:34|408:26,1,125.999996154785,0|8,3:0|0:0,0:0:0:0:
491,88,35670,1,2,3:2:0:0:
406,146,35864,2,0,P|372:135|339:130,1,62.9999980773926,2|0,0:0|3:0,0:0:0:0:
491,197,36251,1,10,0:0:0:0:
491,197,36444,1,2,0:0:0:0:
407,267,36638,6,0,P|414:299|420:338,1,62.9999980773926,8|0,0:3|0:0,0:0:0:0:
409,362,36928,1,8,0:0:0:0:
405,367,37025,1,8,0:0:0:0:
301,327,37218,2,0,P|237:330|167:341,1,125.999996154785,2|2,3:2|3:2,0:0:0:0:
84,382,37799,1,8,0:0:0:0:
10,303,37993,6,0,P|71:301|117:245,1,125.999996154785,6|0,3:2|3:0,0:0:0:0:
55,170,38573,2,0,P|53:136|47:92,1,62.9999980773926,8|0,0:0|0:0,0:0:0:0:
113,26,38960,2,0,P|153:2|204:6,2,94.499997116089,8|8|4,0:0|0:3|0:3,0:0:0:0:
168,114,39735,6,0,P|173:148|184:205,1,62.9999980773926,6|0,3:2|3:0,0:0:0:0:
111,257,40122,1,8,0:0:0:0:
197,319,40315,2,0,P|247:276|315:285,1,125.999996154785,2|0,3:2|3:0,0:0:0:0:
396,322,40896,2,0,P|391:359|389:393,1,62.9999980773926,8|2,0:0|0:0,0:0:0:0:
478,274,41283,6,0,P|472:205|467:141,1,125.999996154785,6|8,3:2|0:0,0:0:0:0:
403,74,41864,1,2,3:2:0:0:
339,144,42057,2,0,P|309:141|274:137,1,62.9999980773926,0|2,0:0|3:2,0:0:0:0:
219,227,42444,2,0,P|189:229|154:234,1,62.9999980773926,10|0,0:0|0:0,0:0:0:0:
59,181,42831,6,0,P|27:108|73:61,1,125.999996154785,4|8,3:2|0:0,0:0:0:0:
135,21,43412,2,0,P|201:30|275:39,1,125.999996154785,2|0,3:2|3:0,0:0:0:0:
331,111,43993,2,0,P|325:169|319:232,1,94.499997116089,10|0,0:0|0:0,0:0:0:0:
305,226,44380,5,10,0:0:0:0:
208,194,44573,1,10,0:0:0:0:
114,335,44960,1,4,3:2:0:0:
280,384,45347,1,8,0:3:0:0:
367,319,45541,2,0,P|397:326|437:331,1,62.9999980773926,8|4,0:3|0:3,0:0:0:0:
505,269,45928,6,0,P|508:241|512:199,2,62.9999980773926,6|0|10,3:2|0:0|0:0,0:0:0:0:
430,186,46509,2,0,P|399:190|366:196,1,62.9999980773926,2|8,0:0|0:0,0:0:0:0:
287,140,46896,2,0,P|281:107|277:73,1,62.9999980773926,2|10,0:0|0:0,0:0:0:0:
193,24,47283,1,2,0:0:0:0:
193,24,47476,6,0,P|156:17|116:6,1,62.9999980773926,8|0,0:0|0:0,0:0:0:0:
37,69,47864,1,10,0:0:0:0:
114,143,48057,2,0,P|144:134|175:128,1,62.9999980773926,2|8,0:0|0:0,0:0:0:0:
21,198,48444,1,2,3:2:0:0:
85,281,48638,1,10,0:0:0:0:
85,281,48831,1,2,3:2:0:0:
45,378,49025,6,0,P|85:372|133:364,1,62.9999980773926,10|0,0:0|0:0,0:0:0:0:
212,384,49412,1,8,0:0:0:0:
298,331,49606,2,0,P|302:299|309:247,1,62.9999980773926,2|8,0:0|0:0,0:0:0:0:
227,194,49993,1,2,0:0:0:0:
227,194,50186,1,10,0:0:0:0:
316,135,50380,2,0,P|352:141|377:154,1,62.9999980773926,2|8,0:0|0:0,0:0:0:0:
464,98,50767,5,2,0:0:0:0:
508,187,50960,1,10,0:0:0:0:
441,258,51154,2,0,P|437:292|436:321,1,62.9999980773926,2|8,0:0|0:0,0:0:0:0:
364,379,51541,1,2,3:2:0:0:
318,295,51735,2,0,P|291:308|236:314,1,62.9999980773926,8|0,0:0|0:0,0:0:0:0:
176,382,52122,6,0,P|128:346|51:375,1,125.999996154785,4|8,3:2|0:0,0:0:0:0:
0,272,52702,2,0,P|4:201|9:126,1,125.999996154785,0|0,3:0|3:0,0:0:0:0:
71,58,53283,2,0,P|105:53|142:26,1,62.9999980773926,8|0,0:0|3:0,0:0:0:0:
193,121,53670,5,14,0:0:0:0:
193,121,53864,2,0,P|184:162|182:198,1,62.9999980773926,8|2,0:3|0:0,0:0:0:0:
261,238,54251,2,0,P|295:234|327:229,1,62.9999980773926,8|2,0:3|0:0,0:0:0:0:
390,298,54638,1,4,0:3:0:0:
467,241,54831,2,0,P|471:213|482:161,1,62.9999980773926,8|0,0:0|0:0,0:0:0:0:
474,139,55122,5,8,0:0:0:0:
465,129,55218,2,0,P|407:118|350:164,1,125.999996154785,6|8,3:2|0:0,0:0:0:0:
271,84,55799,1,0,3:0:0:0:
206,162,55993,2,0,P|214:202|217:230,1,62.9999980773926,8|2,0:0|3:2,0:0:0:0:
317,272,56380,1,4,0:3:0:0:
229,364,56573,6,0,P|167:352|104:345,1,125.999996154785,14|4,0:0|0:3,0:0:0:0:
9,294,57154,1,4,0:3:0:0:
97,224,57347,1,4,0:3:0:0:
23,145,57541,2,0,P|20:111|13:64,1,62.9999980773926,8|2,0:0|0:0,0:0:0:0:
26,66,57831,1,8,0:0:0:0:
34,56,57928,1,10,0:0:0:0:
140,111,58122,6,0,P|209:118|267:68,1,140,14|2,3:2|3:2,0:0:0:0:
348,135,58702,2,0,P|338:168|332:203,1,70,10|0,0:0|0:0,0:0:0:0:
416,265,59089,1,2,3:2:0:0:
348,347,59283,2,0,P|310:343|277:339,1,70,2|10,3:2|0:0,0:0:0:0:
181,384,59670,6,0,P|135:346|55:363,1,140,2|2,3:2|3:2,0:0:0:0:
44,254,60251,2,0,P|109:245|187:240,1,140,8|0,0:0|3:0,0:0:0:0:
245,157,60831,1,2,3:2:0:0:
245,157,61025,1,10,0:0:0:0:
333,247,61218,6,0,P|340:177|346:97,1,140,2|2,3:2|3:2,0:0:0:0:
309,10,61799,1,10,0:0:0:0:
210,52,61993,2,0,P|178:46|136:36,1,70,2|0,0:0|3:0,0:0:0:0:
46,87,62380,1,2,3:2:0:0:
46,87,62573,1,10,0:0:0:0:
114,190,62767,6,0,P|96:268|88:339,1,140,2|0,3:2|3:0,0:0:0:0:
176,382,63347,2,0,P|236:352|309:377,1,140,8|0,0:0|0:0,0:0:0:0:
369,293,63928,1,2,3:2:0:0:
369,293,64122,1,10,0:0:0:0:
462,372,64315,6,0,P|471:303|484:231,1,140,6|2,3:2|3:2,0:0:0:0:
436,142,64896,1,10,0:0:0:0:
343,200,65089,2,0,B|290:192|265:237|203:221,1,140,6|0,3:2|3:0,0:0:0:0:
132,287,65670,1,10,0:0:0:0:
37,224,65864,6,0,P|14:165|58:107,1,140,6|2,3:2|3:2,0:0:0:0:
106,19,66444,1,10,0:0:0:0:
191,85,66638,2,0,P|263:74|345:67,1,140,6|0,3:2|3:0,0:0:0:0:
439,88,67218,1,8,0:0:0:0:
386,184,67412,6,0,P|392:235|400:298,1,105,6|0,3:2|0:0,0:0:0:0:
416,313,67799,1,2,3:2:0:0:
338,381,67993,2,0,P|308:375|249:366,1,70,10|2,0:0|0:0,0:0:0:0:
234,348,68283,1,8,0:0:0:0:
228,335,68380,1,2,3:2:0:0:
129,384,68573,1,2,3:2:0:0:
34,342,68767,1,10,0:0:0:0:
134,260,68960,6,0,P|138:197|145:117,1,140,6|8,3:2|0:3,0:0:0:0:
57,56,69541,1,8,0:0:0:0:
141,0,69735,1,2,0:0:0:0:
230,43,69928,2,0,P|281:37|308:33,1,70,4|8,0:3|0:3,0:0:0:0:
323,19,70218,1,8,0:0:0:0:
331,9,70315,1,8,0:0:0:0:
437,51,70509,6,0,P|427:115|419:215,1,140,6|2,3:2|3:2,0:0:0:0:
378,285,71089,2,0,P|325:265|272:281,1,105,10|2,0:0|0:0,0:0:0:0:
255,291,71476,2,0,P|270:327|277:359,1,70,6|2,3:2|3:2,0:0:0:0:
176,384,71864,1,10,0:0:0:0:
125,294,72057,2,0,P|77:323|-2:292,1,140,2|2,3:2|3:2,0:0:0:0:
36,190,72638,2,0,P|110:194|187:215,1,140,8|0,0:0|3:0,0:0:0:0:
242,132,73218,1,2,3:2:0:0:
242,132,73412,1,10,0:0:0:0:
330,196,73606,6,0,P|285:238|295:319,1,140,2|2,3:2|3:2,0:0:0:0:
365,384,74186,1,10,0:0:0:0:
438,325,74380,2,0,P|472:328|509:334,1,70,2|0,0:0|3:0,0:0:0:0:
405,244,74767,1,2,3:2:0:0:
405,244,74960,1,10,0:0:0:0:
487,167,75154,6,0,P|492:98|499:6,1,140,2|0,3:2|3:0,0:0:0:0:
392,11,75735,2,0,P|333:-10|271:35,1,140,8|0,0:0|0:0,0:0:0:0:
334,125,76315,1,2,3:2:0:0:
334,125,76509,1,10,0:0:0:0:
251,213,76702,6,0,P|179:204|89:198,1,140,6|2,3:2|3:2,0:0:0:0:
57,103,77283,1,10,0:0:0:0:
0,190,77476,2,0,P|20:246|35:325,1,140,2|0,3:2|3:0,0:0:0:0:
113,384,78057,1,10,0:0:0:0:
113,384,78251,1,2,0:0:0:0:
186,288,78444,6,0,P|229:284|283:268,1,70,6|0,3:2|3:0,0:0:0:0:
296,374,78831,1,10,0:0:0:0:
376,307,79025,2,0,P|442:308|488:368,1,140,2|0,3:2|3:0,0:0:0:0:
512,262,79606,1,10,0:2:0:0:
512,262,79799,1,2,0:0:0:0:
441,155,79993,6,0,P|408:159|361:168,1,70,8|0,3:0|0:0,0:0:0:0:
350,181,80283,2,0,P|310:153|251:169,1,105,8|4,3:0|0:3,0:0:0:0:
176,217,80767,2,0,P|143:212|106:206,1,70,8|0,0:3|0:0,0:0:0:0:
82,183,81057,2,0,P|85:238|90:293,1,105,4|4,0:3|0:3,0:0:0:0:
168,367,81541,5,4,3:2:0:0:
343,384,82315,1,2,0:0:0:0:
394,291,82509,1,0,0:3:0:0:
394,291,82606,1,0,0:0:0:0:
394,291,82702,2,0,L|445:284,3,35,2|2|2|2,0:0|0:0|0:0|0:0,0:0:0:0:
359,264,83089,6,0,P|365:177|372:101,1,140,14|8,3:2|0:0,0:0:0:0:
299,34,83670,2,0,P|243:14|184:53,1,105,2|0,3:2|0:0,0:0:0:0:
180,60,84057,1,2,3:2:0:0:
97,134,84251,2,0,P|64:129|25:124,1,70,10|2,0:0|0:0,0:0:0:0:
124,226,84638,6,0,P|184:211|284:197,1,140,2|10,3:2|0:0,0:0:0:0:
343,271,85218,1,0,3:0:0:0:
422,206,85412,2,0,P|428:173|436:125,1,70,2|2,0:0|3:2,0:0:0:0:
358,71,85799,2,0,P|352:36|347:1,1,70,10|2,0:0|0:0,0:0:0:0:
272,162,86186,6,0,P|206:178|152:138,1,140,0|8,3:0|0:0,0:0:0:0:
96,222,86767,2,0,P|110:258|117:308,1,70,2|0,0:0|3:0,0:0:0:0:
205,327,87154,1,2,3:2:0:0:
15,381,87541,5,6,3:2:0:0:
256,192,87638,12,0,89670,0:0:0:0:
