osu file format v14

[General]
AudioFilename: audio.mp3
AudioLeadIn: 0
PreviewTime: 57251
Countdown: 0
SampleSet: Soft
StackLeniency: 0.7
Mode: 0
LetterboxInBreaks: 0
WidescreenStoryboard: 0

[Editor]
DistanceSpacing: 0.4
BeatDivisor: 4
GridSize: 32
TimelineZoom: 1.5

[Metadata]
Title:Rakuen no Tsubasa (TV Size)
TitleUnicode:楽園の翼 (TV Size)
Artist:Kurosaki Maon
ArtistUnicode:黒崎真音
Creator:Adinda
Version:Insane
Source:グリザイアの果実
Tags:-LE FRUIT DE LA GRISAIA- grisaia no kajitsu frontwing visual novel vn anime opening op japanese pop jpop j-pop 桑島由一 藤間仁 Elements Garden
BeatmapID:2697112
BeatmapSetID:1300181

[Difficulty]
HPDrainRate:6
CircleSize:4.2
OverallDifficulty:8
ApproachRate:9
SliderMultiplier:1.8
SliderTickRate:1

[Events]
//Background and Video events
0,0,"a.jpg",0,0
//Break Periods
//Storyboard Layer 0 (Background)
//Storyboard Layer 1 (Fail)
//Storyboard Layer 2 (Pass)
//Storyboard Layer 3 (Foreground)
//Storyboard Layer 4 (Overlay)
//Storyboard Sound Samples

[TimingPoints]
-523,387.096774193548,4,2,1,55,1,0
1025,-181.818181818181,4,2,1,55,0,0
4122,-100,4,2,1,70,0,0
7799,-100,4,2,1,55,0,0
8573,-83.3333333333333,4,2,1,80,0,0
8864,-83.3333333333333,4,2,1,5,0,0
8960,-83.3333333333333,4,2,1,80,0,0
15831,-83.3333333333333,4,2,1,5,0,0
15927,-83.3333333333333,4,2,1,80,0,0
16412,-83.3333333333333,4,2,1,5,0,0
16508,-83.3333333333333,4,2,1,80,0,0
21154,-133.333333333333,4,2,1,50,0,0
31993,-133.333333333333,4,2,1,60,0,0
32573,-100,4,2,1,60,0,0
32864,-100,4,2,1,5,0,0
32960,-100,4,2,1,60,0,0
33541,-117.647058823529,4,2,1,65,0,0
38864,-117.647058823529,4,2,1,5,0,0
38960,-117.647058823529,4,2,1,65,0,0
45928,-105.263157894737,4,2,1,70,0,0
49315,-105.263157894737,4,2,1,5,0,0
49412,-105.263157894737,4,2,1,70,0,0
52025,-105.263157894737,4,2,1,5,0,0
52122,-100,4,2,1,75,0,0
54347,-100,4,2,1,5,0,0
54444,-100,4,2,1,75,0,0
55218,-100,4,2,1,80,0,0
56573,-90.9090909090909,4,2,1,80,0,0
56864,-90.9090909090909,4,2,1,5,0,0
56960,-90.9090909090909,4,2,1,80,0,0
58122,-76.9230769230769,4,2,1,85,0,1
58412,-76.9230769230769,4,2,1,5,0,1
58509,-76.9230769230769,4,2,1,85,0,1
64606,-76.9230769230769,4,2,1,5,0,1
64703,-76.9230769230769,4,2,1,85,0,1
69251,-76.9230769230769,4,2,1,5,0,1
69348,-76.9230769230769,4,2,1,85,0,1
69444,-76.9230769230769,4,2,1,5,0,1
69541,-76.9230769230769,4,2,1,85,0,1
69638,-76.9230769230769,4,2,1,5,0,1
69735,-76.9230769230769,4,2,1,85,0,1
70799,-76.9230769230769,4,2,1,5,0,1
70896,-76.9230769230769,4,2,1,85,0,1
76993,-76.9230769230769,4,2,1,5,0,1
77090,-76.9230769230769,4,2,1,85,0,1
80186,-76.9230769230769,4,2,1,5,0,1
80283,-76.9230769230769,4,2,1,85,0,1
80476,-76.9230769230769,4,2,1,5,0,1
80573,-76.9230769230769,4,2,1,85,0,1
80670,-76.9230769230769,4,2,1,5,0,1
80767,-76.9230769230769,4,2,1,85,0,1
80960,-76.9230769230769,4,2,1,5,0,1
81057,-76.9230769230769,4,2,1,85,0,1
81251,-76.9230769230769,4,2,1,5,0,1
81348,-76.9230769230769,4,2,1,85,0,1
81444,-76.9230769230769,4,2,1,5,0,1
81541,-133.333333333333,4,2,1,70,0,0
83089,-83.3333333333333,4,2,1,80,0,0
86089,-83.3333333333333,4,2,1,5,0,0
86186,-83.3333333333333,4,2,1,80,0,0
87638,-83.3333333333333,4,2,1,5,0,0

[Colours]
Combo1 : 0,157,0
Combo2 : 0,128,192
Combo3 : 255,255,155

[HitObjects]
26,196,1025,6,0,B|54:193|54:193|72:199|72:199|119:195,2,74.2500022659302,14|0|0,0:1|0:0|0:0,0:0:0:0:
69,286,1799,2,0,P|68:323|110:340,2,74.2500022659302,2|0|0,0:0|0:0|0:0,0:0:0:0:
69,286,2573,1,14,0:1:0:0:
189,240,2767,5,0,3:0:0:0:
180,260,2960,1,0,3:0:0:0:
218,264,3154,5,0,3:0:0:0:
227,284,3347,1,0,3:0:0:0:
259,246,3541,1,0,3:0:0:0:
314,104,3735,5,2,0:0:0:0:
314,104,3928,1,2,0:0:0:0:
451,150,4122,6,8,B|442:116|467:74|467:74|491:126,2,135,10|8|8,0:0|0:3|0:3,0:3:0:0:
398,294,4896,2,4,B|481:311|436:339|514:362,2,135,6|4|4,0:3|0:3|0:3,0:3:0:0:
357,200,5670,5,14,0:1:0:0:
139,128,7799,5,2,0:0:0:0:
192,264,7993,1,2,0:0:0:0:
212,70,8186,1,2,0:0:0:0:
53,136,8380,1,2,0:0:0:0:
357,200,8573,6,0,B|418:193|418:193|450:218|450:218|515:211,1,161.999995056153,12|0,0:1|0:0,0:0:0:0:
512,238,8960,1,10,0:1:0:0:
389,280,9154,2,0,P|386:340|420:382,1,107.999996704102,10|0,0:0|0:0,0:0:0:0:
445,374,9444,1,8,0:0:0:0:
445,374,9541,5,10,0:1:0:0:
279,330,9735,1,10,0:1:0:0:
199,370,9928,1,10,0:0:0:0:
32,326,10122,6,0,L|13:215,1,107.999996704102,10|0,0:1|0:0,0:0:0:0:
184,63,10509,1,10,0:1:0:0:
184,63,10702,2,0,P|193:131|68:141,1,215.999993408203,8|8,0:0|0:1,0:0:0:0:
316,22,11283,5,10,0:1:0:0:
301,183,11476,1,10,0:0:0:0:
449,235,11670,2,8,B|423:168|454:84|454:84|488:142,1,215.999993408203,10|10,0:1|0:1,0:1:0:0:
365,320,12251,1,10,0:0:0:0:
365,320,12444,2,0,B|408:316|408:316|430:322|430:322|475:317,1,107.999996704102,2|8,0:0|0:1,0:0:0:0:
301,183,12831,5,10,0:1:0:0:
195,323,13025,1,10,0:0:0:0:
121,194,13218,2,8,B|123:240|123:240|68:328|68:328|41:243,1,215.999993408203,10|8,0:1|0:1,0:1:0:0:
0,107,13799,2,0,B|-1:138|28:171|28:171|52:127,1,107.999996704102,8|0,0:0|0:0,0:0:0:0:
45,138,14186,1,8,0:1:0:0:
172,22,14380,5,10,0:1:0:0:
270,200,14573,1,10,0:0:0:0:
413,91,14767,6,8,B|426:81|441:66|441:66|459:146|393:166|393:166|365:157|337:127,1,215.999993408203,14|8,0:1|0:1,0:1:0:0:
356,25,15347,1,10,0:0:0:0:
453,231,15541,2,0,B|500:267|500:267|460:371,1,161.999995056153,10|0,0:1|0:0,0:0:0:0:
431,358,15928,1,8,0:1:0:0:
283,365,16122,2,0,B|184:360|226:332|119:336,1,161.999995056153,10|0,0:0|0:0,0:0:0:0:
88,266,16509,6,0,L|65:155,1,107.999996704102,14|0,0:1|0:0,0:0:0:0:
29,343,16896,1,10,0:0:0:0:
183,213,17089,2,0,L|227:-7,1,215.999993408203,10|8,0:1|0:1,0:0:0:0:
133,56,17670,1,10,0:0:0:0:
287,150,17864,5,10,0:3:0:0:
287,150,17960,1,8,0:3:0:0:
287,150,18057,2,0,B|327:178|327:178|335:221|335:221|375:287,2,161.999995056153,14|8|8,0:0|0:3|0:3,0:0:0:0:
394,66,18831,2,4,P|390:115|483:95,2,161.999995056153,6|4|4,0:3|0:3|0:3,0:3:0:0:
462,6,19606,5,10,0:0:0:0:
370,280,19799,1,8,0:0:0:0:
133,56,20186,5,10,0:0:0:0:
133,56,21154,5,14,0:1:0:0:
133,56,21347,2,0,B|106:56|106:56|88:61|88:61|43:58,1,67.5000025749208,10|0,0:1|0:0,0:0:0:0:
95,154,21735,2,0,P|65:202|69:291,1,135.000005149842,2|0,0:0|0:0,0:0:0:0:
155,226,22315,2,0,P|159:266|182:304,1,67.5000025749208,2|0,0:0|0:0,0:0:0:0:
245,345,22702,6,0,L|391:326,1,135.000005149842,2|0,0:0|0:0,0:0:0:0:
378,327,23283,1,2,0:0:0:0:
422,240,23476,5,2,0:0:0:0:
410,228,23670,1,0,0:0:0:0:
422,216,23863,1,2,0:0:0:0:
433,228,24057,1,0,0:0:0:0:
330,162,24251,5,10,0:1:0:0:
330,162,24444,2,0,P|314:127|316:86,1,67.5000025749208,10|0,0:1|0:0,0:0:0:0:
469,45,24831,2,0,P|473:86|387:94,1,135.000005149842,2|0,0:0|0:0,0:0:0:0:
336,25,25412,2,0,B|369:31|369:31|401:17,1,67.5000025749208,2|0,0:0|0:0,0:0:0:0:
257,44,25799,6,0,P|216:36|117:44,1,135.000005149842,2|0,0:0|0:0,0:0:0:0:
123,42,26380,1,2,0:0:0:0:
41,138,26573,2,0,P|81:133|114:137,1,67.5000025749208,2|0,0:0|0:0,0:0:0:0:
121,131,26864,1,2,0:0:0:0:
138,129,26960,1,0,0:0:0:0:
244,180,27154,1,2,0:0:0:0:
166,260,27347,5,10,0:1:0:0:
166,260,27541,2,0,L|151:332,1,67.5000025749208,10|0,0:1|0:0,0:0:0:0:
244,180,27928,1,2,0:0:0:0:
244,180,28122,2,0,L|267:313,1,135.000005149842,2|0,0:0|0:0,0:0:0:0:
370,267,28702,5,2,0:0:0:0:
354,261,28896,1,2,0:0:0:0:
267,313,29089,5,0,0:0:0:0:
283,307,29283,1,2,0:0:0:0:
283,328,29476,1,0,0:0:0:0:
362,368,29670,5,2,0:0:0:0:
362,368,29864,2,0,P|397:370|441:382,1,67.5000025749208,2|0,0:0|0:0,0:0:0:0:
498,328,30251,5,2,0:0:0:0:
498,328,30347,1,2,0:0:0:0:
498,328,30444,1,10,0:1:0:0:
283,328,30638,2,0,B|207:328|246:294|139:303,1,135.000005149842,10|2,0:1|0:0,0:0:0:0:
133,320,31412,5,0,3:0:0:0:
57,246,31606,1,0,3:0:0:0:
154,187,31799,1,0,3:0:0:0:
32,47,31993,5,10,0:0:0:0:
67,123,32186,5,10,0:3:0:0:
70,131,32251,5,10,0:3:0:0:
73,139,32315,5,10,0:3:0:0:
76,147,32380,5,10,0:3:0:0:
239,15,32573,6,0,B|290:-1|290:-1|330:86,1,135,14|0,0:1|0:0,0:0:0:0:
309,102,32960,5,10,0:0:0:0:
470,50,33154,1,10,0:3:0:0:
407,263,33347,5,10,0:0:0:0:
407,263,33444,1,8,0:0:0:0:
407,263,33541,1,14,0:1:0:0:
412,171,33735,1,8,0:1:0:0:
476,213,33928,1,10,0:0:0:0:
336,230,34122,2,8,B|277:226|277:226|239:242|239:242|176:234,1,153.000002918243,10|8,0:1|0:1,0:1:0:0:
75,135,34702,5,10,0:0:0:0:
75,135,34896,1,2,0:0:0:0:
14,273,35089,2,8,P|15:315|39:348,1,76.5000014591217,10|8,0:1|0:1,0:1:0:0:
33,343,35476,1,8,0:0:0:0:
75,135,35670,5,10,0:1:0:0:
150,140,35864,1,2,0:0:0:0:
149,63,36057,1,10,0:1:0:0:
74,58,36251,1,10,0:0:0:0:
108,97,36444,1,2,0:0:0:0:
299,38,36638,6,0,B|266:34|266:34|250:38|250:38|219:35,1,76.5000014591217,10|0,0:3|0:0,0:0:0:0:
210,9,36928,1,8,0:0:0:0:
210,9,37025,1,10,0:0:0:0:
262,219,37218,6,0,L|236:133,1,76.5000014591217,14|0,0:1|0:0,0:0:0:0:
460,370,37606,2,0,L|486:284,1,76.5000014591217,14|8,0:1|0:0,0:0:0:0:
484,97,37993,6,0,P|488:142|394:144,1,153.000002918243,14|8,0:1|0:1,0:0:0:0:
262,219,38573,2,0,B|230:255|230:255|265:317,1,114.750002188683,10|0,0:0|0:0,0:0:0:0:
274,327,38960,2,8,B|243:366|203:362|203:362|174:322,2,114.750002188683,10|8|8,0:0|0:3|0:3,0:3:0:0:
401,155,39735,5,14,0:1:0:0:
431,246,39928,1,8,0:1:0:0:
484,97,40122,1,8,0:0:0:0:
308,114,40315,2,8,P|263:117|149:102,1,153.000002918243,10|8,0:1|0:1,0:1:0:0:
203,28,40896,2,0,P|235:24|278:21,1,76.5000014591217,8|2,0:0|0:0,0:0:0:0:
156,103,41283,5,14,0:1:0:0:
156,103,41476,1,8,0:1:0:0:
203,29,41670,1,8,0:0:0:0:
156,103,41864,1,8,0:1:0:0:
74,78,42057,5,2,0:0:0:0:
175,187,42251,1,10,0:1:0:0:
46,239,42444,1,10,0:0:0:0:
46,239,42638,1,2,0:0:0:0:
93,302,42831,6,8,B|141:314|141:314|175:354|175:354|234:371,1,153.000002918243,12|8,0:1|0:0,0:0:0:0:
355,214,43412,2,8,B|307:226|307:226|273:266|273:266|214:283,1,153.000002918243,8|8,0:1|0:1,0:1:0:0:
286,121,43993,2,0,P|276:108|296:55,1,76.5000014591217,8|0,0:0|0:0,0:0:0:0:
366,4,44380,5,10,0:0:0:0:
471,187,44573,2,0,P|481:174|461:121,1,76.5000014591217,10|0,0:0|0:0,0:0:0:0:
355,214,44960,2,0,B|317:251|317:251|353:349,1,153.000002918243,14|2,0:1|0:0,0:0:0:0:
130,332,45541,5,10,0:3:0:0:
199,278,45735,1,2,0:0:0:0:
117,258,45928,5,14,0:1:0:0:
217,350,46122,1,2,0:0:0:0:
185,161,46315,1,10,0:0:0:0:
28,229,46509,2,0,L|11:317,1,85.4999977169037,2|8,0:0|0:0,0:0:0:0:
185,161,46896,5,2,0:0:0:0:
14,130,47089,1,10,0:0:0:0:
182,57,47283,6,0,L|265:40,1,85.4999977169037,2|8,0:0|0:0,0:0:0:0:
268,177,47670,2,0,L|184:160,1,85.4999977169037,2|8,0:0|0:0,0:0:0:0:
338,108,48057,2,0,B|390:104|425:119|425:119|476:101|482:56,1,170.999995433807,2|10,0:0|0:1,0:0:0:0:
352,5,48638,5,10,0:0:0:0:
480,63,48831,1,10,0:1:0:0:
368,232,49025,6,0,P|351:301|348:365,1,128.249996575356,10|0,0:0|0:0,0:0:0:0:
360,368,49412,1,8,0:0:0:0:
445,293,49606,2,0,P|475:275|445:238,1,85.4999977169037,2|8,0:0|0:0,0:0:0:0:
241,297,49993,5,2,0:0:0:0:
141,248,50186,1,10,0:0:0:0:
257,283,50380,2,0,P|227:265|257:228,1,85.4999977169037,2|8,0:0|0:0,0:0:0:0:
93,101,50767,5,2,0:0:0:0:
141,248,50960,1,10,0:0:0:0:
295,81,51154,1,2,0:0:0:0:
247,228,51347,1,8,0:0:0:0:
295,81,51541,1,10,0:1:0:0:
487,188,51735,2,0,B|411:183|458:151|357:151,1,128.249996575356,10|0,0:0|0:0,0:0:0:0:
402,72,52122,6,0,B|459:66|494:18|494:18|417:3,1,180,14|8,0:1|0:0,0:0:0:0:
216,33,52702,2,8,B|161:17|115:51|115:51|50:8,1,180,8|8,0:1|0:1,0:1:0:0:
8,109,53283,2,0,P|24:157|30:205,1,90,8|8,0:0|0:1,0:0:0:0:
229,345,53670,1,8,0:0:0:0:
318,298,53864,5,2,0:0:0:0:
369,379,54057,2,0,B|321:365|321:365|295:342|295:342|241:325,1,135,2|0,0:0|0:0,0:0:0:0:
229,345,54444,1,2,0:0:0:0:
356,135,54638,2,0,L|385:227,1,90,10|8,0:3|0:0,0:0:0:0:
216,33,55025,5,10,0:0:0:0:
216,33,55122,1,8,0:0:0:0:
216,33,55218,2,8,L|187:125,1,90,12|8,0:1|0:1,0:1:0:0:
110,108,55606,2,8,L|137:22,1,90,8|8,0:0|0:1,0:0:0:0:
137,22,55993,1,8,0:0:0:0:
28,224,56186,5,10,0:1:0:0:
17,20,56380,1,6,0:3:0:0:
151,231,56573,2,0,B|147:274|147:274|189:335|189:335|206:291,1,148.50000453186,12|0,0:0|0:0,0:0:0:0:
232,335,56960,5,4,0:3:0:0:
232,335,57154,1,4,0:3:0:0:
369,81,57347,5,6,0:3:0:0:
319,13,57541,1,10,0:0:0:0:
485,88,57735,1,10,0:0:0:0:
485,88,57831,1,8,0:0:0:0:
485,88,57928,1,10,0:0:0:0:
232,335,58122,6,0,B|180:286|114:320|114:320|129:351|162:372,1,175.499991966248,14|0,0:1|0:0,0:0:0:0:
166,357,58509,1,10,0:1:0:0:
66,144,58702,2,0,B|67:200|120:206|120:206|207:160,1,175.499991966248,10|8,0:0|0:0,0:0:0:0:
226,186,59089,5,10,0:1:0:0:
174,67,59283,1,10,0:1:0:0:
319,13,59476,1,10,0:0:0:0:
485,88,59670,6,0,B|439:82|439:82|410:89|410:89|355:79,1,116.999994644165,10|0,0:1|0:0,0:0:0:0:
419,315,60057,5,10,0:1:0:0:
479,231,60251,2,0,B|446:263|473:332|473:332|468:359|433:377|433:377|412:343|421:308,1,233.999989288331,8|8,0:0|0:1,0:0:0:0:
226,186,60831,5,10,0:1:0:0:
274,366,61025,1,10,0:0:0:0:
427,323,61218,1,10,0:1:0:0:
427,323,61315,1,8,0:1:0:0:
427,323,61412,1,8,0:1:0:0:
174,67,61606,5,10,0:1:0:0:
150,247,61800,1,10,0:0:0:0:
12,207,61993,1,10,0:1:0:0:
12,207,62090,1,8,0:1:0:0:
12,207,62187,1,8,0:1:0:0:
34,28,62380,5,10,0:1:0:0:
88,129,62573,1,10,0:0:0:0:
283,73,62767,6,0,B|343:-13|552:-17|510:186|385:110,1,350.999983932496,10|8,0:1|0:0,0:0:0:0:
372,308,63541,2,0,B|357:265|383:233|383:233|418:258,1,116.999994644165,8|0,0:1|0:0,0:0:0:0:
486,329,63928,5,10,0:1:0:0:
324,172,64122,1,10,0:0:0:0:
161,377,64315,6,0,B|170:308|170:308|183:294|183:294|195:197,1,175.499991966248,14|0,0:1|0:0,0:0:0:0:
215,209,64702,5,10,0:1:0:0:
150,2,64896,1,10,0:0:0:0:
2,97,65089,2,8,B|63:77|105:116|105:116|181:128|210:58,1,233.999989288331,14|8,0:1|0:1,0:1:0:0:
237,36,65573,1,8,0:1:0:0:
237,36,65670,1,10,0:0:0:0:
42,193,65864,2,0,P|34:250|73:300,1,116.999994644165,14|0,0:1|0:0,0:0:0:0:
215,209,66251,5,10,0:1:0:0:
161,377,66444,1,10,0:0:0:0:
352,207,66638,2,8,B|423:169|423:169|491:322,1,233.999989288331,14|8,0:1|0:1,0:1:0:0:
378,301,67218,1,8,0:0:0:0:
441,58,67412,6,0,B|395:44|395:44|379:26|379:26|331:13,1,116.999994644165,14|0,0:1|0:0,0:0:0:0:
72,53,67799,5,10,0:1:0:0:
163,173,67993,1,10,0:0:0:0:
147,2,68186,1,2,0:0:0:0:
99,230,68380,5,10,0:1:0:0:
249,107,68573,1,10,0:1:0:0:
0,153,68767,1,10,0:0:0:0:
352,207,68960,6,0,B|398:194|398:194|431:223|431:223|526:246,1,175.499991966248,14|0,0:1|0:0,0:0:0:0:
494,163,69347,6,0,L|470:95,1,58.4999973220826,8|0,0:0|0:0,0:0:0:0:
315,327,69541,2,0,L|295:382,1,58.4999973220826,8|0,0:0|0:0,0:0:0:0:
0,153,69735,5,2,0:0:0:0:
115,60,69928,1,10,0:3:0:0:
99,230,70122,1,10,0:0:0:0:
99,230,70218,1,8,0:0:0:0:
99,230,70315,1,10,0:0:0:0:
58,2,70509,6,0,B|55:39|55:39|92:112|92:112|120:51,1,175.499991966248,14|0,0:1|0:0,0:0:0:0:
126,31,70896,1,10,0:1:0:0:
286,9,71089,2,0,B|275:60|275:60|301:126,1,116.999994644165,10|0,0:0|0:0,0:0:0:0:
322,151,71380,1,10,0:0:0:0:
322,151,71476,5,10,0:1:0:0:
404,60,71670,1,10,0:1:0:0:
230,176,71864,1,10,0:0:0:0:
393,373,72057,6,0,B|384:319|417:293|417:293|455:308,1,116.999994644165,10|0,0:1|0:0,0:0:0:0:
99,230,72444,5,10,0:1:0:0:
305,318,72638,2,0,B|223:299|223:299|187:254|187:254|75:223,1,233.999989288331,8|8,0:0|0:1,0:0:0:0:
183,11,73218,5,10,0:1:0:0:
19,127,73412,1,10,0:0:0:0:
183,11,73606,1,10,0:1:0:0:
183,11,73702,1,8,0:1:0:0:
183,11,73799,1,8,0:1:0:0:
66,60,73993,5,10,0:1:0:0:
230,176,74187,1,10,0:0:0:0:
66,60,74381,1,10,0:1:0:0:
66,60,74477,1,8,0:1:0:0:
66,60,74574,1,8,0:1:0:0:
296,8,74767,5,10,0:1:0:0:
230,176,74960,1,10,0:0:0:0:
460,140,75154,6,8,B|394:163|394:163|417:250|417:250|434:258|434:258|460:356|460:356|387:382,1,350.999983932496,10|8,0:1|0:0,0:1:0:0:
245,362,75928,2,0,B|273:328|241:279|241:279|217:293,1,116.999994644165,8|0,0:1|0:0,0:0:0:0:
134,364,76315,5,10,0:1:0:0:
231,175,76509,1,10,0:0:0:0:
119,38,76702,6,0,B|90:84|115:119|115:119|126:173|65:193,1,175.499991966248,14|0,0:1|0:0,0:0:0:0:
72,226,77089,5,10,0:1:0:0:
8,65,77283,1,10,0:0:0:0:
231,175,77476,2,8,B|318:190|318:190|354:217|354:217|466:235,1,233.999989288331,14|8,0:1|0:1,0:1:0:0:
372,86,78057,5,10,0:0:0:0:
372,86,78251,1,2,0:0:0:0:
313,255,78444,5,14,0:1:0:0:
446,24,78638,1,8,0:1:0:0:
453,232,78831,1,10,0:0:0:0:
287,44,79025,2,8,B|218:5|218:5|131:148,1,233.999989288331,14|8,0:1|0:1,0:1:0:0:
65,305,79606,5,10,0:0:0:0:
65,305,79799,1,2,0:0:0:0:
16,360,79993,6,0,L|33:238,1,116.999994644165,14|0,0:0|0:0,0:0:0:0:
125,232,80283,2,0,B|152:255|152:255|161:282|161:282|199:338,1,116.999994644165,10|0,0:3|0:0,0:0:0:0:
262,368,80573,2,0,L|322:342,1,58.4999973220826,10|0,0:3|0:0,0:0:0:0:
392,189,80767,6,0,B|346:191|317:175|317:175|345:142,1,116.999994644165,6|0,0:3|0:0,0:0:0:0:
421,111,81057,2,0,B|450:85|450:85|461:46|421:11,1,116.999994644165,6|0,0:3|0:0,0:0:0:0:
341,1,81347,2,0,P|334:33|366:38,1,58.4999973220826,6|0,0:3|0:0,0:0:0:0:
108,9,81541,5,14,0:1:0:0:
108,9,82702,5,10,0:0:0:0:
108,9,82799,1,2,0:0:0:0:
108,9,82896,2,0,L|95:56,1,33.7500012874604,2|2,0:0|0:0,0:0:0:0:
19,126,83089,5,14,0:1:0:0:
201,63,83283,1,8,0:1:0:0:
1,155,83476,1,8,0:0:0:0:
197,91,83670,2,8,B|299:128|294:69|421:122,1,215.999993408203,10|8,0:1|0:1,0:1:0:0:
423,30,84251,5,10,0:0:0:0:
345,198,84444,2,0,P|341:254|374:302,1,107.999996704102,2|8,0:0|0:1,0:0:0:0:
230,372,84831,1,8,0:1:0:0:
230,372,84928,1,8,0:1:0:0:
230,372,85025,2,0,B|181:369|181:369|155:375|155:375|105:370,1,107.999996704102,10|0,0:0|0:0,0:0:0:0:
19,126,85412,5,2,0:0:0:0:
92,238,85606,1,10,0:1:0:0:
197,91,85799,2,0,B|163:100|148:118|148:118|88:82|123:23,1,161.999995056153,10|0,0:0|0:0,0:0:0:0:
145,47,86186,5,8,0:1:0:0:
345,198,86380,1,8,0:1:0:0:
292,2,86573,1,8,0:0:0:0:
209,266,86767,6,0,L|231:378,1,107.999996704102,2|8,0:0|0:1,0:0:0:0:
345,198,87154,2,0,L|365:92,1,107.999996704102,10|0,0:1|0:0,0:0:0:0:
476,263,87541,5,14,0:1:0:0:
256,192,87638,12,0,89670,0:0:0:0:
