osu file format v14

[General]
AudioFilename: audio.mp3
AudioLeadIn: 0
PreviewTime: 54802
Countdown: 0
SampleSet: Soft
StackLeniency: 0.4
Mode: 0
LetterboxInBreaks: 0
WidescreenStoryboard: 0

[Editor]
DistanceSpacing: 0.5
BeatDivisor: 4
GridSize: 4
TimelineZoom: 2.3

[Metadata]
Title:ROAR (TV Size)
TitleUnicode:ROAR (TV Size)
Artist:Kurosaki Maon
ArtistUnicode:黒崎真音
Creator:Adinda
Version:WIKIPIKA'S EXTRA
Source:とある魔術の禁書目録Ⅲ
Tags:weedy [[Pika]] japanese rock j-rock anime toaru majutsu no kinsho mokuroku a certain magical index season three opening pika 3 iii
BeatmapID:2579321
BeatmapSetID:1239923

[Difficulty]
HPDrainRate:5.5
CircleSize:4
OverallDifficulty:8.5
ApproachRate:9.2
SliderMultiplier:1.7
SliderTickRate:1

[Events]
//Background and Video events
0,0,"a.jpg",0,0
//Break Periods
//Storyboard Layer 0 (Background)
//Storyboard Layer 1 (Fail)
//Storyboard Layer 2 (Pass)
//Storyboard Layer 3 (Foreground)
//Storyboard Layer 4 (Overlay)
//Storyboard Sound Samples

[TimingPoints]
460,254.237288135593,4,2,1,70,1,0
460,-111.111111111111,4,2,1,70,0,0
8341,-250,4,2,1,55,0,0
8595,-76.9230769230769,4,2,1,80,0,1
8659,-76.9230769230769,4,2,1,80,0,0
9104,-100,4,2,1,80,0,0
10248,-90.9090909090909,4,2,1,80,0,0
10629,-80,4,2,1,80,0,0
11137,-100,4,2,1,80,0,0
11900,-83.3333333333333,4,2,1,80,0,0
12282,-80,4,2,1,80,0,0
12663,-100,4,2,1,80,0,0
13680,-83.3333333333333,4,2,1,80,0,0
14697,-90.9090909090909,4,2,1,80,0,0
16731,-90.9090909090909,4,2,1,85,0,0
22324,-250,4,2,1,80,0,0
22705,-250,4,2,1,60,0,0
22832,508.474576271186,4,2,1,80,1,0
22832,-55.5555555555556,4,2,1,65,0,0
34526,-47.6190476190476,4,2,1,65,0,0
34781,-55.5555555555556,4,2,1,65,0,0
39611,-142.857142857143,4,2,1,50,0,0
46221,-90.9090909090909,4,2,1,60,0,0
47239,254.237288135593,4,2,1,75,1,0
47239,-90.9090909090909,4,2,1,75,0,1
47302,-90.9090909090909,4,2,1,75,0,0
53086,-90.9090909090909,4,2,1,70,0,0
54357,-181.818181818182,4,2,1,75,0,0
54866,-285.714285714286,4,2,1,75,0,0
55120,-285.714285714286,4,2,1,65,0,0
55374,-83.3333333333333,4,2,1,85,0,1
66561,-71.4285714285714,4,2,1,85,0,1
67323,-62.5,4,2,1,85,0,1
67832,-83.3333333333333,4,2,1,85,0,1
70501,-60.6060606060606,4,2,1,85,0,1
70883,-83.3333333333333,4,2,1,85,0,1
71645,-90.9090909090909,4,2,1,83,0,0
79781,-68.9655172413793,4,2,1,80,0,1
86900,-60.6060606060606,4,2,1,80,0,1
87662,-68.9655172413793,4,2,1,80,0,0

[Colours]
Combo1 : 250,188,228
Combo2 : 192,192,192

[HitObjects]
143,25,460,5,14,0:0:0:0:
61,57,587,2,0,P|48:99|59:140,1,76.4999976654053,8|8,0:1|0:1,0:0:0:0:
151,36,841,5,8,0:0:0:0:
63,45,968,2,0,P|39:82|39:124,1,76.4999976654053,8|8,0:1|0:1,0:0:0:0:
159,48,1222,5,8,0:0:0:0:
67,31,1349,1,8,0:1:0:0:
139,134,1476,5,10,0:0:0:0:
151,131,1604,1,8,0:1:0:0:
230,97,1731,1,8,0:1:0:0:
292,159,1858,2,0,L|382:148,1,76.4999976654053,8|8,0:0|0:1,0:0:0:0:
243,89,2112,5,8,0:1:0:0:
286,164,2239,2,0,L|375:176,1,76.4999976654053,8|8,0:0|0:1,0:0:0:0:
475,231,2493,6,0,B|426:225|426:225|386:254|386:254|323:247,1,152.999995330811,10|8,0:0|0:1,0:0:0:0:
188,279,2875,2,0,B|214:245|214:245|257:235,1,76.4999976654053,8|8,0:0|0:1,0:0:0:0:
185,360,3129,5,8,0:1:0:0:
173,276,3256,2,0,B|189:236|189:236|228:215,1,76.4999976654053,8|8,0:0|0:1,0:0:0:0:
274,322,3510,5,10,0:0:0:0:
262,318,3637,1,8,0:1:0:0:
190,370,3765,1,8,0:1:0:0:
107,331,3892,2,0,L|27:337,1,76.4999976654053,8|8,0:0|0:1,0:0:0:0:
181,381,4146,5,8,0:1:0:0:
112,323,4273,2,0,L|33:308,1,76.4999976654053,8|8,0:0|0:1,0:0:0:0:
107,115,4527,5,10,0:0:0:0:
198,133,4654,2,0,L|276:147,1,76.4999976654053,8|8,0:1|0:1,0:0:0:0:
107,129,4909,5,8,0:0:0:0:
199,122,5036,2,0,L|279:116,1,76.4999976654053,8|8,0:1|0:1,0:0:0:0:
109,141,5290,5,8,0:0:0:0:
200,105,5417,1,8,0:1:0:0:
126,39,5544,5,10,0:0:0:0:
125,53,5671,1,8,0:1:0:0:
48,21,5798,1,8,0:1:0:0:
8,91,5926,2,0,B|3:129|3:129|28:169,1,76.4999976654053,10|8,0:0|0:1,0:0:0:0:
55,12,6180,1,8,0:1:0:0:
87,214,6307,1,10,0:0:0:0:
80,225,6434,1,8,0:1:0:0:
80,225,8341,6,0,B|94:247|94:247|94:280,1,51,2|0,0:0|0:0,0:0:0:0:
33,335,8595,6,0,P|95:288|174:315,1,165.749992412568,14|0,0:1|0:0,0:0:0:0:
206,341,8849,2,0,P|281:366|345:319,1,165.749992412568,8|0,0:1|0:0,0:0:0:0:
264,180,9104,2,0,P|223:190|194:221,1,85,8|2,0:0|0:0,0:0:0:0:
345,319,9358,1,0,0:0:0:0:
334,141,9485,2,0,P|305:110|264:100,1,85,10|0,0:0|0:0,0:0:0:0:
268,275,9739,1,0,0:0:0:0:
414,169,9866,2,0,P|480:157|521:154,1,85,8|2,0:1|0:0,0:0:0:0:
179,118,10121,1,8,0:0:0:0:
435,70,10248,2,0,B|371:68|371:68|333:104|333:104|263:100,1,187.000005706787,14|0,0:1|0:0,0:0:0:0:
88,7,10629,6,0,B|106:67|106:67|86:101|86:101|99:159,1,159.375,14|0,0:1|0:0,0:0:0:0:
46,235,10883,2,0,P|106:187|179:211,1,159.375,8|0,0:1|0:0,0:0:0:0:
157,355,11137,2,0,B|107:381|107:381|122:259,1,170,8|0,0:0|0:0,0:0:0:0:
179,115,11519,1,8,0:0:0:0:
37,241,11646,1,8,0:0:0:0:
37,241,11900,6,0,B|122:268|99:186|188:213,1,152.999995330811,14|0,0:1|0:0,0:0:0:0:
213,224,12154,1,8,0:0:0:0:
351,384,12282,2,0,P|353:273|385:104,1,265.625,14|0,0:1|0:0,0:0:0:0:
428,52,12663,6,0,P|488:88|439:144,1,127.5,14|0,0:1|0:0,0:0:0:0:
457,147,12917,1,8,0:1:0:0:
342,42,13044,5,2,0:0:0:0:
291,108,13171,1,8,0:0:0:0:
123,17,13298,5,2,0:0:0:0:
182,73,13426,1,0,0:0:0:0:
159,162,13553,1,10,0:0:0:0:
21,76,13680,1,0,0:0:0:0:
21,76,13934,5,8,0:1:0:0:
102,97,14061,1,2,0:0:0:0:
240,189,14188,1,8,0:0:0:0:
63,294,14315,2,0,B|1:272|-18:174|66:158|109:208|93:226,1,203.999993774414,14|0,0:1|0:0,0:0:0:0:
272,360,14697,6,0,P|221:340|120:349,1,140.25000428009,14|0,0:1|0:0,0:0:0:0:
99,362,14951,1,8,0:1:0:0:
219,260,15078,5,2,0:0:0:0:
228,172,15205,1,8,0:0:0:0:
395,129,15332,5,2,0:0:0:0:
347,213,15459,1,0,0:0:0:0:
419,285,15587,1,8,0:0:0:0:
499,144,15714,5,8,0:0:0:0:
437,35,15841,1,8,0:0:0:0:
487,148,15968,2,0,P|498:198|504:245,1,93.5000028533936,12|0,0:1|0:0,0:0:0:0:
458,8,16222,1,8,0:0:0:0:
310,138,16349,2,0,B|254:172|218:130|227:133|192:91|136:117,1,187.000005706787,12|8,0:1|0:0,0:0:0:0:
12,4,16731,6,0,B|46:36|46:36|52:85,1,93.5000028533936,14|0,0:1|0:0,0:0:0:0:
167,199,16985,2,0,B|156:244|156:244|116:274,1,93.5000028533936,8|0,0:0|0:0,0:0:0:0:
0,159,17239,1,8,0:1:0:0:
80,193,17366,1,10,0:1:0:0:
8,333,17493,1,8,0:0:0:0:
108,279,17621,1,10,0:1:0:0:
151,351,17748,6,0,P|193:374|245:361,1,93.5000028533936,0|8,0:0|0:1,0:0:0:0:
338,220,18002,1,8,0:0:0:0:
309,140,18129,2,0,P|268:164|253:216,1,93.5000028533936,2|8,0:0|0:1,0:0:0:0:
443,329,18383,1,10,0:1:0:0:
508,257,18510,2,0,P|510:196|513:156,1,93.5000028533936,8|0,0:0|0:0,0:0:0:0:
332,317,18765,6,0,B|335:251|335:251|306:214|306:214|308:140,1,187.000005706787,10|8,0:1|0:0,0:0:0:0:
436,34,19146,1,0,0:0:0:0:
405,152,19273,1,8,0:1:0:0:
304,55,19400,1,10,0:1:0:0:
425,29,19527,2,0,B|474:13|474:13|515:35,1,93.5000028533936,8|10,0:0|0:1,0:0:0:0:
396,171,19782,5,0,0:0:0:0:
297,46,19909,2,0,B|251:32|251:32|207:52,1,93.5000028533936,8|8,0:1|0:0,0:0:0:0:
45,130,20163,2,0,B|11:78|11:78|147:113,1,187.000005706787,2|10,0:0|0:1,0:0:0:0:
247,292,20544,2,0,P|265:238|241:194,2,93.5000028533936,8|2|0,0:0|0:0|0:0,0:0:0:0:
247,292,22324,2,0,B|221:296|192:288|192:288|205:316|230:315,1,102,8|0,0:3|0:0,0:0:0:0:
296,354,22832,6,0,P|321:324|311:246,1,114.749996498108,14|0,0:1|0:0,0:0:0:0:
306,233,23086,2,0,P|319:269|392:299,1,114.749996498108,10|0,0:1|0:0,0:0:0:0:
405,302,23340,2,0,P|361:299|323:318,1,76.4999976654053,10|0,0:0|0:0,0:0:0:0:
405,148,23594,1,10,0:1:0:0:
475,192,23721,2,0,P|482:238|484:287,1,76.4999976654053,2|0,0:1|0:0,0:0:0:0:
396,144,23976,2,0,P|389:190|387:239,1,76.4999976654053,10|0,0:1|0:0,0:0:0:0:
484,103,24230,1,10,0:1:0:0:
351,71,24357,1,10,0:0:0:0:
343,76,24484,1,0,0:0:0:0:
394,5,24611,1,2,0:0:0:0:
472,21,24738,1,0,0:0:0:0:
335,81,24865,6,0,P|255:53|164:51,1,152.999995330811,10|0,0:1|0:0,0:0:0:0:
187,48,25247,1,10,0:1:0:0:
39,122,25374,2,0,P|16:80|32:45,1,76.4999976654053,8|0,0:0|0:0,0:0:0:0:
108,212,25628,1,10,0:1:0:0:
87,195,25755,2,0,P|48:198|11:203,1,76.4999976654053,0|0,0:0|0:0,0:0:0:0:
164,328,26009,2,0,B|218:317|218:317|231:272|231:272|287:259,1,152.999995330811,10|8,0:1|0:1,0:0:0:0:
429,377,26391,2,0,B|447:343|447:343|439:297,1,76.4999976654053,10|8,0:0|0:1,0:0:0:0:
350,358,26645,2,0,B|343:320|343:320|361:286,1,76.4999976654053,2|0,0:0|0:0,0:0:0:0:
433,186,26899,6,0,B|483:181|503:221|503:221|493:254|468:231,1,114.749996498108,10|0,0:1|0:0,0:0:0:0:
418,175,27154,2,0,B|388:133|413:96|413:96|446:88|439:121,1,114.749996498108,10|0,0:1|0:0,0:0:0:0:
417,193,27408,2,0,B|395:239|350:235,1,76.4999976654053,10|0,0:0|0:0,0:0:0:0:
210,160,27662,1,10,0:1:0:0:
249,91,27789,2,0,P|298:86|343:83,1,76.4999976654053,2|0,0:1|0:0,0:0:0:0:
201,168,28043,2,0,P|152:163|107:160,1,76.4999976654053,10|0,0:1|0:0,0:0:0:0:
277,209,28298,1,10,0:1:0:0:
96,283,28425,2,0,B|152:273|152:273|188:296|188:296|253:283,1,152.999995330811,10|2,0:0|0:0,0:0:0:0:
240,285,28806,1,0,0:0:0:0:
386,378,28933,6,0,P|446:374|487:290,1,152.999995330811,10|0,0:1|0:0,0:0:0:0:
351,239,29315,2,0,P|330:270|326:308,1,76.4999976654053,10|8,0:1|0:0,0:0:0:0:
386,378,29569,1,0,0:0:0:0:
442,220,29696,2,0,B|439:166|426:115|426:115|450:126|473:142,1,152.999995330811,10|0,0:1|0:0,0:0:0:0:
408,301,30077,2,0,P|377:278|361:244,1,76.4999976654053,2|0,0:0|0:0,0:0:0:0:
208,125,30331,1,8,0:1:0:0:
274,76,30459,2,0,B|293:113|293:113|286:150,1,76.4999976654053,10|0,0:0|0:0,0:0:0:0:
56,244,30713,1,10,0:0:0:0:
221,211,30840,1,8,0:0:0:0:
46,255,30967,6,0,P|110:262|172:270,1,114.749996498108,12|0,0:1|0:0,0:0:0:0:
187,294,31221,2,0,B|194:333|194:333|177:365,1,76.4999976654053,10|0,0:1|0:0,0:0:0:0:
5,338,31476,1,10,0:0:0:0:
0,325,31603,1,0,0:0:0:0:
46,255,31730,1,10,0:1:0:0:
0,190,31857,2,0,B|-7:150|-7:150|9:118,1,76.4999976654053,2|0,0:0|0:0,0:0:0:0:
155,148,32111,2,0,P|110:156|76:166,1,76.4999976654053,10|0,0:1|0:0,0:0:0:0:
0,36,32365,1,10,0:1:0:0:
147,68,32493,2,0,B|260:76|175:115|299:126,1,152.999995330811,10|2,0:0|0:0,0:0:0:0:
282,124,33001,5,8,0:1:0:0:
293,117,33128,1,0,0:0:0:0:
348,183,33255,2,0,P|383:172|439:165,1,76.4999976654053,2|10,0:0|0:1,0:0:0:0:
251,214,33509,1,10,0:0:0:0:
269,221,33637,1,0,0:0:0:0:
237,312,33764,1,10,0:1:0:0:
328,288,33891,2,0,P|363:299|419:306,1,76.4999976654053,2|0,0:0|0:0,0:0:0:0:
267,199,34145,2,0,P|302:188|358:181,1,76.4999976654053,10|0,0:1|0:0,0:0:0:0:
244,327,34399,1,10,0:1:0:0:
147,173,34526,2,0,B|52:148|52:148|73:192,1,133.874995914459,10|0,0:0|0:0,0:0:0:0:
68,181,34781,2,0,P|90:147|88:105,1,76.4999976654053,2|0,0:0|0:0,0:0:0:0:
4,0,35035,5,8,0:1:0:0:
4,0,35289,2,0,B|10:39|10:39|14:44|14:44|21:87,1,76.4999976654053,10|0,0:1|0:0,0:0:0:0:
75,186,35543,2,0,B|81:147|81:147|85:142|85:142|92:99,1,76.4999976654053,10|0,0:0|0:0,0:0:0:0:
261,79,35798,1,8,0:1:0:0:
157,55,35925,1,0,0:0:0:0:
209,143,36052,1,2,0:0:0:0:
195,147,36179,1,8,0:1:0:0:
167,233,36306,1,0,0:0:0:0:
262,305,36433,2,0,P|306:279|322:242,1,76.4999976654053,10|8,0:1|0:0,0:0:0:0:
157,225,36687,1,8,0:1:0:0:
108,369,36815,2,0,P|64:343|48:306,1,76.4999976654053,0|0,0:0|0:0,0:0:0:0:
188,153,37069,5,8,0:1:0:0:
188,153,37323,2,0,P|165:183|161:221,1,76.4999976654053,2|8,0:0|0:1,0:0:0:0:
323,334,37577,2,0,P|318:291|318:251,1,76.4999976654053,10|0,0:0|0:0,0:0:0:0:
350,103,37831,1,10,0:1:0:0:
244,215,37959,1,8,0:0:0:0:
364,109,38086,2,0,B|403:94|403:94|436:107,1,76.4999976654053,2|0,0:0|0:0,0:0:0:0:
227,58,38340,1,4,0:3:0:0:
335,178,38467,2,0,B|368:191|368:191|407:176,1,76.4999976654053,10|8,0:0|0:0,0:0:0:0:
321,7,38721,1,8,0:0:0:0:
268,134,38848,1,10,0:3:0:0:
351,295,38976,1,4,0:3:0:0:
334,326,39103,1,4,0:0:0:0:
334,326,39611,6,0,P|393:327|446:265,2,118.999996368408,2|0|0,0:0|0:0|0:0,0:0:0:0:
238,255,41137,2,0,P|203:261|182:280,1,59.4999981842042,2|0,0:0|0:0,0:0:0:0:
166,298,41518,2,0,L|51:279,1,89.2499972763062,2|0,0:0|0:0,0:0:0:0:
50,355,42154,2,0,B|131:236|-16:269|-7:263|35:129,1,237.999992736817,2|0,0:0|0:0,0:0:0:0:
27,153,43679,6,0,B|18:132|18:132|32:43|21:27,2,118.999996368408,2|0|0,0:0|0:0|0:0,0:0:0:0:
134,206,45204,2,0,B|146:207|169:141|237:160,1,118.999996368408,2|0,0:0|0:0,0:0:0:0:
236,160,45967,1,0,0:0:0:0:
248,187,46094,1,0,0:0:0:0:
342,227,46221,2,0,P|385:214|395:162,1,93.5000028533936,2|0,0:0|0:0,0:0:0:0:
389,140,46603,2,0,P|352:113|310:130,1,93.5000028533936,2|0,0:0|0:0,0:0:0:0:
267,270,46984,2,0,B|269:289|269:289|266:305|266:305|274:326,1,46.7500014266968,2|0,0:0|0:0,0:0:0:0:
91,188,47239,5,14,0:0:0:0:
174,258,47366,2,0,B|166:279|166:279|166:340|166:340|157:362,1,93.5000028533936,8|8,0:1|0:1,0:0:0:0:
80,198,47620,5,8,0:0:0:0:
178,244,47747,2,0,B|175:266|175:266|191:325|191:325|188:348,1,93.5000028533936,8|8,0:1|0:1,0:0:0:0:
173,158,48001,5,8,0:0:0:0:
80,284,48128,1,8,0:1:0:0:
168,139,48255,2,0,B|180:87|135:51|135:51|86:62|56:112,1,187.000005706787,14|8,0:0|0:1,0:0:0:0:
260,193,48637,2,0,B|272:188|354:184|358:169,1,93.5000028533936,8|8,0:0|0:1,0:0:0:0:
382,54,48891,1,8,0:1:0:0:
259,179,49018,2,0,B|271:184|353:188|357:203,1,93.5000028533936,10|8,0:0|0:1,0:0:0:0:
467,340,49272,5,14,0:0:0:0:
364,287,49400,1,8,0:1:0:0:
486,244,49527,1,8,0:1:0:0:
359,367,49654,2,0,P|300:347|293:310,1,93.5000028533936,10|8,0:0|0:1,0:0:0:0:
497,251,49908,1,8,0:1:0:0:
424,126,50035,2,0,P|365:146|358:183,1,93.5000028533936,10|0,0:0|0:1,0:0:0:0:
191,341,50289,6,0,B|222:350|253:320|253:320|295:279|363:286,1,187.000005706787,14|8,0:0|0:1,0:0:0:0:
130,213,50671,1,10,0:0:0:0:
201,263,50798,1,8,0:1:0:0:
240,223,50925,1,8,0:1:0:0:
95,338,51052,1,10,0:0:0:0:
26,272,51179,1,8,0:1:0:0:
32,259,51306,1,10,0:0:0:0:
256,192,51433,12,2,53086,0:0:0:0:
339,155,53340,5,10,0:0:0:0:
119,230,53467,1,8,0:0:0:0:
85,286,53722,1,10,0:0:0:0:
138,286,53976,1,10,0:0:0:0:
76,238,54230,1,10,0:0:0:0:
370,211,54357,2,0,P|403:152|324:94,1,163.625004993439,8|0,0:0|0:0,0:0:0:0:
327,92,54866,2,0,B|296:107|296:107|282:138,1,59.4999981842042,8|0,0:3|0:0,0:0:0:0:
320,360,55374,5,14,0:1:0:0:
479,208,55501,1,8,0:1:0:0:
449,384,55628,1,8,0:0:0:0:
314,274,55755,2,0,B|215:281|281:384|126:329,1,203.999993774414,10|8,0:1|0:1,0:0:0:0:
45,169,56137,1,10,0:0:0:0:
45,169,56391,5,10,0:1:0:0:
181,256,56518,1,8,0:1:0:0:
9,307,56645,1,8,0:0:0:0:
133,165,56772,2,0,B|176:140|199:33|173:92|197:26|69:62|100:96|96:102,1,203.999993774414,10|8,0:1|0:1,0:0:0:0:
90,249,57154,1,10,0:0:0:0:
90,249,57408,5,10,0:1:0:0:
252,182,57535,1,8,0:1:0:0:
77,254,57662,1,8,0:0:0:0:
265,352,57789,2,0,B|310:324|299:286|293:286|293:294|300:294|293:290|296:288|297:293|300:292|296:289|308:269|299:271|301:279|308:277|310:274|301:276|306:276|304:273|291:279|215:226|287:276|296:280|340:240|332:182,1,203.999993774414,10|8,0:1|0:1,0:0:0:0:
319,5,58171,1,10,0:0:0:0:
319,5,58425,6,0,P|287:71|300:104,1,101.999996887207,10|8,0:1|0:1,0:0:0:0:
403,246,58679,1,8,0:0:0:0:
478,91,58806,2,0,B|512:33|512:33|367:67,1,203.999993774414,10|8,0:1|0:1,0:0:0:0:
149,163,59188,2,0,B|196:166|196:166|203:173|203:173|258:177,1,101.999996887207,8|0,0:0|0:0,0:0:0:0:
475,318,59442,1,12,0:1:0:0:
475,318,59696,6,0,P|503:268|493:213,1,101.999996887207,10|8,0:0|0:1,0:0:0:0:
308,270,59950,1,2,0:0:0:0:
403,246,60077,1,8,0:1:0:0:
211,282,60205,1,10,0:0:0:0:
309,366,60332,2,0,P|371:376|413:384,1,101.999996887207,2|8,0:0|0:1,0:0:0:0:
244,181,60586,1,8,0:1:0:0:
187,278,60713,2,0,B|168:334|168:334|185:382,1,101.999996887207,10|8,0:0|0:1,0:0:0:0:
356,154,60967,2,0,P|305:163|255:171,1,101.999996887207,2|8,0:0|0:1,0:0:0:0:
64,54,61222,2,0,P|114:63|164:71,1,101.999996887207,10|0,0:0|0:0,0:0:0:0:
484,188,61476,5,14,0:1:0:0:
378,75,61603,1,8,0:1:0:0:
243,160,61730,2,0,B|196:185|196:185|133:181,1,101.999996887207,8|0,0:0|0:0,0:0:0:0:
458,204,61984,5,14,0:1:0:0:
379,61,62111,1,8,0:1:0:0:
261,181,62238,2,0,B|222:217|222:217|160:229,1,101.999996887207,8|0,0:0|0:0,0:0:0:0:
440,217,62493,5,14,0:1:0:0:
379,32,62620,1,8,0:1:0:0:
289,201,62747,2,0,B|260:246|260:246|204:274,1,101.999996887207,8|8,0:0|0:1,0:0:0:0:
10,94,63001,5,10,0:0:0:0:
235,60,63128,1,8,0:3:0:0:
138,206,63255,1,10,0:3:0:0:
135,193,63383,1,4,0:3:0:0:
95,27,63510,5,14,0:1:0:0:
32,199,63637,1,8,0:1:0:0:
160,94,63764,1,8,0:0:0:0:
21,215,63891,2,0,B|-13:266|85:215|-9:263|-29:323|72:354|103:334|119:292,1,203.999993774414,10|8,0:1|0:1,0:0:0:0:
283,152,64272,1,10,0:0:0:0:
283,152,64527,5,10,0:1:0:0:
420,73,64654,1,8,0:1:0:0:
246,32,64781,1,8,0:0:0:0:
428,161,64908,2,0,B|489:202|447:281|404:263|432:226|486:259|465:325|369:321|402:293|390:371,1,203.999993774414,10|8,0:1|0:1,0:0:0:0:
226,379,65289,1,10,0:0:0:0:
226,379,65544,5,10,0:1:0:0:
343,233,65671,1,8,0:1:0:0:
468,378,65798,1,8,0:0:0:0:
337,221,65925,2,0,B|301:204|264:220|260:257|250:294|226:297|195:291|171:245,1,203.999993774414,10|8,0:1|0:1,0:0:0:0:
32,69,66306,1,10,0:0:0:0:
32,69,66561,6,0,B|-3:130|5:163|101:194|116:251|30:274|46:206,1,237.999992736817,10|8,0:1|0:0,0:0:0:0:
394,11,66942,2,0,B|493:29|487:34|486:42|490:52|499:51|496:38|490:40|489:42|493:43|517:26|508:26|500:35|513:36|516:31|514:37|513:46|514:50|407:99,1,237.999992736817,10|8,0:1|0:1,0:0:0:0:
82,366,67323,2,0,B|109:163|1:266|102:111,1,272,10|12,0:0|0:1,0:0:0:0:
102,111,67832,6,0,P|139:143|128:206,1,101.999996887207,10|8,0:0|0:1,0:0:0:0:
1,362,68086,2,0,P|10:313|70:291,1,101.999996887207,2|8,0:0|0:1,0:0:0:0:
322,200,68340,1,10,0:0:0:0:
269,324,68467,2,0,P|222:340|173:299,1,101.999996887207,2|8,0:0|0:1,0:0:0:0:
488,282,68722,1,8,0:1:0:0:
329,105,68849,2,0,B|307:154|307:154|322:200,1,101.999996887207,10|8,0:0|0:1,0:0:0:0:
494,376,69103,2,0,B|509:330|509:330|487:281,1,101.999996887207,2|8,0:0|0:1,0:0:0:0:
279,307,69357,2,0,P|337:295|391:292,1,101.999996887207,10|0,0:0|0:0,0:0:0:0:
227,45,69611,6,0,B|297:34|297:34|342:84|342:84|407:75,1,203.999993774414,10|8,0:1|0:0,0:0:0:0:
491,64,69993,1,2,0:0:0:0:
320,198,70120,1,10,0:1:0:0:
126,61,70247,2,0,L|226:44,1,101.999996887207,10|8,0:1|0:0,0:0:0:0:
0,314,70501,2,0,B|33:286|90:295|113:342|113:342|116:331|116:331|139:378|189:386|232:355,1,280.500002675057,2|8,0:0|0:1,0:0:0:0:
498,202,70883,2,0,B|450:197|450:197|443:202|442:202|392:199,1,101.999996887207,8|0,0:0|0:0,0:0:0:0:
62,207,71137,5,8,0:0:0:0:
142,69,71264,1,8,0:0:0:0:
347,131,71391,5,10,0:0:0:0:
264,282,71518,1,10,0:0:0:0:
175,161,71645,6,0,B|219:138|219:138|274:146,1,93.5000028533936,14|0,0:1|0:0,0:0:0:0:
382,293,71900,2,0,P|336:287|289:285,1,93.5000028533936,10|0,0:0|0:0,0:0:0:0:
90,201,72154,1,2,0:0:0:0:
170,72,72281,2,0,P|185:120|172:162,1,93.5000028533936,10|8,0:1|0:0,0:0:0:0:
60,327,72535,6,0,B|8:369|8:369|20:242,1,187.000005706787,2|0,0:0|0:0,0:0:0:0:
208,249,72916,1,10,0:0:0:0:
92,119,73044,2,0,P|43:113|-14:103,1,93.5000028533936,8|0,0:1|0:0,0:0:0:0:
206,266,73298,1,8,0:1:0:0:
264,66,73425,2,0,P|313:60|370:50,1,93.5000028533936,10|0,0:0|0:0,0:0:0:0:
456,363,73679,6,0,B|497:311|497:311|458:183,2,187.000005706787,10|10|2,0:1|0:0|0:0,0:0:0:0:
300,223,74315,1,8,0:1:0:0:
391,285,74442,1,10,0:0:0:0:
243,355,74569,6,0,B|200:369|200:369|148:344,1,93.5000028533936,2|8,0:0|0:1,0:0:0:0:
9,144,74823,1,0,0:0:0:0:
62,355,74950,2,0,B|61:382|25:384|18:322|86:295|129:265|86:190,1,187.000005706787,10|0,0:0|0:0,0:0:0:0:
52,58,75332,1,8,0:1:0:0:
185,187,75459,1,10,0:0:0:0:
5,234,75586,1,2,0:0:0:0:
186,92,75713,6,0,B|218:88|239:106|239:106|275:56|248:2|187:-1,2,187.000005706787,14|10|2,0:1|0:0|0:0,0:0:0:0:
99,236,76349,1,8,0:1:0:0:
188,178,76476,1,10,0:0:0:0:
243,355,76603,2,0,B|308:363|308:363|343:317|343:317|407:324,1,187.000005706787,2|0,0:0|0:0,0:0:0:0:
309,144,76984,6,0,P|318:184|323:242,1,93.5000028533936,10|8,0:0|0:1,0:0:0:0:
500,183,77238,2,0,P|491:223|486:281,1,93.5000028533936,2|8,0:0|0:1,0:0:0:0:
314,136,77493,2,0,P|323:176|328:234,1,93.5000028533936,10|0,0:0|0:0,0:0:0:0:
484,88,77747,2,0,P|375:63|398:-4,2,187.000005706787,10|8|0,0:1|0:0|0:0,0:0:0:0:
463,8,78383,1,8,0:1:0:0:
314,136,78510,2,0,B|265:151|265:151|219:114,1,93.5000028533936,10|8,0:0|0:0,0:0:0:0:
214,108,78700,1,8,0:0:0:0:
214,108,78764,5,8,0:0:0:0:
285,67,78891,1,8,0:0:0:0:
52,49,79018,5,8,0:0:0:0:
123,8,79145,1,8,0:0:0:0:
87,211,79272,5,8,0:0:0:0:
129,137,79400,1,8,0:0:0:0:
239,294,79527,5,8,0:0:0:0:
204,213,79654,1,8,0:0:0:0:
299,62,79781,6,0,B|365:71|394:54|394:54|460:72|460:72|429:101|396:150,1,246.500007522583,14|8,0:1|0:0,0:0:0:0:
37,337,80162,2,0,B|14:267|43:258|48:258|49:258|78:217|75:137|34:130|15:142|15:142|23:174,1,246.500007522583,10|8,0:1|0:1,0:0:0:0:
511,301,80544,2,0,B|507:339|465:359|465:359|444:322|370:406|283:308,1,246.500007522583,10|8,0:0|0:1,0:0:0:0:
16,15,80925,2,0,B|52:27|52:27|57:26|58:26|118:38|119:38|112:85|148:132|148:132|218:116,1,246.500007522583,10|8,0:1|0:1,0:0:0:0:
467,188,81306,2,0,B|418:174|418:174|414:180|414:180|391:169|340:197,1,123.250003761292,10|8,0:1|0:1,0:0:0:0:
201,377,81561,2,0,B|176:356|146:360|146:360|179:342|168:325|187:296,1,123.250003761292,8|8,0:0|0:1,0:0:0:0:
452,55,81815,6,0,B|479:51|484:15|447:8|438:27|511:69|537:77|466:238,1,246.500007522583,10|8,0:1|0:0,0:0:0:0:
182,112,82196,2,0,B|199:75|176:98|134:60|183:-8|214:10|297:19|330:115,1,246.500007522583,10|8,0:1|0:1,0:0:0:0:
5,236,82577,2,0,B|61:260|110:293|133:247|105:192|138:163|208:217,1,246.500007522583,10|8,0:0|0:1,0:0:0:0:
206,216,83086,2,0,B|225:250|252:258|249:285|298:281|174:329,1,123.250003761292,10|8,0:0|0:1,0:0:0:0:
337,84,83340,1,10,0:1:0:0:
411,364,83467,2,0,B|411:319|411:319|426:305|434:258|425:242|425:242|403:183|403:183|432:158|440:130,1,246.500007522583,10|8,0:1|0:1,0:0:0:0:
90,15,83849,6,0,B|106:44|136:38|122:31|89:44|85:104|167:125|188:141|90:223,1,246.500007522583,14|8,0:1|0:0,0:0:0:0:
442,286,84230,2,0,B|495:317|514:329|466:374|391:367|337:255,1,246.500007522583,10|8,0:1|0:1,0:0:0:0:
51,354,84611,2,0,B|33:323|35:311|35:311|90:343|143:361|154:296|148:287|219:267,1,246.500007522583,10|8,0:0|0:1,0:0:0:0:
231,16,84993,2,0,B|265:36|240:13|191:35|199:85|238:156|257:92|240:129|341:154|356:115|323:82|353:90|351:61,1,246.500007522583,10|0,0:1|0:0,0:0:0:0:
34,115,85374,2,0,B|6:149|66:162|26:209|91:213,1,123.250003761292,10|8,0:1|0:1,0:0:0:0:
309,375,85628,2,0,B|303:355|298:346|312:345|314:338|302:338|309:344|310:341|306:330|306:330|319:334|297:288|324:247,1,123.250003761292,8|0,0:0|0:0,0:0:0:0:
16,29,85883,6,0,B|49:22|83:26|89:61|135:124|240:90|129:12,1,246.500007522583,10|8,0:1|0:0,0:0:0:0:
13,289,86264,2,0,B|45:357|96:325|153:275|145:297|145:297|147:301|188:308|241:387,1,246.500007522583,10|8,0:1|0:1,0:0:0:0:
505,188,86645,2,0,B|471:159|471:161|527:227|382:177,1,123.250003761292,10|8,0:0|0:1,0:0:0:0:
72,136,86900,6,8,B|63:127|63:127|16:116|16:116|24:104,3,70.1250006687641
72,248,87154,2,8,B|63:257|63:257|16:268|16:268|24:280,3,70.1250006687641,8|8|8|8,0:3|0:3|0:3|0:3,0:3:0:0:
168,96,87408,2,4,B|164:80|176:76|176:76|168:56|160:40|132:28,1,70.1250006687641,4|4,0:3|0:3,0:3:0:0:
168,288,87535,2,4,B|164:304|176:308|176:308|168:328|160:344|132:356,1,70.1250006687641,4|4,0:3|0:3,0:3:0:0:
244,192,87662,5,12,0:0:0:0:
