osu file format v14

[General]
AudioFilename: audio.mp3
AudioLeadIn: 0
PreviewTime: 54802
Countdown: 0
SampleSet: Soft
StackLeniency: 0.7
Mode: 0
LetterboxInBreaks: 0
WidescreenStoryboard: 0

[Editor]
DistanceSpacing: 1
BeatDivisor: 4
GridSize: 16
TimelineZoom: 2.3

[Metadata]
Title:ROAR (TV Size)
TitleUnicode:ROAR (TV Size)
Artist:Kurosaki Maon
ArtistUnicode:黒崎真音
Creator:Adinda
Version:NORMAL
Source:とある魔術の禁書目録Ⅲ
Tags:weedy [[Pika]] japanese rock j-rock anime toaru majutsu no kinsho mokuroku a certain magical index season three opening pika 3 iii
BeatmapID:2578189
BeatmapSetID:1239923

[Difficulty]
HPDrainRate:4
CircleSize:3
OverallDifficulty:4.5
ApproachRate:6
SliderMultiplier:1
SliderTickRate:1

[Events]
//Background and Video events
0,0,"a.jpg",0,0
//Break Periods
2,39048,45919
//Storyboard Layer 0 (Background)
//Storyboard Layer 1 (Fail)
//Storyboard Layer 2 (Pass)
//Storyboard Layer 3 (Foreground)
//Storyboard Layer 4 (Overlay)
//Storyboard Sound Samples

[TimingPoints]
460,254.237288135593,4,2,1,70,1,0
460,-100,4,2,1,70,0,0
8595,-100,4,2,1,80,0,0
16731,-100,4,2,1,85,0,0
22324,-100,4,2,1,80,0,0
22832,508.474576271186,4,2,1,80,1,0
22832,-55.5555555555556,4,2,1,65,0,0
47239,254.237288135593,4,2,1,75,1,0
47239,-100,4,2,1,75,0,0
53340,-100,4,2,1,75,0,0
55374,-100,4,2,1,85,0,1
63001,-100,4,2,1,85,0,0
63510,-100,4,2,1,85,0,1
71645,-100,4,2,1,83,0,0
79781,-100,4,2,1,80,0,0

[Colours]
Combo1 : 250,188,228
Combo2 : 192,192,192

[HitObjects]
39,88,460,6,0,L|205:71,2,150,14|8|8,0:0|0:0|0:0,0:0:0:0:
89,174,1476,2,0,P|120:210|123:324,1,150,10|8,0:0|0:0,0:0:0:0:
276,341,2239,1,8,0:0:0:0:
375,344,2493,6,0,P|406:308|406:193,2,150,10|8|8,0:0|0:0|0:0,0:0:0:0:
319,260,3510,2,0,P|316:201|310:91,1,150,10|8,0:0|0:0,0:0:0:0:
187,24,4273,1,8,0:0:0:0:
154,118,4527,6,0,B|101:117|101:117|55:133|55:133|-5:133,2,150,10|8|8,0:0|0:0|0:0,0:0:0:0:
188,211,5544,2,0,P|246:213|328:267,1,150,10|10,0:0|0:0,0:0:0:0:
399,131,6307,2,0,L|389:78,1,50,10|8,0:0|0:1,0:0:0:0:
389,81,8595,6,0,P|419:113|419:236,1,150,14|2,0:1|0:0,0:0:0:0:
489,295,9231,1,2,0:0:0:0:
402,345,9485,2,0,L|241:314,1,150,8|8,0:0|0:1,0:0:0:0:
209,336,9993,1,2,0:0:0:0:
108,342,10248,1,14,0:1:0:0:
29,214,10629,6,0,P|26:178|27:48,1,150,14|2,0:1|0:0,0:0:0:0:
117,24,11265,1,2,0:0:0:0:
211,57,11519,1,8,0:0:0:0:
211,57,11646,1,8,0:0:0:0:
299,31,11900,2,0,P|306:92|311:181,1,150,14|14,0:1|0:1,0:0:0:0:
180,255,12663,6,0,P|177:302|263:356,1,150,14|2,0:1|0:0,0:0:0:0:
353,358,13298,1,2,0:0:0:0:
453,351,13553,2,0,P|465:302|452:194,1,150,10|8,0:0|0:1,0:0:0:0:
482,157,14061,1,2,0:0:0:0:
441,65,14315,1,14,0:1:0:0:
296,24,14697,6,0,P|296:59|299:184,1,150,14|2,0:1|0:0,0:0:0:0:
223,250,15332,1,2,0:0:0:0:
158,327,15587,2,0,P|114:321|56:317,1,100,8|8,0:0|0:0,0:0:0:0:
28,276,15968,1,12,0:1:0:0:
30,166,16222,1,8,0:0:0:0:
30,166,16349,2,0,P|29:104|25:52,1,100,12|8,0:1|0:0,0:0:0:0:
37,17,16731,5,14,0:1:0:0:
136,20,16985,1,8,0:0:0:0:
236,17,17239,2,0,P|233:71|234:127,1,100,8|8,0:1|0:0,0:0:0:0:
251,164,17621,2,0,P|276:247|233:297,1,150,10|8,0:1|0:0,0:0:0:0:
317,356,18256,2,8,P|342:355|370:354,1,50,8|10,0:1|0:1,0:0:0:0:
415,366,18510,1,8,0:0:0:0:
484,293,18765,5,10,0:1:0:0:
457,196,19019,2,0,P|459:148|453:30,1,150,8|10,0:0|0:1,0:0:0:0:
417,12,19527,1,8,0:0:0:0:
417,12,19654,1,10,0:1:0:0:
317,22,19909,1,8,0:1:0:0:
317,22,20036,2,0,P|329:80|343:188,1,150,8|10,0:0|0:1,0:0:0:0:
367,206,20544,1,8,0:0:0:0:
367,206,22324,5,8,0:3:0:0:
188,225,22832,6,0,P|172:186|177:120,1,89.9999972534181,14|10,0:1|0:1,0:0:0:0:
173,48,23340,2,0,P|227:44|320:46,1,134.999995880127,10|2,0:0|0:1,0:0:0:0:
397,58,23976,1,10,0:1:0:0:
350,133,24230,1,10,0:1:0:0:
350,133,24357,2,0,L|339:231,1,89.9999972534181,10|2,0:0|0:0,0:0:0:0:
323,310,24865,6,0,P|379:323|433:262,1,134.999995880127,10|10,0:1|0:1,0:0:0:0:
482,142,25628,2,0,P|404:147|343:129,1,134.999995880127,10|10,0:1|0:1,0:0:0:0:
277,10,26391,2,0,P|200:19|168:24,1,89.9999972534181,10|2,0:0|0:0,0:0:0:0:
97,21,26899,6,0,P|85:76|108:117,1,89.9999972534181,10|10,0:1|0:1,0:0:0:0:
13,169,27408,2,0,P|29:224|3:310,1,134.999995880127,10|2,0:0|0:1,0:0:0:0:
74,361,28043,1,10,0:1:0:0:
145,305,28298,1,10,0:1:0:0:
145,305,28425,2,0,P|191:304|249:304,1,89.9999972534181,10|2,0:0|0:0,0:0:0:0:
214,216,28933,6,0,P|211:167|202:70,1,134.999995880127,10|10,0:1|0:1,0:0:0:0:
337,67,29696,2,0,P|342:146|344:208,1,134.999995880127,10|2,0:1|0:0,0:0:0:0:
473,238,30459,2,0,P|471:291|465:342,1,89.9999972534181,10|10,0:0|0:0,0:0:0:0:
384,363,30967,5,12,0:1:0:0:
324,295,31221,1,10,0:1:0:0:
343,201,31476,2,0,P|372:177|363:60,1,134.999995880127,10|2,0:0|0:0,0:0:0:0:
292,69,32111,2,0,P|235:66|189:66,1,89.9999972534181,10|10,0:1|0:1,0:0:0:0:
186,113,32493,2,0,P|186:175|188:217,1,89.9999972534181,10|2,0:0|0:0,0:0:0:0:
189,292,33001,5,8,0:1:0:0:
104,259,33255,1,2,0:0:0:0:
27,211,33509,2,0,P|27:149|21:45,1,134.999995880127,10|2,0:0|0:0,0:0:0:0:
113,65,34145,2,0,P|163:83|194:131,1,89.9999972534181,10|10,0:1|0:1,0:0:0:0:
220,128,34526,2,0,P|273:120|314:121,1,89.9999972534181,10|2,0:0|0:0,0:0:0:0:
346,204,35035,5,8,0:1:0:0:
328,292,35289,1,10,0:1:0:0:
234,297,35543,2,0,P|251:202|209:115,1,179.999994506836,10|2,0:0|0:0,0:0:0:0:
84,139,36433,2,0,B|36:209|36:209|77:363,1,224.999993133545,10|8,0:1|0:1,0:0:0:0:
162,345,37323,5,2,0:0:0:0:
234,297,37577,2,0,P|269:265|272:204,1,89.9999972534181,10|10,0:0|0:1,0:0:0:0:
301,137,38086,2,0,P|312:89|286:1,1,134.999995880127,2|10,0:0|0:0,0:0:0:0:
167,53,38848,1,10,0:3:0:0:
167,53,47239,6,0,L|13:28,2,150,14|8|8,0:0|0:0|0:0,0:0:0:0:
266,63,48255,2,0,P|325:38|412:40,1,150,14|8,0:0|0:0,0:0:0:0:
444,185,49018,1,10,0:0:0:0:
344,192,49272,6,0,P|285:217|198:215,2,150,14|10|10,0:0|0:0|0:0,0:0:0:0:
444,185,50289,2,0,P|466:251|466:334,1,150,14|10,0:0|0:0,0:0:0:0:
320,367,51052,1,10,0:0:0:0:
223,339,51306,1,10,0:0:0:0:
222,338,53340,6,0,P|218:288|212:239,1,100,10|2,0:0|0:0,0:0:0:0:
254,211,53722,1,10,0:0:0:0:
235,112,53976,1,10,0:0:0:0:
143,134,54230,1,10,0:0:0:0:
143,134,54357,2,0,P|143:93|18:24,1,200,8|8,0:0|0:3,0:0:0:0:
63,218,55374,6,0,P|65:266|72:337,1,100,14|8,0:1|0:0,0:0:0:0:
110,346,55755,1,10,0:1:0:0:
258,366,56137,1,10,0:0:0:0:
355,342,56391,2,0,P|359:292|361:242,1,100,10|8,0:1|0:0,0:0:0:0:
316,220,56772,2,0,P|311:170|309:120,1,100,10|8,0:1|0:1,0:0:0:0:
349,89,57154,1,10,0:0:0:0:
265,34,57408,6,0,L|157:20,1,100,10|8,0:1|0:0,0:0:0:0:
124,49,57789,1,10,0:1:0:0:
128,199,58171,1,10,0:0:0:0:
216,232,58425,2,0,L|324:218,1,100,10|8,0:1|0:0,0:0:0:0:
340,176,58806,2,0,L|448:190,1,100,10|8,0:1|0:1,0:0:0:0:
473,225,59188,1,8,0:0:0:0:
456,323,59442,6,0,L|356:335,1,100,12|10,0:1|0:0,0:0:0:0:
257,348,59950,2,0,L|157:360,1,100,2|10,0:0|0:0,0:0:0:0:
111,342,60332,2,0,P|72:286|80:198,1,150,2|10,0:0|0:0,0:0:0:0:
169,172,60967,1,2,0:0:0:0:
264,141,61222,1,10,0:0:0:0:
359,110,61476,6,0,P|421:100|460:94,1,100,14|8,0:1|0:0,0:0:0:0:
401,11,61984,2,0,P|351:18|302:26,1,100,14|8,0:1|0:0,0:0:0:0:
205,53,62493,2,0,P|155:45|106:37,1,100,14|8,0:1|0:0,0:0:0:0:
115,136,63001,2,0,L|120:194,1,50,10|8,0:0|0:3,0:0:0:0:
152,223,63255,1,10,0:3:0:0:
198,311,63510,6,0,P|239:306|299:310,1,100,14|8,0:1|0:0,0:0:0:0:
335,342,63891,1,10,0:1:0:0:
315,193,64272,1,10,0:0:0:0:
290,95,64527,2,0,P|271:75|295:8,1,100,10|8,0:1|0:0,0:0:0:0:
338,7,64908,2,0,P|379:7|445:4,1,100,10|8,0:1|0:1,0:0:0:0:
474,38,65289,1,10,0:0:0:0:
506,132,65544,6,0,P|465:132|399:135,1,100,10|8,0:1|0:0,0:0:0:0:
402,184,65925,1,10,0:1:0:0:
279,270,66306,1,10,0:0:0:0:
215,192,66561,2,0,P|230:155|201:104,1,100,10|8,0:1|0:0,0:0:0:0:
180,60,66942,2,0,P|139:86|93:71,1,100,10|8,0:1|0:1,0:0:0:0:
43,67,67323,1,10,0:0:0:0:
37,166,67577,6,0,P|37:209|45:282,1,100,12|10,0:1|0:0,0:0:0:0:
140,286,68086,2,0,P|140:243|132:170,1,100,2|10,0:0|0:0,0:0:0:0:
175,157,68467,2,0,P|214:144|299:218,1,150,2|10,0:0|0:0,0:0:0:0:
381,148,69103,2,0,P|380:108|382:45,1,100,2|10,0:0|0:0,0:0:0:0:
471,92,69611,6,0,P|475:178|469:257,1,150,10|2,0:1|0:0,0:0:0:0:
378,280,70247,1,10,0:1:0:0:
288,329,70501,2,0,P|243:320|132:307,1,150,2|8,0:0|0:0,0:0:0:0:
76,229,71137,2,0,P|65:195|66:126,1,100,8|10,0:0|0:0,0:0:0:0:
54,82,71518,1,10,0:0:0:0:
54,82,71645,6,0,L|170:69,1,100,14|10,0:1|0:0,0:0:0:0:
241,22,72154,1,2,0:0:0:0:
241,22,72281,1,10,0:1:0:0:
235,121,72535,2,0,P|219:180|261:266,1,150,2|10,0:0|0:0,0:0:0:0:
421,366,73425,1,10,0:0:0:0:
421,271,73679,6,0,P|421:238|417:168,1,100,10|10,0:1|0:0,0:0:0:0:
475,89,74188,1,2,0:0:0:0:
386,34,74442,1,10,0:0:0:0:
386,34,74569,2,0,P|341:43|230:15,1,150,2|10,0:0|0:0,0:0:0:0:
58,103,75459,2,0,L|62:162,1,50,10|2,0:0|0:0,0:0:0:0:
38,197,75713,6,0,P|74:217|81:287,1,100,14|10,0:1|0:0,0:0:0:0:
170,214,76222,2,0,P|178:166|219:139,1,100,2|10,0:0|0:0,0:0:0:0:
263,163,76603,2,0,P|296:160|415:166,1,150,2|10,0:0|0:0,0:0:0:0:
443,260,77238,2,0,P|371:260|328:265,1,100,2|10,0:0|0:0,0:0:0:0:
319,363,77747,6,0,P|250:361|163:353,1,150,10|10,0:1|0:1,0:0:0:0:
58,244,78510,2,0,B|205:232|205:232|276:278|276:278|452:259,1,400,10|8,0:0|0:0,0:0:0:0:
390,174,79781,6,0,P|350:173|294:140,1,100,14|8,0:1|0:0,0:0:0:0:
248,150,80162,1,10,0:1:0:0:
158,29,80544,2,0,P|237:31|368:29,1,200,10|8,0:0|0:0,0:0:0:0:
457,37,81306,1,10,0:1:0:0:
457,37,81433,1,8,0:1:0:0:
390,174,81815,6,0,P|397:217|402:327,2,150,10|10|10,0:1|0:1|0:0,0:0:0:0:
194,216,83086,1,10,0:0:0:0:
143,302,83340,1,10,0:1:0:0:
143,302,83467,1,10,0:1:0:0:
27,206,83849,6,0,P|33:158|16:98,1,100,14|8,0:1|0:0,0:0:0:0:
50,63,84230,1,10,0:1:0:0:
192,27,84611,2,0,P|218:86|191:219,1,200,10|8,0:0|0:0,0:0:0:0:
143,302,85374,1,10,0:1:0:0:
143,302,85501,1,8,0:1:0:0:
287,259,85883,6,0,P|323:249|438:249,2,150,10|10|10,0:1|0:1|0:0,0:0:0:0:
193,215,86900,1,8,0:0:0:0:
219,118,87154,1,8,0:3:0:0:
313,162,87408,1,4,0:3:0:0:
287,259,87662,1,12,0:0:0:0:
