osu file format v14

[General]
AudioFilename: audio.mp3
AudioLeadIn: 0
PreviewTime: 54802
Countdown: 0
SampleSet: Soft
StackLeniency: 0.7
Mode: 0
LetterboxInBreaks: 0
WidescreenStoryboard: 0

[Editor]
DistanceSpacing: 0.5
BeatDivisor: 4
GridSize: 8
TimelineZoom: 2.3

[Metadata]
Title:ROAR (TV Size)
TitleUnicode:ROAR (TV Size)
Artist:Kurosaki Maon
ArtistUnicode:黒崎真音
Creator:Adinda
Version:INSANE
Source:とある魔術の禁書目録Ⅲ
Tags:weedy [[Pika]] japanese rock j-rock anime toaru majutsu no kinsho mokuroku a certain magical index season three opening pika 3 iii
BeatmapID:2577842
BeatmapSetID:1239923

[Difficulty]
HPDrainRate:5
CircleSize:3.8
OverallDifficulty:8
ApproachRate:9
SliderMultiplier:1.7
SliderTickRate:1

[Events]
//Background and Video events
0,0,"a.jpg",0,0
//Break Periods
2,39303,46639
//Storyboard Layer 0 (Background)
//Storyboard Layer 1 (Fail)
//Storyboard Layer 2 (Pass)
//Storyboard Layer 3 (Foreground)
//Storyboard Layer 4 (Overlay)
//Storyboard Sound Samples

[TimingPoints]
460,254.237288135593,4,2,1,70,1,0
460,-100,4,2,1,70,0,0
8595,-90.9090909090909,4,2,1,80,0,0
12091,-90.9090909090909,4,2,1,5,0,0
12154,-90.9090909090909,4,2,1,80,0,0
16159,-90.9090909090909,4,2,1,5,0,0
16222,-90.9090909090909,4,2,1,80,0,0
16731,-83.3333333333333,4,2,1,85,0,0
22324,-181.818181818181,4,2,1,80,0,0
22705,-181.818181818181,4,2,1,60,0,0
22832,508.474576271186,4,2,1,80,1,0
22832,-71.4285714285714,4,2,1,65,0,0
47239,254.237288135593,4,2,1,75,1,0
47239,-100,4,2,1,75,0,0
53086,-100,4,2,1,70,0,0
53340,-100,4,2,1,75,0,0
54357,-133.333333333333,4,2,1,75,0,0
55374,-83.3333333333333,4,2,1,85,0,1
61412,-83.3333333333333,4,2,1,5,0,1
61476,-83.3333333333333,4,2,1,85,0,1
63001,-83.3333333333333,4,2,1,85,0,0
63510,-83.3333333333333,4,2,1,85,0,1
71645,-83.3333333333333,4,2,1,83,0,0
79781,-90.9090909090909,4,2,1,80,0,0

[Colours]
Combo1 : 250,188,228
Combo2 : 192,192,192

[HitObjects]
256,192,460,6,0,L|256:288,2,85,14|8|8,0:0|0:1|0:1,0:0:0:0:
311,111,841,2,0,P|366:174|449:177,1,170,8|8,0:0|0:1,0:0:0:0:
392,24,1222,2,0,L|304:24,1,85,8|8,0:0|0:1,0:0:0:0:
120,24,1476,6,0,L|205:24,2,85,10|8|8,0:0|0:1|0:1,0:0:0:0:
199,112,1858,2,0,P|144:174|62:177,1,170,8|8,0:0|0:1,0:0:0:0:
16,264,2239,2,0,L|16:360,1,85,8|8,0:0|0:1,0:0:0:0:
176,296,2493,6,0,L|91:296,2,85,10|8|8,0:0|0:1|0:1,0:0:0:0:
336,296,2875,2,0,L|512:296,1,170,8|8,0:0|0:1,0:0:0:0:
297,195,3256,2,0,L|312:111,1,85,8|8,0:0|0:1,0:0:0:0:
199,111,3510,6,0,L|215:195,2,85,10|8|8,0:0|0:1|0:1,0:0:0:0:
256,16,3892,2,0,L|256:192,1,170,8|8,0:0|0:1,0:0:0:0:
187,376,4273,2,0,P|171:336|179:288,1,85,8|8,0:0|0:1,0:0:0:0:
336,296,4527,6,0,P|340:338|325:377,2,85,10|8|8,0:0|0:1|0:1,0:0:0:0:
400,192,4909,2,0,P|416:256|320:288,1,170,8|8,0:0|0:1,0:0:0:0:
304,120,5290,2,0,L|392:80,1,85,8|8,0:0|0:1,0:0:0:0:
208,120,5544,6,0,L|131:85,2,85,10|8|8,0:0|0:1|0:1,0:0:0:0:
111,191,5926,2,0,P|95:255|191:287,1,170,10|8,0:0|0:1,0:0:0:0:
256,192,6307,1,10,0:0:0:0:
256,192,6434,1,8,0:1:0:0:
208,192,8595,6,0,B|136:192|136:192|96:160|25:174,1,187.000005706787,14|8,0:1|0:1,0:0:0:0:
303,192,8976,2,0,B|375:192|375:192|415:160|485:174,1,187.000005706787,2|2,0:0|0:0,0:0:0:0:
485,174,9485,6,0,L|485:366,1,187.000005706787,8|0,0:0|0:0,0:0:0:0:
320,312,9866,1,8,0:1:0:0:
320,312,9993,2,0,P|360:328|392:376,1,93.5000028533936,2|8,0:0|0:0,0:0:0:0:
191,312,10248,1,14,0:1:0:0:
191,312,10375,2,0,P|148:329|122:367,1,93.5000028533936,2|0,0:0|0:0,0:0:0:0:
27,361,10629,6,0,L|27:174,1,187.000005706787,14|8,0:1|0:1,0:0:0:0:
256,8,11010,2,0,L|256:195,1,187.000005706787,2|2,0:0|0:0,0:0:0:0:
256,195,11519,5,8,0:0:0:0:
368,176,11646,1,8,0:0:0:0:
360,192,11900,5,14,0:1:0:0:
375,275,12027,2,0,L|391:371,1,93.5000028533936,2|8,0:0|0:0,0:0:0:0:
480,280,12282,2,0,L|441:88,1,187.000005706787,14|0,0:1|0:1,0:0:0:0:
256,195,12663,6,0,B|256:315|256:315|320:371,1,187.000005706787,14|8,0:1|0:1,0:0:0:0:
256,195,13044,2,0,B|256:315|256:315|192:371,1,187.000005706787,2|2,0:0|0:0,0:0:0:0:
205,359,13553,6,0,P|200:312|112:200,1,187.000005706787,10|0,0:0|0:0,0:0:0:0:
112,40,13934,1,8,0:1:0:0:
112,40,14061,2,0,L|208:32,1,93.5000028533936,2|8,0:0|0:0,0:0:0:0:
400,40,14315,1,14,0:1:0:0:
400,40,14443,2,0,L|304:32,1,93.5000028533936,2|0,0:0|0:0,0:0:0:0:
312,152,14697,6,0,B|368:152|368:152|424:192|424:192|488:192,1,187.000005706787,14|8,0:1|0:1,0:0:0:0:
200,152,15078,2,0,B|144:152|144:152|88:192|88:192|24:192,1,187.000005706787,2|2,0:0|0:0,0:0:0:0:
25,192,15587,5,8,0:0:0:0:
128,256,15714,1,8,0:0:0:0:
128,344,15841,1,8,0:0:0:0:
256,376,15968,6,0,B|304:344|304:344|432:312,1,187.000005706787,12|8,0:1|0:0,0:0:0:0:
429,71,16349,2,0,B|304:40|304:40|256:8,1,187.000005706787,12|8,0:1|0:0,0:0:0:0:
384,192,16731,6,0,L|488:192,1,101.999996887207,14|0,0:1|0:0,0:0:0:0:
256,136,16985,2,0,L|255:240,1,101.999996887207,8|0,0:0|0:0,0:0:0:0:
26,192,17239,2,0,L|128:192,2,101.999996887207,8|10|8,0:1|0:1|0:0,0:0:0:0:
64,328,17621,6,0,B|128:312|184:368|184:368|184:336|160:296,1,203.999993774414,10|8,0:1|0:1,0:0:0:0:
349,300,18002,2,0,B|328:336|328:368|328:368|384:312|448:328,1,203.999993774414,8|8,0:0|0:1,0:0:0:0:
256,136,18383,1,10,0:1:0:0:
256,136,18510,2,0,B|256:32,1,101.999996887207,8|0,0:0|0:0,0:0:0:0:
352,112,18765,6,0,L|464:112,1,101.999996887207,10|0,0:1|0:0,0:0:0:0:
160,112,19019,2,0,L|48:112,1,101.999996887207,8|0,0:0|0:0,0:0:0:0:
256,136,19273,2,0,L|256:248,1,101.999996887207,8|10,0:1|0:1,0:0:0:0:
112,208,19527,6,0,P|112:288|208:368,1,203.999993774414,8|0,0:0|0:0,0:0:0:0:
312,366,19909,1,8,0:1:0:0:
312,366,20036,2,0,P|391:306|400:208,1,203.999993774414,8|0,0:0|0:0,0:0:0:0:
256,136,20417,1,10,0:1:0:0:
256,136,20544,1,8,0:0:0:0:
140,332,22324,2,0,L|140:188,1,140.25000428009,8|0,0:3|0:0,0:0:0:0:
140,192,22832,6,0,L|140:120,1,59.4999981842042,14|0,0:1|0:0,0:0:0:0:
256,192,23086,2,0,L|256:120,1,59.4999981842042,10|0,0:1|0:0,0:0:0:0:
372,192,23340,2,0,L|372:120,1,59.4999981842042,10|0,0:0|0:0,0:0:0:0:
344,48,23594,1,10,0:1:0:0:
344,48,23721,2,0,L|480:48,1,118.999996368408,2|10,0:1|0:1,0:0:0:0:
168,48,24230,1,10,0:1:0:0:
168,48,24357,2,0,L|32:48,1,118.999996368408,10|2,0:0|0:0,0:0:0:0:
256,192,24865,6,0,L|256:376,1,178.499994552612,10|10,0:1|0:1,0:0:0:0:
352,288,25374,1,8,0:0:0:0:
352,288,25628,2,0,P|416:288|464:384,1,178.499994552612,10|10,0:1|0:1,0:0:0:0:
168,288,26264,1,8,0:1:0:0:
168,288,26391,1,10,0:0:0:0:
256,192,26645,1,2,0:0:0:0:
96,184,26899,6,0,P|80:152|88:128,1,59.4999981842042,10|0,0:1|0:0,0:0:0:0:
256,192,27154,2,0,L|256:128,1,59.4999981842042,10|0,0:1|0:0,0:0:0:0:
416,184,27408,2,0,P|432:152|424:128,1,59.4999981842042,10|0,0:0|0:0,0:0:0:0:
408,14,27662,1,10,0:1:0:0:
408,14,27789,2,0,P|424:62|424:134,1,118.999996368408,2|10,0:1|0:1,0:0:0:0:
104,14,28298,1,10,0:1:0:0:
104,14,28425,2,0,P|88:62|88:134,1,118.999996368408,10|2,0:0|0:0,0:0:0:0:
80,352,28933,6,0,L|264:352,1,178.499994552612,10|10,0:1|0:1,0:0:0:0:
437,352,29442,1,8,0:0:0:0:
437,352,29696,2,0,L|253:352,1,178.499994552612,10|2,0:1|0:0,0:0:0:0:
256,192,30331,1,8,0:1:0:0:
256,192,30459,1,10,0:0:0:0:
208,120,30713,5,10,0:0:0:0:
208,120,30840,1,8,0:0:0:0:
304,120,30967,6,0,P|360:128|384:192,1,118.999996368408,12|10,0:1|0:1,0:0:0:0:
208,120,31476,2,0,P|152:128|128:192,1,118.999996368408,10|10,0:0|0:1,0:0:0:0:
192,32,31857,2,0,L|320:32,2,118.999996368408,2|10|10,0:0|0:1|0:1,0:0:0:0:
312,8,32493,2,0,L|193:8,1,118.999996368408,10|2,0:0|0:0,0:0:0:0:
448,192,33001,6,0,P|464:248|464:320,1,118.999996368408,8|2,0:1|0:0,0:0:0:0:
352,240,33382,1,10,0:1:0:0:
352,240,33509,2,0,P|368:296|368:368,1,118.999996368408,10|10,0:0|0:1,0:0:0:0:
142,356,33891,2,0,P|143:297|160:240,1,118.999996368408,2|10,0:0|0:1,0:0:0:0:
256,64,34399,1,10,0:1:0:0:
256,64,34526,2,0,L|256:136,1,59.4999981842042,10|8,0:0|0:1,0:0:0:0:
96,120,34781,6,0,P|96:80|40:8,1,118.999996368408,2|8,0:0|0:1,0:0:0:0:
256,200,35289,1,10,0:1:0:0:
416,120,35543,2,0,P|416:80|472:8,1,118.999996368408,10|8,0:0|0:1,0:0:0:0:
375,200,36052,2,0,L|256:200,1,118.999996368408,2|0,0:0|0:0,0:0:0:0:
137,200,36433,1,10,0:1:0:0:
137,200,36560,2,0,L|257:200,1,118.999996368408,8|0,0:0|0:0,0:0:0:0:
24,360,37069,6,0,B|16:328|16:328|16:240,1,118.999996368408,8|2,0:1|0:0,0:0:0:0:
137,200,37450,1,8,0:1:0:0:
137,200,37577,2,0,B|145:232|145:232|145:320,1,118.999996368408,10|10,0:0|0:1,0:0:0:0:
256,259,37959,2,0,L|256:195,1,59.4999981842042,8|2,0:0|0:0,0:0:0:0:
256,199,38340,2,0,L|256:135,1,59.4999981842042,4|10,0:3|0:0,0:0:0:0:
256,139,38531,1,8,0:0:0:0:
256,139,38594,1,8,0:0:0:0:
256,56,38721,1,8,0:0:0:0:
320,16,38848,1,10,0:3:0:0:
192,16,38976,1,4,0:3:0:0:
256,139,39103,1,4,0:0:0:0:
328,192,47239,6,0,L|416:192,2,85,14|8|8,0:0|0:1|0:1,0:0:0:0:
184,192,47620,2,0,L|8:192,1,170,8|8,0:0|0:1,0:0:0:0:
256,248,48001,2,0,L|256:336,1,85,8|8,0:0|0:1,0:0:0:0:
256,136,48255,6,0,L|256:51,2,85,14|8|8,0:0|0:1|0:1,0:0:0:0:
168,24,48637,2,0,L|344:24,1,170,8|8,0:0|0:1,0:0:0:0:
432,104,49018,2,0,P|432:64|416:8,1,85,10|8,0:0|0:1,0:0:0:0:
392,208,49272,6,0,P|392:264|304:336,1,170,14|8,0:0|0:1,0:0:0:0:
120,208,49654,2,0,P|120:264|208:336,1,170,10|8,0:0|0:1,0:0:0:0:
311,335,50035,2,0,L|407:335,1,85,10|0,0:0|0:1,0:0:0:0:
201,335,50289,6,0,L|105:335,2,85,14|8|8,0:0|0:1|0:1,0:0:0:0:
256,224,50671,2,0,L|256:48,1,170,10|8,0:0|0:1,0:0:0:0:
336,16,51052,2,0,L|432:16,1,85,10|8,0:0|0:1,0:0:0:0:
176,16,51306,5,10,0:0:0:0:
256,192,51370,12,2,53086,0:0:0:0:
16,192,53340,5,10,0:0:0:0:
112,192,53467,1,8,0:0:0:0:
208,192,53722,1,10,0:0:0:0:
304,192,53976,1,10,0:0:0:0:
392,192,54230,1,10,0:0:0:0:
480,192,54357,2,0,B|480:104|480:104|427:20|328:51,1,255.000009727478,8|8,0:0|0:3,0:0:0:0:
336,48,55374,6,0,B|368:104|368:104|344:168|352:256,1,203.999993774414,14|8,0:1|0:0,0:0:0:0:
161,241,55755,2,0,B|168:168|144:104|144:104|176:48,1,203.999993774414,10|8,0:1|0:1,0:0:0:0:
256,144,56137,2,0,L|256:248,1,101.999996887207,10|0,0:0|0:0,0:0:0:0:
312,360,56391,6,0,P|360:344|416:336,2,101.999996887207,10|8|8,0:1|0:1|0:0,0:0:0:0:
200,360,56772,2,0,B|144:328|144:328|0:312,1,203.999993774414,10|8,0:1|0:1,0:0:0:0:
5,312,57154,1,10,0:0:0:0:
256,176,57408,6,0,B|320:176|320:176|368:200|368:200|464:200,1,203.999993774414,10|8,0:1|0:0,0:0:0:0:
256,176,57789,2,0,B|192:176|192:176|144:200|144:200|48:200,1,203.999993774414,10|8,0:1|0:1,0:0:0:0:
0,88,58171,2,0,B|40:88|40:88|112:64,1,101.999996887207,10|0,0:0|0:0,0:0:0:0:
256,88,58425,5,10,0:1:0:0:
256,176,58552,1,8,0:1:0:0:
256,56,58679,1,8,0:0:0:0:
256,208,58806,2,0,P|264:288|384:288,1,203.999993774414,10|8,0:1|0:1,0:0:0:0:
464,184,59188,2,0,P|488:208|440:232,1,101.999996887207,8|0,0:0|0:0,0:0:0:0:
472,72,59442,5,12,0:1:0:0:
456,88,59696,2,0,B|400:88|400:88|312:56|312:56|256:56,1,203.999993774414,10|2,0:0|0:0,0:0:0:0:
160,96,60077,1,8,0:1:0:0:
8,24,60205,5,10,0:0:0:0:
56,88,60332,2,0,B|112:88|112:88|200:56|200:56|256:56,1,203.999993774414,2|8,0:0|0:1,0:0:0:0:
200,192,60713,2,0,B|152:208|152:208|104:240,1,101.999996887207,10|8,0:0|0:1,0:0:0:0:
312,192,60967,2,0,B|360:208|360:208|408:240,1,101.999996887207,2|8,0:0|0:1,0:0:0:0:
256,288,61222,2,0,L|256:128,1,152.999995330811,10|0,0:0|0:0,0:0:0:0:
254,56,61476,5,14,0:1:0:0:
254,56,61603,1,8,0:1:0:0:
344,88,61730,2,0,P|408:88|336:24,1,203.999993774414,8|10,0:0|0:1,0:0:0:0:
168,88,62111,1,8,0:1:0:0:
168,88,62238,2,0,P|104:88|176:24,1,203.999993774414,8|10,0:0|0:1,0:0:0:0:
0,160,62620,5,8,0:1:0:0:
0,160,62747,2,0,L|16:264,1,101.999996887207,8|8,0:0|0:1,0:0:0:0:
112,352,63001,5,10,0:0:0:0:
208,352,63128,1,8,0:3:0:0:
304,352,63255,1,10,0:3:0:0:
400,352,63383,1,4,0:3:0:0:
496,256,63510,6,0,B|440:256|440:256|376:224|288:224,1,203.999993774414,14|8,0:1|0:0,0:0:0:0:
15,260,63891,2,0,B|71:260|71:260|135:228|223:228,1,203.999993774414,10|8,0:1|0:1,0:0:0:0:
368,128,64272,2,0,B|416:136|416:136|464:88,1,101.999996887207,10|0,0:0|0:0,0:0:0:0:
256,8,64527,6,0,L|256:120,2,101.999996887207,10|8|8,0:1|0:1|0:0,0:0:0:0:
144,128,64908,2,0,B|80:160|80:160|32:16,1,203.999993774414,10|8,0:1|0:1,0:0:0:0:
38,34,65289,1,10,0:0:0:0:
344,224,65544,6,0,B|400:208|400:208|392:288|392:288|408:360,1,203.999993774414,10|8,0:1|0:0,0:0:0:0:
105,351,65925,2,0,B|120:288|120:288|112:208|112:208|168:224,1,203.999993774414,10|8,0:1|0:1,0:0:0:0:
304,360,66306,2,0,L|200:360,1,101.999996887207,10|0,0:0|0:0,0:0:0:0:
256,192,66561,5,10,0:1:0:0:
256,112,66688,1,8,0:1:0:0:
352,120,66815,1,8,0:0:0:0:
160,128,66942,2,0,B|88:120|64:40|64:40|112:32|144:56,1,203.999993774414,10|8,0:1|0:1,0:0:0:0:
352,120,67323,2,0,P|408:104|416:48,1,101.999996887207,10|0,0:0|0:0,0:0:0:0:
256,192,67577,5,12,0:1:0:0:
256,208,67832,2,0,B|256:320|256:320|288:384|352:344,1,203.999993774414,10|2,0:0|0:0,0:0:0:0:
352,264,68213,1,8,0:1:0:0:
256,104,68340,5,10,0:0:0:0:
256,208,68467,2,0,B|256:320|256:320|224:384|160:344,1,203.999993774414,2|8,0:0|0:1,0:0:0:0:
352,264,68849,2,0,B|376:240|376:240|440:208,1,101.999996887207,10|8,0:0|0:1,0:0:0:0:
160,264,69103,2,0,B|136:240|136:240|72:208,1,101.999996887207,2|8,0:0|0:1,0:0:0:0:
256,2,69357,2,0,L|256:114,1,101.999996887207,10|0,0:0|0:0,0:0:0:0:
152,48,69611,6,0,L|368:48,1,203.999993774414,10|8,0:1|0:0,0:0:0:0:
256,192,69993,1,2,0:0:0:0:
352,264,70120,1,10,0:1:0:0:
160,264,70247,2,0,P|136:296|152:352,1,101.999996887207,10|8,0:1|0:0,0:0:0:0:
51,200,70501,6,0,B|75:256|75:256|115:264|115:264|171:296|147:368,1,203.999993774414,2|8,0:0|0:1,0:0:0:0:
360,351,70883,2,0,P|377:305|352:264,1,101.999996887207,8|0,0:0|0:0,0:0:0:0:
256,104,71137,5,8,0:0:0:0:
256,192,71264,1,8,0:0:0:0:
256,104,71391,1,10,0:0:0:0:
152,120,71518,1,10,0:0:0:0:
360,120,71645,6,0,B|416:112|416:112|472:48|472:48|400:32,2,203.999993774414,14|10|2,0:1|0:0|0:0,0:0:0:0:
256,0,72281,2,0,L|256:104,1,101.999996887207,10|8,0:1|0:0,0:0:0:0:
256,192,72535,6,0,B|320:232|320:232|352:368,1,203.999993774414,2|0,0:0|0:0,0:0:0:0:
162,357,72916,2,0,B|192:232|192:232|256:192,1,203.999993774414,10|0,0:0|0:0,0:0:0:0:
256,192,73425,2,0,L|256:304,1,101.999996887207,10|0,0:0|0:0,0:0:0:0:
352,240,73679,6,0,P|376:184|344:48,2,203.999993774414,10|10|2,0:1|0:0|0:0,0:0:0:0:
352,240,74442,5,10,0:0:0:0:
159,241,74569,2,0,P|135:185|163:49,1,203.999993774414,2|0,0:0|0:0,0:0:0:0:
345,49,74950,2,0,B|256:96|256:96|160:48,1,203.999993774414,10|0,0:0|0:0,0:0:0:0:
163,49,75459,1,10,0:0:0:0:
163,49,75586,1,2,0:0:0:0:
64,112,75713,6,0,L|40:328,2,203.999993774414,14|10|2,0:1|0:0|0:0,0:0:0:0:
448,112,76476,5,10,0:0:0:0:
448,112,76603,2,0,L|472:328,1,203.999993774414,2|0,0:0|0:0,0:0:0:0:
344,368,76984,2,0,P|336:304|320:264,1,101.999996887207,10|8,0:0|0:1,0:0:0:0:
189,269,77238,2,0,P|172:317|168:368,1,101.999996887207,2|8,0:0|0:1,0:0:0:0:
256,216,77493,2,0,L|256:112,1,101.999996887207,10|0,0:0|0:0,0:0:0:0:
448,112,77747,6,0,P|384:120|328:0,1,203.999993774414,10|8,0:1|0:0,0:0:0:0:
63,111,78128,2,0,P|159:103|188:12,1,203.999993774414,10|8,0:1|0:1,0:0:0:0:
63,111,78510,2,0,B|48:160|48:160|48:216,1,101.999996887207,10|8,0:0|0:0,0:0:0:0:
48,210,78700,1,8,0:0:0:0:
48,210,78764,6,0,L|168:208,1,101.999996887207,8|8,0:0|0:0,0:0:0:0:
362,208,79018,2,0,L|464:210,1,101.999996887207,8|8,0:0|0:0,0:0:0:0:
464,344,79272,2,0,L|344:346,1,101.999996887207,8|8,0:0|0:0,0:0:0:0:
149,346,79527,2,0,L|48:344,1,101.999996887207,8|8,0:0|0:0,0:0:0:0:
256,192,79781,6,0,L|256:96,2,93.5000028533936,14|8|8,0:1|0:1|0:0,0:0:0:0:
176,56,80162,2,0,P|248:16|352:56,1,187.000005706787,10|8,0:1|0:1,0:0:0:0:
342,30,80544,6,0,P|257:0|176:40,2,187.000005706787,10|8|8,0:0|0:1|0:0,0:0:0:0:
56,112,81306,1,10,0:1:0:0:
56,112,81433,2,0,L|48:0,1,93.5000028533936,8|8,0:1|0:0,0:0:0:0:
456,112,81815,5,10,0:1:0:0:
456,112,81942,2,0,L|464:0,1,93.5000028533936,8|8,0:1|0:0,0:0:0:0:
344,192,82196,2,0,P|384:224|368:360,1,187.000005706787,10|8,0:1|0:1,0:0:0:0:
168,192,82577,6,0,P|128:224|144:360,2,187.000005706787,10|8|10,0:0|0:1|0:0,0:0:0:0:
256,296,83340,1,10,0:1:0:0:
256,376,83467,1,10,0:1:0:0:
256,88,83722,5,8,0:1:0:0:
256,8,83849,2,0,L|352:8,2,93.5000028533936,14|8|8,0:1|0:1|0:0,0:0:0:0:
64,64,84230,2,0,B|64:112|64:112|96:200|96:200|96:256,1,187.000005706787,10|8,0:1|0:1,0:0:0:0:
80,248,84611,6,0,B|80:202|80:202|48:114|48:114|48:66,2,187.000005706787,10|8|8,0:0|0:1|0:0,0:0:0:0:
432,336,85374,1,10,0:1:0:0:
432,336,85501,2,0,P|448:304|424:248,1,93.5000028533936,8|8,0:1|0:0,0:0:0:0:
77,331,85883,5,10,0:1:0:0:
77,331,86010,2,0,P|61:299|85:243,1,93.5000028533936,8|8,0:1|0:0,0:0:0:0:
256,64,86264,2,0,L|256:272,1,187.000005706787,10|8,0:1|0:1,0:0:0:0:
208,160,86645,2,0,L|312:160,1,93.5000028533936,10|8,0:0|0:1,0:0:0:0:
256,64,86900,6,0,L|256:0,3,46.7500014266968,8|8|8|8,0:0|0:0|0:0|0:0,0:0:0:0:
176,64,87154,2,0,L|160:0,3,46.7500014266968,8|8|8|8,0:3|0:3|0:3|0:3,0:0:0:0:
336,64,87408,2,0,L|352:0,3,46.7500014266968,4|4|4|4,0:3|0:3|0:3|0:3,0:0:0:0:
256,16,87662,1,12,0:0:0:0:
