osu file format v14

[General]
AudioFilename: audio.mp3
AudioLeadIn: 0
PreviewTime: 54802
Countdown: 0
SampleSet: Soft
StackLeniency: 0.7
Mode: 0
LetterboxInBreaks: 0
WidescreenStoryboard: 1

[Editor]
DistanceSpacing: 1.3
BeatDivisor: 4
GridSize: 16
TimelineZoom: 2.3

[Metadata]
Title:ROAR (TV Size)
TitleUnicode:ROAR (TV Size)
Artist:Kurosaki Maon
ArtistUnicode:黒崎真音
Creator:Adinda
Version:HARD
Source:とある魔術の禁書目録Ⅲ
Tags:weedy [[Pika]] japanese rock j-rock anime toaru majutsu no kinsho mokuroku a certain magical index season three opening pika 3 iii
BeatmapID:2579200
BeatmapSetID:1239923

[Difficulty]
HPDrainRate:4.5
CircleSize:3.4
OverallDifficulty:7
ApproachRate:8
SliderMultiplier:1.4
SliderTickRate:1

[Events]
//Background and Video events
0,0,"a.jpg",0,0
//Break Periods
2,39303,46489
//Storyboard Layer 0 (Background)
//Storyboard Layer 1 (Fail)
//Storyboard Layer 2 (Pass)
//Storyboard Layer 3 (Foreground)
//Storyboard Layer 4 (Overlay)
//Storyboard Sound Samples

[TimingPoints]
460,254.237288135593,4,2,1,70,1,0
460,-105.263157894737,4,2,1,70,0,0
8595,-100,4,2,1,80,0,0
16731,-100,4,2,1,85,0,0
22324,-100,4,2,1,80,0,0
22832,508.474576271186,4,2,1,80,1,0
22832,-55.5555555555556,4,2,1,65,0,0
47239,254.237288135593,4,2,1,75,1,0
47239,-105.263157894737,4,2,1,75,0,0
52832,-105.263157894737,4,2,1,55,0,0
53340,-105.263157894737,4,2,1,75,0,0
55374,-100,4,2,1,85,0,1
63001,-100,4,2,1,85,0,0
63510,-100,4,2,1,85,0,1
71645,-100,4,2,1,83,0,0
79781,-100,4,2,1,80,0,0

[Colours]
Combo1 : 250,188,228
Combo2 : 192,192,192

[HitObjects]
52,70,460,6,0,L|205:53,1,132.999996448517,14|8,0:0|0:1,0:0:0:0:
196,140,841,2,0,L|61:156,1,132.999996448517,8|8,0:0|0:1,0:0:0:0:
19,229,1222,1,8,0:0:0:0:
190,236,1476,6,0,P|220:282|228:358,1,132.999996448517,10|8,0:0|0:1,0:0:0:0:
314,351,1858,2,0,P|321:288|357:229,1,132.999996448517,8|8,0:0|0:1,0:0:0:0:
441,215,2239,1,8,0:0:0:0:
445,42,2493,6,0,B|396:36|396:36|365:48|365:48|307:36,1,132.999996448517,10|8,0:0|0:1,0:0:0:0:
230,20,2875,2,0,B|189:26|189:26|158:14|158:14|100:26,1,132.999996448517,8|8,0:0|0:1,0:0:0:0:
15,39,3256,1,8,0:0:0:0:
166,122,3510,6,0,B|213:116|213:116|299:115,1,132.999996448517,10|8,0:0|0:1,0:0:0:0:
329,196,3892,2,0,B|282:202|282:202|195:205,1,132.999996448517,8|8,0:0|0:1,0:0:0:0:
134,265,4273,1,8,0:0:0:0:
306,280,4527,6,0,P|350:299|362:378,1,132.999996448517,10|8,0:0|0:1,0:0:0:0:
275,380,4909,2,0,P|231:361|221:284,1,132.999996448517,8|8,0:0|0:1,0:0:0:0:
196,204,5290,1,8,0:0:0:0:
32,147,5544,6,0,L|23:11,1,132.999996448517,10|8,0:0|0:1,0:0:0:0:
108,30,5926,2,0,L|117:167,1,132.999996448517,10|8,0:0|0:1,0:0:0:0:
196,204,6307,2,0,L|268:198,1,66.4999982242585,10|8,0:0|0:1,0:0:0:0:
264,194,8595,6,0,P|316:182|414:168,1,140,14|8,0:1|0:1,0:0:0:0:
402,260,8976,2,0,P|439:265|432:356,1,140,2|2,0:0|0:0,0:0:0:0:
260,343,9485,6,0,L|118:314,1,140,8|0,0:0|0:0,0:0:0:0:
91,229,9866,1,8,0:1:0:0:
91,229,9993,2,0,P|77:188|72:160,1,70,2|8,0:0|0:0,0:0:0:0:
36,77,10248,1,14,0:1:0:0:
36,77,10375,1,2,0:0:0:0:
210,27,10629,6,0,L|358:14,1,140,14|8,0:1|0:1,0:0:0:0:
351,105,11010,2,0,L|211:117,1,140,2|2,0:0|0:0,0:0:0:0:
327,258,11519,5,8,0:0:0:0:
347,346,11646,2,0,B|391:346|391:346|432:362|432:362|491:360,1,140,8|14,0:0|0:1,0:0:0:0:
452,274,12027,2,0,P|461:234|446:203,1,70,2|8,0:0|0:0,0:0:0:0:
442,117,12282,1,14,0:1:0:0:
442,117,12409,1,0,0:0:0:0:
276,193,12663,6,0,B|241:232|241:232|142:203,1,140,14|8,0:1|0:1,0:0:0:0:
159,116,13044,2,0,P|165:71|95:0,1,140,2|2,0:0|0:0,0:0:0:0:
4,153,13553,6,0,L|17:292,1,140,10|0,0:0|0:0,0:0:0:0:
79,358,13934,1,8,0:1:0:0:
79,358,14061,2,0,P|119:350|159:355,1,70,2|8,0:0|0:0,0:0:0:0:
237,365,14315,1,14,0:1:0:0:
237,365,14443,1,2,0:0:0:0:
255,184,14697,6,0,L|244:37,1,140,14|8,0:1|0:1,0:0:0:0:
327,81,15078,2,0,L|337:220,1,140,2|2,0:0|0:0,0:0:0:0:
468,188,15587,6,0,P|474:151|464:115,2,70,8|8|8,0:0|0:0|0:0,0:0:0:0:
499,273,15968,2,0,P|500:338|429:352,1,140,12|8,0:1|0:0,0:0:0:0:
360,307,16349,1,12,0:1:0:0:
190,239,16604,5,8,0:0:0:0:
265,188,16731,2,0,B|257:145|257:145|285:107|265:37,2,140,14|8|8,0:1|0:0|0:1,0:0:0:0:
350,157,17366,2,0,P|387:149|432:147,1,70,10|8,0:1|0:0,0:0:0:0:
406,57,17621,6,0,B|360:61|360:61|313:48|313:48|267:52,1,140,10|8,0:1|0:1,0:0:0:0:
185,14,18002,2,0,P|125:64|132:135,1,140,8|8,0:0|0:1,0:0:0:0:
72,195,18383,1,10,0:1:0:0:
72,195,18510,1,8,0:0:0:0:
178,343,18765,6,0,P|216:337|331:341,2,140,10|8|8,0:1|0:0|0:1,0:0:0:0:
184,252,19400,1,10,0:1:0:0:
184,252,19527,2,0,P|253:243|323:247,1,140,8|0,0:0|0:0,0:0:0:0:
383,178,19909,5,8,0:1:0:0:
383,178,20036,2,0,P|435:233|438:319,1,140,8|0,0:0|0:0,0:0:0:0:
402,375,20417,1,10,0:1:0:0:
402,375,20544,1,8,0:0:0:0:
402,375,22324,5,8,0:3:0:0:
367,49,22832,6,0,L|499:40,1,125.999996154785,14|10,0:1|0:1,0:0:0:0:
418,165,23340,2,0,L|292:173,1,125.999996154785,10|10,0:0|0:1,0:0:0:0:
262,249,23721,2,0,P|278:295|243:365,1,125.999996154785,2|10,0:1|0:1,0:0:0:0:
94,294,24230,1,10,0:1:0:0:
94,294,24357,2,0,P|63:240|78:180,1,125.999996154785,10|2,0:0|0:0,0:0:0:0:
42,21,24865,6,0,L|247:13,1,188.999994232178,10|10,0:1|0:1,0:0:0:0:
460,102,25628,2,0,L|271:109,1,188.999994232178,10|10,0:1|0:1,0:0:0:0:
36,183,26391,2,0,P|57:224|57:315,1,125.999996154785,10|2,0:0|0:0,0:0:0:0:
212,362,26899,6,0,L|343:356,1,125.999996154785,10|10,0:1|0:1,0:0:0:0:
469,257,27408,2,0,L|338:251,1,125.999996154785,10|10,0:0|0:1,0:0:0:0:
352,169,27789,2,0,P|342:120|344:40,1,125.999996154785,2|10,0:1|0:1,0:0:0:0:
182,79,28298,1,10,0:1:0:0:
182,79,28425,2,0,P|184:141|173:203,1,125.999996154785,10|2,0:0|0:0,0:0:0:0:
53,314,28933,6,0,B|113:309|113:309|174:338|174:338|254:329,1,188.999994232178,10|10,0:1|0:1,0:0:0:0:
469,257,29696,2,0,B|409:252|409:252|348:281|348:281|268:272,1,188.999994232178,10|2,0:1|0:0,0:0:0:0:
305,111,30331,1,8,0:1:0:0:
305,111,30459,2,0,P|357:107|425:157,1,125.999996154785,10|10,0:0|0:0,0:0:0:0:
480,93,30840,1,8,0:0:0:0:
417,39,30967,6,0,P|366:3|304:4,1,125.999996154785,12|10,0:1|0:1,0:0:0:0:
186,118,31476,2,0,L|210:243,1,125.999996154785,10|10,0:0|0:1,0:0:0:0:
221,322,31857,2,0,P|184:351|106:331,1,125.999996154785,2|10,0:0|0:1,0:0:0:0:
45,186,32365,1,10,0:1:0:0:
45,186,32493,2,0,L|21:62,1,125.999996154785,10|2,0:0|0:0,0:0:0:0:
179,20,33001,6,0,P|233:12|311:4,1,125.999996154785,8|2,0:1|0:0,0:0:0:0:
354,69,33382,1,10,0:1:0:0:
354,69,33509,2,0,P|397:101|458:151,1,125.999996154785,10|10,0:0|0:1,0:0:0:0:
455,229,33891,2,0,P|459:288|415:338,2,125.999996154785,2|10|10,0:0|0:1|0:1,0:0:0:0:
453,146,34526,1,10,0:0:0:0:
313,232,34781,2,0,P|241:227|174:220,1,125.999996154785,2|8,0:0|0:1,0:0:0:0:
25,244,35289,5,10,0:1:0:0:
99,98,35543,2,0,P|171:93|238:86,1,125.999996154785,10|8,0:0|0:1,0:0:0:0:
313,232,36052,2,0,P|299:342|360:360,1,188.999994232178,2|10,0:0|0:1,0:0:0:0:
432,335,36560,2,0,P|443:269|432:193,1,125.999996154785,8|0,0:0|0:0,0:0:0:0:
402,49,37069,6,0,P|327:85|282:95,1,125.999996154785,8|2,0:1|0:0,0:0:0:0:
215,143,37450,1,8,0:1:0:0:
215,143,37577,2,0,P|140:107|95:97,1,125.999996154785,10|10,0:0|0:1,0:0:0:0:
51,165,37959,1,8,0:0:0:0:
51,165,38086,2,0,L|65:303,1,125.999996154785,2|4,0:0|0:3,0:0:0:0:
134,331,38467,1,10,0:0:0:0:
134,331,38594,2,8,L|204:319,1,62.9999980773926
260,270,38848,2,8,L|330:258,1,62.9999980773926,8|4,0:3|0:3,0:3:0:0:
347,173,39103,1,4,0:0:0:0:
347,173,47239,6,0,P|356:226|303:289,1,132.999996448517,14|8,0:0|0:1,0:0:0:0:
240,234,47620,2,0,P|197:185|203:121,1,132.999996448517,8|8,0:0|0:1,0:0:0:0:
149,53,48001,1,8,0:0:0:0:
3,146,48255,6,0,P|3:195|15:286,1,132.999996448517,14|8,0:0|0:1,0:0:0:0:
96,305,48637,2,0,P|105:239|106:172,1,132.999996448517,8|8,0:0|0:1,0:0:0:0:
70,93,49018,1,10,0:0:0:0:
227,20,49272,6,0,B|276:16|276:16|304:27|304:27|372:21,1,132.999996448517,14|8,0:0|0:1,0:0:0:0:
383,105,49654,2,0,B|334:101|334:101|306:112|306:112|238:106,1,132.999996448517,10|8,0:0|0:1,0:0:0:0:
249,193,50035,1,10,0:0:0:0:
417,228,50289,6,0,P|425:266|435:371,1,132.999996448517,14|8,0:0|0:1,0:0:0:0:
347,366,50671,2,0,P|341:299|329:234,1,132.999996448517,10|8,0:0|0:1,0:0:0:0:
249,193,51052,2,0,P|241:231|241:268,1,66.4999982242585,10|8,0:0|0:1,0:0:0:0:
261,342,51306,5,10,0:0:0:0:
256,192,51370,12,0,52832,0:0:0:0:
259,338,53340,5,10,0:0:0:0:
259,338,53467,2,0,P|322:326|394:340,1,132.999996448517,8|10,0:0|0:0,0:0:0:0:
485,193,53976,1,10,0:0:0:0:
346,89,54230,5,10,0:0:0:0:
292,156,54357,2,0,B|194:148|194:148|122:181|122:181|13:166,1,265.999992897034,8|8,0:0|0:3,0:0:0:0:
34,169,55374,6,0,P|53:198|70:304,1,140,14|8,0:1|0:0,0:0:0:0:
159,279,55755,2,0,P|163:209|195:147,1,140,10|8,0:1|0:1,0:0:0:0:
136,77,56137,1,10,0:0:0:0:
313,39,56391,6,0,L|390:28,2,70,10|8|8,0:1|0:1|0:0,0:0:0:0:
360,116,56772,2,0,P|398:180|410:255,1,140,10|8,0:1|0:1,0:0:0:0:
481,300,57154,1,10,0:0:0:0:
297,301,57408,6,0,L|149:277,1,140,10|8,0:1|0:0,0:0:0:0:
99,209,57789,2,0,L|247:185,1,140,10|8,0:1|0:1,0:0:0:0:
323,216,58171,1,10,0:0:0:0:
313,39,58425,6,0,P|351:23|383:13,2,70,10|8|8,0:1|0:1|0:0,0:0:0:0:
228,73,58806,2,0,B|176:69|176:39|74:39,1,140,10|8,0:1|0:1,0:0:0:0:
21,95,59188,2,0,P|28:132|27:175,1,70,8|0,0:0|0:0,0:0:0:0:
20,254,59442,5,12,0:1:0:0:
165,362,59696,2,0,L|306:356,2,140,10|2|10,0:0|0:0|0:0,0:0:0:0:
185,272,60332,6,0,P|221:266|277:180,1,140,2|8,0:0|0:1,0:0:0:0:
360,221,60713,2,0,P|366:258|375:297,1,70,10|8,0:0|0:1,0:0:0:0:
456,324,60967,2,0,P|463:289|469:255,1,70,2|8,0:0|0:1,0:0:0:0:
485,165,61222,1,10,0:0:0:0:
346,47,61476,6,0,L|272:36,1,70,14|8,0:1|0:1,0:0:0:0:
189,9,61730,1,8,0:0:0:0:
57,134,61984,2,0,L|131:123,1,70,14|8,0:1|0:1,0:0:0:0:
214,96,62238,1,8,0:0:0:0:
382,156,62493,6,0,P|376:194|355:225,1,70,14|8,0:1|0:1,0:0:0:0:
268,226,62747,2,0,P|272:260|290:290,1,70,8|8,0:0|0:1,0:0:0:0:
259,375,63001,2,0,L|183:360,1,70,10|8,0:0|0:3,0:0:0:0:
103,335,63255,1,10,0:3:0:0:
103,335,63383,1,4,0:3:0:0:
44,266,63510,6,0,P|31:210|64:123,1,140,14|8,0:1|0:0,0:0:0:0:
122,70,63891,2,0,P|146:134|134:202,1,140,10|8,0:1|0:1,0:0:0:0:
185,277,64272,1,10,0:0:0:0:
299,135,64527,6,0,P|348:124|384:119,2,70,10|8|8,0:1|0:1|0:0,0:0:0:0:
280,45,64908,2,0,P|344:32|419:24,1,140,10|8,0:1|0:1,0:0:0:0:
469,99,65289,1,10,0:0:0:0:
389,263,65544,6,0,B|338:258|338:258|296:277|296:277|246:267,1,140,10|8,0:1|0:0,0:0:0:0:
252,359,65925,2,0,B|303:354|303:354|345:373|345:373|395:363,1,140,10|8,0:1|0:1,0:0:0:0:
471,330,66306,1,10,0:0:0:0:
371,176,66561,6,0,P|368:137|367:105,2,70,10|8|8,0:1|0:1|0:0,0:0:0:0:
281,158,66942,2,0,B|235:156|204:176|204:176|160:175|150:141,1,140,10|8,0:1|0:1,0:0:0:0:
138,60,67323,2,0,P|130:22|109:-2,1,70,10|0,0:0|0:0,0:0:0:0:
41,58,67577,5,12,0:1:0:0:
34,240,67832,2,0,P|56:287|71:380,2,140,10|2|10,0:0|0:0|0:0,0:0:0:0:
124,236,68467,6,0,B|163:266|172:306|172:306|196:315|232:285,1,140,2|8,0:0|0:1,0:0:0:0:
294,237,68849,2,0,L|374:225,1,70,10|8,0:0|0:1,0:0:0:0:
332,312,69103,2,0,L|412:300,1,70,2|8,0:0|0:1,0:0:0:0:
488,328,69357,1,10,0:0:0:0:
429,155,69611,6,0,P|439:104|406:25,1,140,10|8,0:1|0:0,0:0:0:0:
314,14,69993,2,0,L|322:91,1,70,2|10,0:0|0:1,0:0:0:0:
231,96,70247,2,0,L|223:26,1,70,10|8,0:1|0:0,0:0:0:0:
141,65,70501,6,0,P|131:124|188:268,1,210,2|8,0:0|0:0,0:0:0:0:
355,318,71137,2,0,P|351:278|352:245,1,70,8|8,0:0|0:0,0:0:0:0:
264,222,71391,1,10,0:0:0:0:
264,222,71518,1,10,0:0:0:0:
181,261,71645,6,0,L|22:239,1,140,14|10,0:1|0:0,0:0:0:0:
71,59,72154,1,2,0:0:0:0:
71,59,72281,2,0,L|144:65,1,70,10|8,0:1|0:0,0:0:0:0:
225,32,72535,6,0,B|280:30|280:30|310:36|310:36|377:30,1,140,2|0,0:0|0:0,0:0:0:0:
454,24,72916,2,0,L|468:166,1,140,10|0,0:0|0:0,0:0:0:0:
359,309,73425,1,10,0:0:0:0:
238,171,73679,6,0,L|224:31,1,140,10|10,0:1|0:0,0:0:0:0:
345,169,74188,2,0,L|358:308,1,140,2|10,0:0|0:0,0:0:0:0:
283,359,74569,6,0,P|246:341|145:334,1,140,2|0,0:0|0:0,0:0:0:0:
58,341,74950,2,0,B|62:299|62:299|41:268|41:268|45:198,1,140,10|0,0:0|0:0,0:0:0:0:
208,127,75459,2,0,P|245:121|284:117,1,70,10|2,0:0|0:0,0:0:0:0:
350,170,75713,6,0,P|351:229|374:310,1,140,14|10,0:1|0:0,0:0:0:0:
499,175,76222,2,0,P|498:116|475:35,1,140,2|10,0:0|0:0,0:0:0:0:
385,45,76603,6,0,L|238:34,1,140,2|0,0:0|0:0,0:0:0:0:
167,70,76984,2,0,P|197:107|212:137,1,70,10|8,0:0|0:1,0:0:0:0:
119,150,77238,2,0,P|89:187|74:217,1,70,2|8,0:0|0:1,0:0:0:0:
167,229,77493,1,10,0:0:0:0:
105,362,77747,6,0,P|161:358|259:364,1,140,10|8,0:1|0:0,0:0:0:0:
272,275,78128,2,0,P|328:271|426:277,1,140,10|8,0:1|0:1,0:0:0:0:
486,327,78510,1,10,0:0:0:0:
486,145,78764,6,0,L|483:72,1,70,8|8,0:0|0:0,0:0:0:0:
392,74,79018,2,0,L|394:143,1,70,8|8,0:0|0:0,0:0:0:0:
305,130,79272,2,0,L|302:57,1,70,8|8,0:0|0:0,0:0:0:0:
211,59,79527,2,0,L|213:128,1,70,8|8,0:0|0:0,0:0:0:0:
134,174,79781,6,0,P|144:216|109:318,1,140,14|8,0:1|0:0,0:0:0:0:
44,252,80162,1,10,0:1:0:0:
73,71,80416,1,8,0:1:0:0:
73,71,80544,6,0,B|120:55|120:55|214:59,2,140,10|8|8,0:0|0:1|0:0,0:0:0:0:
44,252,81306,1,10,0:1:0:0:
44,252,81433,2,0,P|42:290|118:367,1,140,8|0,0:1|0:0,0:0:0:0:
192,336,81815,6,0,L|343:328,1,140,10|8,0:1|0:0,0:0:0:0:
419,351,82196,1,10,0:1:0:0:
297,215,82450,1,8,0:1:0:0:
297,215,82577,6,0,P|269:172|288:72,2,140,10|8|10,0:0|0:1|0:0,0:0:0:0:
474,172,83340,1,10,0:1:0:0:
474,172,83467,2,0,P|486:104|454:43,1,140,10|8,0:1|0:1,0:0:0:0:
368,12,83849,6,0,L|220:5,1,140,14|8,0:1|0:0,0:0:0:0:
139,24,84230,1,10,0:1:0:0:
178,201,84484,1,8,0:1:0:0:
178,201,84611,6,0,L|30:208,2,140,10|8|8,0:0|0:1|0:0,0:0:0:0:
358,170,85374,1,10,0:1:0:0:
358,170,85501,2,0,B|395:215|395:215|385:304,1,140,8|8,0:1|0:1,0:0:0:0:
302,333,85883,6,0,B|255:330|255:330|207:357|207:357|160:355,1,140,10|8,0:1|0:0,0:0:0:0:
78,351,86264,1,10,0:1:0:0:
85,169,86518,1,8,0:1:0:0:
85,169,86645,2,0,L|169:157,1,70,10|0,0:0|0:0,0:0:0:0:
247,175,86900,6,0,P|245:137|232:100,1,70,8|8,0:0|0:0,0:0:0:0:
298,41,87154,2,0,P|336:39|373:26,1,70,8|8,0:3|0:3,0:0:0:0:
447,69,87408,2,0,P|449:107|462:144,1,70,4|4,0:3|0:3,0:0:0:0:
443,226,87662,1,12,0:0:0:0:
