osu file format v14

[General]
AudioFilename: audio.mp3
AudioLeadIn: 0
PreviewTime: 54802
Countdown: 0
SampleSet: Soft
StackLeniency: 0.7
Mode: 0
LetterboxInBreaks: 0
WidescreenStoryboard: 0

[Editor]
DistanceSpacing: 0.8
BeatDivisor: 4
GridSize: 16
TimelineZoom: 2.3

[Metadata]
Title:ROAR (TV Size)
TitleUnicode:ROAR (TV Size)
Artist:Kurosaki Maon
ArtistUnicode:黒崎真音
Creator:Adinda
Version:EXTREME
Source:とある魔術の禁書目録Ⅲ
Tags:weedy [[Pika]] japanese rock j-rock anime toaru majutsu no kinsho mokuroku a certain magical index season three opening pika 3 iii
BeatmapID:2577841
BeatmapSetID:1239923

[Difficulty]
HPDrainRate:6
CircleSize:4
OverallDifficulty:9
ApproachRate:9.4
SliderMultiplier:1.8
SliderTickRate:1

[Events]
//Background and Video events
0,0,"a.jpg",0,0
//Break Periods
2,39303,46699
//Storyboard Layer 0 (Background)
//Storyboard Layer 1 (Fail)
//Storyboard Layer 2 (Pass)
//Storyboard Layer 3 (Foreground)
//Storyboard Layer 4 (Overlay)
//Storyboard Sound Samples

[TimingPoints]
460,254.237288135593,4,2,1,70,1,0
460,-100,4,2,1,70,0,0
8595,-90.9090909090909,4,2,1,80,0,0
12091,-90.9090909090909,4,2,1,5,0,0
12154,-90.9090909090909,4,2,1,80,0,0
16159,-90.9090909090909,4,2,1,5,0,0
16222,-90.9090909090909,4,2,1,80,0,0
16731,-83.3333333333333,4,2,1,85,0,0
22324,-181.818181818181,4,2,1,80,0,0
22705,-181.818181818181,4,2,1,60,0,0
22832,508.474576271186,4,2,1,80,1,0
22832,-71.4285714285714,4,2,1,65,0,0
47239,254.237288135593,4,2,1,75,1,0
47239,-100,4,2,1,75,0,0
53086,-100,4,2,1,70,0,0
53340,-100,4,2,1,75,0,0
54357,-133.333333333333,4,2,1,75,0,0
55374,-83.3333333333333,4,2,1,85,0,1
63001,-83.3333333333333,4,2,1,85,0,0
63510,-83.3333333333333,4,2,1,85,0,1
71645,-83.3333333333333,4,2,1,83,0,0
73616,-83.3333333333333,4,2,1,5,0,0
73679,-83.3333333333333,4,2,1,83,0,0
79781,-90.9090909090909,4,2,1,80,0,0

[Colours]
Combo1 : 250,188,228
Combo2 : 192,192,192

[HitObjects]
34,58,460,6,0,L|127:41,1,90,14|8,0:0|0:1,0:0:0:0:
123,42,714,1,8,0:1:0:0:
204,189,841,2,0,B|148:182|148:182|85:209|85:209|19:198,1,180,8|8,0:0|0:1,0:0:0:0:
157,273,1222,2,0,P|173:313|175:368,1,90,8|8,0:0|0:1,0:0:0:0:
204,189,1476,6,0,P|206:144|223:102,1,90,10|8,0:0|0:1,0:0:0:0:
223,102,1731,1,8,0:1:0:0:
418,15,1858,2,0,B|482:25|482:25|455:143,1,180,8|8,0:0|0:1,0:0:0:0:
374,297,2239,2,0,P|422:280|464:273,1,90,8|8,0:0|0:1,0:0:0:0:
204,189,2493,6,0,P|156:172|114:165,1,90,10|8,0:0|0:1,0:0:0:0:
117,165,2748,1,8,0:1:0:0:
277,268,2875,2,0,P|288:331|184:359,1,180,8|8,0:0|0:1,0:0:0:0:
117,165,3256,2,0,B|104:121|104:121|112:71,1,90,8|8,0:0|0:1,0:0:0:0:
283,180,3510,6,0,B|289:223|289:223|276:267,1,90,10|8,0:0|0:1,0:0:0:0:
276,267,3765,1,8,0:1:0:0:
294,57,3892,2,0,B|350:72|350:72|390:126|390:126|451:144,1,180,8|8,0:0|0:1,0:0:0:0:
367,331,4273,2,0,L|455:309,1,90,8|8,0:0|0:1,0:0:0:0:
195,158,4527,6,0,L|283:180,1,90,10|8,0:0|0:1,0:0:0:0:
282,179,4782,1,8,0:1:0:0:
208,356,4909,2,0,B|158:348|158:348|106:299|32:290,1,180,8|8,0:0|0:1,0:0:0:0:
60,166,5290,2,0,P|37:131|30:70,1,90,8|8,0:0|0:1,0:0:0:0:
195,158,5544,5,10,0:0:0:0:
203,76,5671,1,8,0:1:0:0:
279,120,5798,1,8,0:1:0:0:
395,13,5926,5,10,0:0:0:0:
510,141,6053,1,8,0:1:0:0:
394,248,6180,1,8,0:1:0:0:
393,131,6307,5,10,0:0:0:0:
393,131,6434,1,8,0:1:0:0:
35,350,8595,6,8,B|82:340|82:340|142:368|142:368|238:370,1,198.000006042481,14|8,0:1|0:1,0:1:0:0:
179,250,8976,2,0,B|163:210|163:210|174:155,1,99.0000030212403,2|8,0:0|0:0,0:0:0:0:
335,172,9231,2,0,B|351:212|351:212|340:267,1,99.0000030212403,2|0,0:0|0:0,0:0:0:0:
471,99,9485,6,0,B|425:90|425:90|379:38|379:38|296:5,1,198.000006042481,8|0,0:0|0:0,0:0:0:0:
175,155,9866,1,8,0:1:0:0:
102,123,9993,2,0,P|79:102|83:24,1,99.0000030212403,2|8,0:0|0:0,0:0:0:0:
179,250,10248,5,14,0:1:0:0:
100,254,10375,2,0,P|77:275|81:353,1,99.0000030212403,2|0,0:0|0:0,0:0:0:0:
352,330,10629,6,8,B|298:323|298:323|253:263|167:247,1,198.000006042481,14|8,0:1|0:1,0:1:0:0:
366,231,11010,2,0,L|466:210,1,99.0000030212403,2|8,0:0|0:0,0:0:0:0:
305,52,11265,2,0,L|405:73,1,99.0000030212403,2|0,0:0|0:0,0:0:0:0:
490,116,11519,5,8,0:0:0:0:
206,123,11646,2,0,B|206:76|206:76|180:13,1,99.0000030212403,8|0,0:0|0:0,0:0:0:0:
0,243,11900,5,14,0:1:0:0:
34,172,12027,2,0,B|34:125|34:125|60:62,1,99.0000030212403,2|8,0:0|0:0,0:0:0:0:
195,362,12282,2,8,B|137:346|137:346|77:366|77:366|-5:359,1,198.000006042481,14|0,0:1|0:1,0:1:0:0:
241,270,12663,6,8,B|299:259|349:281|349:281|430:239,1,198.000006042481,14|8,0:1|0:1,0:1:0:0:
206,123,13044,2,0,P|190:115|201:39,1,99.0000030212403,2|8,0:0|0:0,0:0:0:0:
442,162,13298,2,0,P|458:205|426:240,1,99.0000030212403,2|0,0:0|0:0,0:0:0:0:
285,57,13553,6,0,B|330:46|330:46|398:73|488:58,1,198.000006042481,10|0,0:0|0:0,0:0:0:0:
206,123,13934,1,8,0:1:0:0:
268,174,14061,2,0,L|236:285,1,99.0000030212403,2|8,0:0|0:0,0:0:0:0:
442,162,14315,5,14,0:1:0:0:
380,213,14443,2,0,L|412:324,1,99.0000030212403,2|0,0:0|0:0,0:0:0:0:
182,347,14697,6,0,B|82:372|82:372|-16:316,1,198.000006042481,14|8,0:1|0:1,0:0:0:0:
251,261,15078,2,0,P|272:238|256:161,1,99.0000030212403,2|8,0:0|0:0,0:0:0:0:
2,45,15332,2,0,P|-7:92|19:132,1,99.0000030212403,2|0,0:0|0:0,0:0:0:0:
78,246,15587,5,8,0:0:0:0:
267,173,15714,1,8,0:0:0:0:
95,73,15841,1,8,0:0:0:0:
284,0,15968,6,0,P|352:5|393:87,1,148.50000453186,12|0,0:1|0:0,0:0:0:0:
417,82,16222,1,8,0:0:0:0:
491,348,16349,2,0,B|431:368|431:368|367:339|367:339|289:362,1,198.000006042481,12|8,0:1|0:0,0:0:0:0:
448,173,16731,6,0,P|453:124|413:80,1,107.999996704102,14|0,0:1|0:0,0:0:0:0:
292,224,16985,2,0,P|331:252|390:240,1,107.999996704102,8|0,0:0|0:0,0:0:0:0:
216,86,17239,1,8,0:1:0:0:
216,86,17366,1,10,0:1:0:0:
140,240,17493,1,8,0:0:0:0:
1,90,17621,6,8,B|58:34|58:34|128:171,1,215.999993408203,10|8,0:1|0:1,0:1:0:0:
121,342,18002,2,0,B|116:288|116:288|146:227,1,107.999996704102,8|0,0:0|0:0,0:0:0:0:
292,224,18256,1,8,0:1:0:0:
292,224,18383,1,10,0:1:0:0:
377,379,18510,2,0,B|382:325|382:325|352:264,1,107.999996704102,8|0,0:0|0:0,0:0:0:0:
393,75,18765,6,0,P|445:63|501:39,1,107.999996704102,10|0,0:1|0:0,0:0:0:0:
358,276,19019,2,0,P|410:288|466:312,1,107.999996704102,8|0,0:0|0:0,0:0:0:0:
292,224,19273,1,8,0:1:0:0:
292,224,19400,1,10,0:1:0:0:
393,75,19527,1,8,0:0:0:0:
235,0,19654,6,8,B|236:40|236:40|181:131|181:131|150:66,1,215.999993408203,10|8,0:1|0:1,0:1:0:0:
292,224,20036,1,8,0:0:0:0:
212,279,20163,2,0,P|210:331|173:388,1,107.999996704102,2|0,0:0|0:0,0:0:0:0:
0,166,20417,2,0,P|2:218|39:275,1,107.999996704102,10|8,0:1|0:0,0:0:0:0:
393,71,22324,2,0,P|354:100|381:51,1,148.50000453186,8|0,0:3|0:0,0:0:0:0:
377,49,22832,6,0,L|388:130,1,62.9999980773926,14|0,0:1|0:0,0:0:0:0:
474,102,23086,2,0,L|463:183,1,62.9999980773926,10|0,0:1|0:0,0:0:0:0:
357,127,23340,2,0,L|368:208,1,62.9999980773926,10|0,0:0|0:0,0:0:0:0:
262,308,23594,1,10,0:1:0:0:
286,235,23721,2,8,B|315:245|315:245|341:283|341:283|393:324,2,125.999996154785,2|10|10,0:1|0:1|0:1,0:1:0:0:
213,197,24357,2,0,P|175:242|93:248,1,125.999996154785,10|2,0:0|0:0,0:0:0:0:
0,86,24865,6,0,P|38:131|120:137,1,125.999996154785,10|0,0:1|0:0,0:0:0:0:
171,90,25247,1,10,0:1:0:0:
213,197,25374,1,8,0:0:0:0:
340,58,25628,2,0,B|309:53|309:53|279:22|279:22|214:-7,1,125.999996154785,10|0,0:1|0:0,0:0:0:0:
329,140,26009,2,0,L|461:122,1,125.999996154785,10|8,0:1|0:1,0:0:0:0:
340,58,26391,2,0,L|407:40,1,62.9999980773926,10|8,0:0|0:1,0:0:0:0:
488,53,26645,1,2,0:0:0:0:
213,197,26899,6,0,P|206:230|181:261,1,62.9999980773926,10|0,0:1|0:0,0:0:0:0:
95,242,27154,2,0,P|102:275|127:306,1,62.9999980773926,10|0,0:1|0:0,0:0:0:0:
251,302,27408,2,0,P|244:335|219:366,1,62.9999980773926,10|0,0:0|0:0,0:0:0:0:
295,231,27662,1,10,0:1:0:0:
346,294,27789,2,8,B|418:312|383:339|457:361,2,125.999996154785,2|10|10,0:1|0:1|0:1,0:1:0:0:
422,222,28425,2,0,P|437:159|415:98,1,125.999996154785,10|2,0:0|0:0,0:0:0:0:
176,13,28933,6,0,P|156:72|172:132,1,125.999996154785,10|0,0:1|0:0,0:0:0:0:
126,215,29315,1,10,0:1:0:0:
32,141,29442,1,8,0:0:0:0:
59,344,29696,2,0,B|89:342|89:342|126:358|126:358|194:362,1,125.999996154785,10|0,0:1|0:0,0:0:0:0:
289,375,30077,2,0,L|430:347,1,125.999996154785,2|8,0:0|0:1,0:0:0:0:
506,378,30459,1,10,0:0:0:0:
290,164,30713,5,10,0:0:0:0:
337,101,30840,1,8,0:0:0:0:
388,219,30967,5,12,0:1:0:0:
400,236,31221,2,0,L|468:227,1,62.9999980773926,10|0,0:1|0:0,0:0:0:0:
227,155,31476,2,0,L|295:164,1,62.9999980773926,10|0,0:0|0:0,0:0:0:0:
152,80,31730,1,10,0:1:0:0:
91,136,31857,2,0,B|52:168|52:168|99:237,2,125.999996154785,2|10|10,0:0|0:1|0:1,0:0:0:0:
227,155,32493,2,0,P|243:189|247:224,1,62.9999980773926,10|8,0:0|0:1,0:0:0:0:
269,86,32747,2,0,P|274:55|288:27,1,62.9999980773926,2|0,0:0|0:0,0:0:0:0:
371,27,33001,5,8,0:1:0:0:
378,44,33255,1,2,0:0:0:0:
378,44,33382,1,10,0:1:0:0:
440,96,33509,2,0,P|445:130|449:171,1,62.9999980773926,10|0,0:0|0:0,0:0:0:0:
454,279,33764,1,10,0:1:0:0:
372,279,33891,2,0,P|415:298|449:377,2,125.999996154785,2|10|10,0:0|0:1|0:1,0:0:0:0:
287,364,34526,2,0,L|354:355,1,62.9999980773926,10|8,0:0|0:1,0:0:0:0:
227,155,34781,2,0,L|289:163,1,62.9999980773926,2|0,0:0|0:0,0:0:0:0:
165,280,35035,5,8,0:1:0:0:
141,287,35289,2,0,P|145:310|132:361,1,62.9999980773926,10|0,0:1|0:0,0:0:0:0:
111,218,35543,2,0,B|49:207|87:181|0:160,1,125.999996154785,10|8,0:0|0:1,0:0:0:0:
322,78,36052,2,0,P|315:47|319:16,1,62.9999980773926,2|8,0:0|0:1,0:0:0:0:
496,25,36306,1,0,0:0:0:0:
421,31,36433,1,10,0:1:0:0:
426,104,36560,2,0,P|424:178|377:193,1,125.999996154785,8|0,0:0|0:0,0:0:0:0:
37,175,37069,5,8,0:1:0:0:
54,174,37323,2,0,L|38:103,1,62.9999980773926,2|8,0:0|0:1,0:0:0:0:
2,264,37577,2,0,B|32:273|32:273|58:312|58:312|104:346,1,125.999996154785,10|10,0:0|0:1,0:0:0:0:
245,293,37959,1,8,0:0:0:0:
118,258,38086,2,0,L|189:244,1,62.9999980773926,2|0,0:0|0:0,0:0:0:0:
306,305,38340,2,0,L|235:291,1,62.9999980773926,4|10,0:3|0:0,0:0:0:0:
245,293,38531,1,8,0:0:0:0:
245,293,38594,1,8,0:0:0:0:
349,225,38721,1,8,0:0:0:0:
229,143,38848,1,10,0:3:0:0:
301,62,38976,1,4,0:3:0:0:
243,4,39103,1,4,0:0:0:0:
401,166,47239,6,0,P|405:137|389:76,1,90,14|8,0:0|0:1,0:0:0:0:
390,78,47493,1,8,0:1:0:0:
466,240,47620,2,0,P|474:302|370:312,1,180,8|8,0:0|0:1,0:0:0:0:
312,182,48001,2,0,L|406:165,1,90,8|8,0:0|0:1,0:0:0:0:
165,42,48255,6,0,L|71:25,1,90,14|8,0:0|0:1,0:0:0:0:
76,25,48510,1,8,0:1:0:0:
8,228,48637,2,0,B|59:217|59:217|108:239|108:239|185:244,1,180,8|8,0:0|0:1,0:0:0:0:
62,377,49018,2,0,P|37:356|49:299,1,90,10|8,0:0|0:1,0:0:0:0:
270,265,49272,6,0,P|281:306|252:338,1,90,14|8,0:0|0:1,0:0:0:0:
312,182,49527,1,8,0:1:0:0:
410,342,49654,6,0,L|511:318,1,90,10|8,0:0|0:1,0:0:0:0:
368,105,49908,1,8,0:1:0:0:
270,265,50035,6,0,L|169:241,1,90,10|0,0:0|0:1,0:0:0:0:
30,110,50289,5,14,0:0:0:0:
167,100,50416,1,8,0:1:0:0:
182,244,50544,1,8,0:1:0:0:
25,91,50671,5,10,0:0:0:0:
203,85,50798,1,8,0:1:0:0:
270,265,50925,1,8,0:1:0:0:
83,269,51052,5,10,0:0:0:0:
83,269,51179,1,8,0:1:0:0:
112,158,51306,5,10,0:0:0:0:
256,192,51370,12,2,53086,0:0:0:0:
144,80,53340,5,10,0:0:0:0:
296,361,53467,1,8,0:0:0:0:
298,91,53722,5,10,0:0:0:0:
142,340,53976,1,10,0:0:0:0:
330,251,54230,5,10,0:0:0:0:
108,206,54357,2,8,P|134:297|-2:297,1,270.000010299683,8|8,0:0|0:3,0:0:0:0:
108,206,55374,6,0,B|113:255|113:255|59:334|59:334|12:258,1,215.999993408203,14|8,0:1|0:0,0:0:0:0:
67,119,55755,2,8,B|99:117|124:106|124:106|185:133|185:133|221:118|292:108,1,215.999993408203,10|8,0:1|0:1,0:1:0:0:
149,299,56137,2,0,P|120:268|109:195,1,107.999996704102,10|0,0:0|0:0,0:0:0:0:
272,110,56391,5,10,0:1:0:0:
107,205,56518,1,8,0:1:0:0:
131,51,56645,1,8,0:0:0:0:
261,270,56772,2,8,B|322:279|343:330|343:330|367:377|448:363,1,215.999993408203,10|8,0:1|0:1,0:1:0:0:
42,316,57154,2,0,L|160:297,1,107.999996704102,10|0,0:0|0:0,0:0:0:0:
378,127,57408,6,0,L|260:108,1,107.999996704102,10|0,0:1|0:0,0:0:0:0:
443,45,57662,1,8,0:0:0:0:
378,127,57789,2,8,P|301:118|348:21,1,215.999993408203,10|8,0:1|0:1,0:1:0:0:
481,139,58171,1,10,0:0:0:0:
116,50,58425,5,10,0:1:0:0:
139,194,58552,1,8,0:1:0:0:
10,47,58679,1,8,0:0:0:0:
25,196,58806,2,8,B|37:263|37:263|91:309|91:309|108:387,1,215.999993408203,10|8,0:1|0:1,0:1:0:0:
325,263,59188,5,8,0:0:0:0:
139,194,59315,1,8,0:0:0:0:
341,49,59442,5,12,0:1:0:0:
349,68,59696,6,0,P|406:86|461:83,1,107.999996704102,10|8,0:0|0:1,0:0:0:0:
237,82,59950,2,0,P|264:135|305:171,1,107.999996704102,2|8,0:0|0:1,0:0:0:0:
161,13,60205,5,10,0:0:0:0:
161,13,60332,2,0,B|112:70|139:175|139:175|183:132,1,215.999993408203,2|8,0:0|0:1,0:0:0:0:
82,73,60713,2,0,L|-26:106,1,107.999996704102,10|8,0:0|0:1,0:0:0:0:
63,213,60967,2,0,L|9:312,1,107.999996704102,2|8,0:0|0:1,0:0:0:0:
229,360,61222,5,10,0:0:0:0:
248,358,61476,5,14,0:1:0:0:
215,104,61603,1,8,0:1:0:0:
414,346,61730,1,8,0:0:0:0:
394,95,61984,5,14,0:1:0:0:
248,358,62111,1,8,0:1:0:0:
215,104,62238,1,8,0:0:0:0:
439,200,62493,5,14,0:1:0:0:
203,233,62620,1,8,0:1:0:0:
337,372,62747,1,8,0:0:0:0:
299,76,62874,1,8,0:1:0:0:
319,229,63001,5,10,0:0:0:0:
404,26,63128,1,8,0:3:0:0:
152,2,63255,1,10,0:3:0:0:
67,205,63383,1,4,0:3:0:0:
201,125,63510,6,0,B|145:140|145:140|50:97|50:97|-19:122,1,215.999993408203,14|8,0:1|0:0,0:0:0:0:
319,229,63891,2,8,P|416:264|419:372,1,215.999993408203,10|8,0:1|0:1,0:1:0:0:
192,331,64272,2,0,L|305:312,1,107.999996704102,10|0,0:0|0:0,0:0:0:0:
417,148,64527,5,10,0:1:0:0:
298,313,64654,1,8,0:1:0:0:
266,148,64781,1,8,0:0:0:0:
461,332,64908,2,8,B|509:270|458:189|458:189|416:254,1,215.999993408203,10|8,0:1|0:1,0:1:0:0:
329,49,65289,2,0,L|453:29,1,107.999996704102,10|0,0:0|0:0,0:0:0:0:
185,235,65544,6,0,L|61:215,1,107.999996704102,10|0,0:1|0:0,0:0:0:0:
21,299,65798,1,8,0:0:0:0:
174,103,65925,2,8,B|110:129|61:111|61:111|5:129|-2:191,1,215.999993408203,10|8,0:1|0:1,0:1:0:0:
112,24,66306,1,10,0:0:0:0:
239,320,66561,5,10,0:1:0:0:
21,299,66688,1,8,0:1:0:0:
81,375,66815,1,8,0:0:0:0:
185,235,66942,2,8,B|246:220|295:240|295:240|350:207|374:152,1,215.999993408203,10|8,0:1|0:1,0:1:0:0:
478,89,67323,5,10,0:0:0:0:
474,252,67450,1,8,0:0:0:0:
375,17,67577,5,12,0:1:0:0:
393,19,67832,2,0,P|435:73|435:126,1,107.999996704102,10|8,0:0|0:1,0:0:0:0:
185,235,68086,2,0,P|143:181|143:128,1,107.999996704102,2|8,0:0|0:1,0:0:0:0:
240,17,68340,5,10,0:0:0:0:
240,17,68467,2,0,L|332:221,1,215.999993408203,2|8,0:0|0:1,0:0:0:0:
79,258,68849,2,0,L|185:234,1,107.999996704102,10|8,0:0|0:1,0:0:0:0:
154,349,69103,2,0,L|260:373,1,107.999996704102,2|8,0:0|0:1,0:0:0:0:
28,160,69357,2,0,L|113:93,1,107.999996704102,10|0,0:0|0:0,0:0:0:0:
448,58,69611,6,0,B|379:53|379:53|313:22|313:22|235:16,1,215.999993408203,10|8,0:1|0:0,0:0:0:0:
164,169,69993,1,2,0:0:0:0:
114,54,70120,1,10,0:1:0:0:
291,150,70247,2,0,P|308:218|294:257,1,107.999996704102,10|8,0:1|0:0,0:0:0:0:
477,368,70501,6,0,B|475:286|393:253|393:253|395:328,1,215.999993408203,2|8,0:0|0:1,0:0:0:0:
182,370,70883,2,0,L|292:350,1,107.999996704102,8|0,0:0|0:0,0:0:0:0:
49,103,71137,5,8,0:0:0:0:
181,371,71264,1,8,0:0:0:0:
128,143,71391,5,10,0:0:0:0:
31,355,71518,1,10,0:0:0:0:
104,240,71645,6,0,P|30:218|59:97,1,215.999993408203,14|10,0:1|0:0,0:0:0:0:
68,95,72154,1,2,0:0:0:0:
68,95,72281,2,0,B|45:48|45:48|60:-10,1,107.999996704102,10|8,0:1|0:0,0:0:0:0:
271,48,72535,6,0,B|193:53|193:53|138:91|138:91|46:95,1,215.999993408203,2|0,0:0|0:0,0:0:0:0:
259,151,72916,2,0,B|337:156|337:156|392:194|392:194|484:198,1,215.999993408203,10|0,0:0|0:0,0:0:0:0:
479,217,73425,2,0,B|508:273|460:334|460:334|428:293,1,161.999995056153,10|0,0:0|0:0,0:0:0:0:
437,305,73679,6,0,B|408:338|408:338|383:250|383:250|318:193,1,215.999993408203,10|10,0:1|0:0,0:0:0:0:
303,218,74188,2,0,P|308:298|191:353,1,215.999993408203,2|10,0:0|0:0,0:0:0:0:
13,171,74569,6,0,P|8:251|125:306,1,215.999993408203,2|0,0:0|0:0,0:0:0:0:
209,70,74950,2,0,B|144:84|144:84|63:61|63:61|-9:80,1,215.999993408203,10|0,0:0|0:0,0:0:0:0:
0,54,75459,5,10,0:0:0:0:
13,171,75586,1,2,0:0:0:0:
209,70,75713,6,0,L|427:24,1,215.999993408203,14|10,0:1|0:0,0:0:0:0:
439,32,76222,2,0,B|465:83|465:83|448:139,1,107.999996704102,2|8,0:0|0:1,0:0:0:0:
490,288,76476,5,10,0:0:0:0:
381,269,76603,2,0,B|375:212|317:193|317:193|262:160|281:88,1,215.999993408203,2|0,0:0|0:0,0:0:0:0:
490,288,76984,2,0,P|490:354|456:390,1,107.999996704102,10|8,0:0|0:1,0:0:0:0:
292,225,77238,2,0,P|292:291|326:327,1,107.999996704102,2|8,0:0|0:1,0:0:0:0:
450,131,77493,2,0,P|392:98|344:109,1,107.999996704102,10|0,0:0|0:0,0:0:0:0:
107,324,77747,6,0,B|181:313|181:313|241:335|241:335|322:320,1,215.999993408203,10|8,0:1|0:0,0:0:0:0:
78,244,78128,2,8,P|3:193|13:71,1,215.999993408203,10|8,0:1|0:1,0:1:0:0:
216,37,78510,2,0,L|99:18,1,107.999996704102,10|8,0:0|0:0,0:0:0:0:
109,19,78700,1,8,0:0:0:0:
109,19,78764,5,8,0:0:0:0:
78,244,78891,1,8,0:0:0:0:
216,37,79018,5,8,0:0:0:0:
184,261,79145,1,8,0:0:0:0:
320,57,79272,5,8,0:0:0:0:
288,281,79400,1,8,0:0:0:0:
420,78,79527,5,8,0:0:0:0:
388,302,79654,1,8,0:0:0:0:
299,180,79781,6,0,L|406:164,2,99.0000030212403,14|8|8,0:1|0:1|0:0,0:0:0:0:
202,135,80162,1,10,0:1:0:0:
202,135,80289,2,8,B|197:85|197:85|166:43,1,99.0000030212403,8|8,0:1|0:1,0:1:0:0:
32,115,80544,5,10,0:0:0:0:
32,115,80671,2,8,P|103:157|106:282,1,198.000006042481,8|8,0:1|0:1,0:1:0:0:
115,264,81052,1,8,0:0:0:0:
112,289,81306,1,10,0:1:0:0:
112,289,81433,2,8,L|3:309,1,99.0000030212403,8|8,0:1|0:0,0:1:0:0:
6,291,81815,6,0,B|69:299|69:299|117:344|117:344|197:358,1,198.000006042481,10|8,0:1|0:0,0:0:0:0:
354,319,82196,1,10,0:1:0:0:
354,319,82323,2,8,L|263:259,1,99.0000030212403,8|8,0:1|0:1,0:1:0:0:
397,186,82577,2,0,L|302:2,2,198.000006042481,10|8|10,0:0|0:1|0:0,0:0:0:0:
133,44,83340,5,10,0:1:0:0:
62,107,83467,1,10,0:1:0:0:
46,28,83722,5,8,0:1:0:0:
157,129,83849,2,8,L|171:233,2,99.0000030212403,14|8|8,0:1|0:1|0:0,0:1:0:0:
57,293,84230,1,10,0:1:0:0:
57,293,84357,2,8,B|48:244|48:244|70:193,1,99.0000030212403,8|8,0:1|0:1,0:1:0:0:
248,193,84611,5,10,0:0:0:0:
248,193,84738,2,8,P|267:270|149:293,1,198.000006042481,8|8,0:1|0:1,0:1:0:0:
173,310,85120,1,8,0:0:0:0:
165,332,85374,1,10,0:1:0:0:
165,332,85501,2,8,L|266:323,1,99.0000030212403,8|8,0:1|0:0,0:1:0:0:
281,294,85883,5,10,0:1:0:0:
281,294,86010,2,8,P|308:319|313:380,1,99.0000030212403,8|8,0:1|0:0,0:1:0:0:
471,253,86264,2,8,B|400:269|342:225|342:225|386:181,1,198.000006042481,10|8,0:1|0:1,0:1:0:0:
441,48,86645,2,8,L|468:150,1,99.0000030212403,10|8,0:0|0:1,0:1:0:0:
278,131,86900,5,8,0:0:0:0:
280,82,86963,1,8,0:0:0:0:
255,40,87027,1,8,0:0:0:0:
212,18,87090,1,8,0:0:0:0:
159,25,87154,5,8,0:3:0:0:
166,73,87217,1,8,0:3:0:0:
157,122,87281,1,8,0:3:0:0:
133,165,87344,1,8,0:3:0:0:
95,200,87408,5,4,0:3:0:0:
91,150,87472,1,4,0:3:0:0:
74,104,87535,1,4,0:3:0:0:
42,66,87599,1,4,0:3:0:0:
1,39,87662,1,12,0:0:0:0:
