osu file format v14

[General]
AudioFilename: audio.mp3
AudioLeadIn: 0
PreviewTime: 54733
Countdown: 0
SampleSet: Soft
StackLeniency: 0.6
Mode: 0
LetterboxInBreaks: 0
WidescreenStoryboard: 0

[Editor]
Bookmarks: 104161,144839,152975,173060,182466,191110,199246,199755,224288
DistanceSpacing: 1.4
BeatDivisor: 4
GridSize: 32
TimelineZoom: 2.2

[Metadata]
Title:ROAR
TitleUnicode:ROAR
Artist:Kurosaki Maon
ArtistUnicode:黒崎真音
Creator:Bellicose
Version:Hard
Source:とある魔術の禁書目録Ⅲ
Tags:electronic jrock rock japanese Kinsho Mokuroku A Certain Magical Index Toaru Majutsu no opening season 3 iii anime august pappl_e_104 rage_quit rage quit papple104 Nakazawa Tomoyuki 中沢伴行
BeatmapID:1992703
BeatmapSetID:951480

[Difficulty]
HPDrainRate:4
CircleSize:3.8
OverallDifficulty:6
ApproachRate:8.3
SliderMultiplier:1.2
SliderTickRate:1

[Events]
//Background and Video events
0,0,"index_28_1920.jpg",0,0
//Break Periods
2,39302,46208
2,145065,152225
2,165404,172310
2,183709,190360
//Storyboard Layer 0 (Background)
//Storyboard Layer 1 (Fail)
//Storyboard Layer 2 (Pass)
//Storyboard Layer 3 (Foreground)
//Storyboard Layer 4 (Overlay)
//Storyboard Sound Samples

[TimingPoints]
459,254.237288135593,4,2,1,50,1,0
8594,-100,4,2,1,60,0,0
22831,-100,4,2,1,50,0,0
46984,-100,4,2,1,60,0,0
53086,-100,4,2,1,70,0,0
54230,-83.3333333333333,4,2,1,70,0,0
55374,-83.3333333333333,4,2,1,80,0,1
79781,-90.9090909090909,4,2,1,60,0,0
87916,-100,4,2,1,50,0,0
103170,-100,4,2,1,60,0,0
120458,-83.3333333333333,4,2,1,80,0,1
144865,-83.3333333333333,4,2,1,80,0,0
153001,-83.3333333333333,4,2,1,70,0,0
157069,-83.3333333333333,4,2,1,80,0,1
160120,-71.4285714285714,4,2,1,80,0,1
161136,-83.3333333333333,4,2,1,60,0,0
173086,-100,4,2,1,60,0,0
179442,-100,4,2,1,70,0,0
180331,-83.3333333333333,4,2,1,70,0,0
191136,-111.111111111111,4,2,1,60,0,0
195204,-99.9999999999999,4,2,1,60,0,0
197747,-125,4,2,1,60,0,0
199272,-83.3333333333333,4,2,1,60,0,0
199336,-83.3333333333333,4,2,1,75,0,0
199781,-83.3333333333333,4,2,1,80,0,1
232323,-90.9090909090909,4,2,1,60,0,0
240458,-166.666666666667,4,2,1,60,0,0
240713,-166.666666666667,4,2,1,40,0,0
244145,-166.666666666667,4,2,1,60,0,0
244526,-90.9090909090909,4,2,1,60,0,0
245289,-90.9090909090909,4,2,1,5,0,0

[Colours]
Combo1 : 85,255,128
Combo2 : 255,255,15
Combo3 : 255,128,64
Combo4 : 57,249,244

[HitObjects]
88,188,459,6,0,P|99:228|120:251,2,60,12|2|2,0:3|0:3|0:3,0:0:0:0:
84,104,840,2,0,P|121:54|190:43,1,120,8|2,0:3|0:3,0:0:0:0:
243,88,1221,2,0,L|328:85,1,60,12|2,0:3|0:3,0:0:0:0:
383,108,1475,6,0,P|379:53|370:39,2,60,12|2|2,0:3|0:3|0:3,0:0:0:0:
370,191,1857,2,0,L|382:311,1,120,8|2,0:3|0:3,0:0:0:0:
465,311,2238,2,0,L|475:232,1,60,12|2,0:3|0:3,0:0:0:0:
453,169,2492,6,0,L|462:100,2,60,12|2|2,0:3|0:3|0:3,0:0:0:0:
370,191,2874,2,0,P|285:195|248:178,1,120,8|2,0:3|0:3,0:0:0:0:
186,132,3255,2,0,L|201:58,1,60,12|2,0:3|0:3,0:0:0:0:
114,80,3509,6,0,L|131:5,2,60,12|2|2,0:3|0:3|0:3,0:0:0:0:
44,127,3891,2,0,P|54:191|111:234,1,120,8|2,0:3|0:3,0:0:0:0:
173,250,4272,2,0,P|158:287|124:303,1,60,12|2,0:3|0:3,0:0:0:0:
59,307,4526,6,0,P|21:292|5:268,2,60,12|2|2,0:3|0:3|0:3,0:0:0:0:
143,298,4908,2,0,L|269:298,1,120,8|2,0:3|0:3,0:0:0:0:
346,308,5289,2,0,P|393:282|402:263,1,60,12|2,0:3|0:3,0:0:0:0:
457,221,5543,6,0,L|484:298,2,60,12|2|2,0:3|0:3|0:3,0:0:0:0:
376,195,5925,2,0,P|395:109|435:82,1,120,8|2,0:3|0:3,0:0:0:0:
488,48,6306,2,0,L|508:123,1,60,8|2,0:3|0:3,0:0:0:0:
256,192,6560,12,0,8086,0:0:0:0:
248,166,8594,6,0,P|220:121|154:99,1,120,6|2,0:3|0:3,0:0:0:0:
46,223,9103,2,0,B|76:253|76:253|171:245,1,120,8|0,0:3|0:0,0:0:0:0:
193,315,9484,2,0,B|242:290|242:290|248:155,1,180,8|2,0:3|0:3,0:0:0:0:
336,308,10120,1,8,0:3:0:0:
417,287,10247,1,12,0:3:0:0:
409,38,10628,6,0,P|450:84|455:149,1,120,6|2,0:3|0:3,0:0:0:0:
296,188,11136,2,0,B|260:160|260:160|269:85,1,120,8|0,0:3|0:0,0:0:0:0:
172,87,11518,1,8,0:3:0:0:
172,87,11645,2,0,L|178:146,1,60,8|0,0:3|0:0,0:0:0:0:
94,137,11899,6,0,L|107:265,1,120,6|8,0:3|0:3,0:0:0:0:
37,306,12281,2,0,P|119:340|187:272,1,180,6|6,0:3|0:3,0:0:0:0:
217,131,12916,5,2,0:3:0:0:
354,227,13170,2,0,P|288:246|228:211,1,120,8|0,0:3|0:0,0:0:0:0:
298,162,13552,2,0,P|343:142|440:223,1,180,8|2,0:3|0:3,0:0:0:0:
329,339,14187,1,8,0:3:0:0:
245,333,14314,1,6,0:3:0:0:
103,123,14696,6,0,B|71:148|71:148|86:245,1,120,6|2,0:3|0:3,0:0:0:0:
234,298,15204,2,0,P|260:237|234:177,1,120,8|0,0:3|0:0,0:0:0:0:
159,187,15586,1,8,0:3:0:0:
189,108,15713,2,0,L|222:34,1,60,8|8,0:3|0:3,0:0:0:0:
276,109,15967,6,0,L|402:109,1,120,6|0,0:3|0:0,0:0:0:0:
364,188,16348,2,0,L|223:188,1,120,6|8,0:3|0:3,0:0:0:0:
182,245,16730,6,0,P|159:183|184:127,2,120,6|8|0,0:3|0:3|0:0,0:0:0:0:
254,286,17365,1,2,0:3:0:0:
337,279,17492,2,0,L|465:261,1,120,8|0,0:3|3:0,0:0:0:0:
470,94,18001,2,0,B|426:67|426:67|345:79,1,120,8|2,0:3|0:3,0:0:0:0:
320,151,18382,1,2,0:3:0:0:
241,122,18509,2,0,L|235:46,1,60,8|0,0:3|0:0,0:0:0:0:
158,94,18764,6,0,B|111:132|111:132|46:133,2,120,2|8|0,0:3|0:3|0:0,0:0:0:0:
241,122,19399,1,2,0:3:0:0:
186,185,19526,2,0,L|130:241,1,60,8|2,0:3|0:3,0:0:0:0:
135,311,19781,6,0,P|82:288|59:222,2,120,0|8|0,0:0|0:3|0:0,0:0:0:0:
218,316,20416,1,2,0:3:0:0:
301,311,20543,2,0,P|340:295|368:267,1,60,8|0,0:3|0:0,0:0:0:0:
422,57,22323,1,2,0:3:0:0:
422,57,22831,6,0,P|361:39|291:65,1,120,6|2,0:3|0:3,0:0:0:0:
154,121,23340,2,0,P|189:161|258:165,1,120,8|2,0:3|0:3,0:0:0:0:
234,84,23721,1,2,0:0:0:0:
80,151,23975,2,0,L|7:148,2,60,2|0|2,0:3|0:0|0:3,0:0:0:0:
154,121,24357,2,0,L|157:256,1,120,8|2,0:3|0:0,0:0:0:0:
30,352,24865,6,0,P|37:285|92:246,1,120,2|0,0:0|0:0,0:0:0:0:
156,240,25247,2,0,P|219:246|279:208,1,120,2|0,0:0|0:0,0:0:0:0:
319,154,25628,2,0,L|322:295,1,120,2|0,0:0|3:0,0:0:0:0:
391,319,26009,2,0,P|438:268|436:208,1,120,2|2,0:0|0:3,0:0:0:0:
402,144,26391,2,0,L|404:71,2,60,8|2|2,0:3|0:3|0:0,0:0:0:0:
236,174,26899,6,0,P|181:148|167:81,1,120,6|2,0:3|0:3,0:0:0:0:
313,15,27408,2,0,P|258:47|241:113,1,120,8|2,0:3|0:3,0:0:0:0:
323,99,27789,1,2,0:0:0:0:
371,259,28043,2,0,L|436:227,2,60,2|0|2,0:3|0:0|0:3,0:0:0:0:
285,255,28425,2,0,B|231:231|231:231|168:231,1,120,8|2,0:3|0:0,0:0:0:0:
120,71,28933,6,0,B|96:125|96:125|96:188,1,120,2|0,0:0|0:0,0:0:0:0:
69,269,29314,2,0,P|129:270|176:217,1,120,2|0,0:0|0:0,0:0:0:0:
185,147,29696,2,0,B|216:124|216:124|306:148,1,120,2|0,0:0|3:0,0:0:0:0:
318,225,30077,2,0,L|324:348,1,120,2|2,0:0|0:3,0:0:0:0:
407,345,30458,2,0,L|407:271,1,60,8|2,0:3|0:3,0:0:0:0:
407,200,30713,1,8,0:3:0:0:
407,200,30840,1,8,0:3:0:0:
471,145,30967,6,0,B|437:114|437:114|343:121,1,120,6|2,0:3|0:3,0:0:0:0:
224,24,31475,2,0,P|292:19|346:63,1,120,8|2,0:3|0:3,0:0:0:0:
315,128,31857,2,0,P|247:133|193:89,1,120,2|2,0:3|0:3,0:0:0:0:
52,36,32365,1,2,0:3:0:0:
52,36,32492,2,0,L|53:117,1,60,8|2,0:3|0:3,0:0:0:0:
127,135,32747,2,0,L|126:208,1,60,2|0,0:0|0:0,0:0:0:0:
69,256,33001,6,0,B|99:230|99:230|198:252,1,120,2|0,0:3|0:0,0:0:0:0:
339,292,33509,2,0,P|255:319|213:300,1,120,8|2,0:3|0:3,0:0:0:0:
211,227,33891,2,0,P|295:200|337:219,1,120,2|2,0:3|0:3,0:0:0:0:
438,329,34399,1,2,0:3:0:0:
438,329,34526,2,0,L|435:248,1,60,8|2,0:3|0:3,0:0:0:0:
492,206,34781,2,0,L|487:129,1,60,2|0,0:0|0:0,0:0:0:0:
473,63,35035,6,0,P|461:116|389:129,1,120,2|2,0:3|0:0,0:0:0:0:
250,65,35543,2,0,B|277:35|277:35|272:80|275:125,1,120,8|2,0:3|0:3,0:0:0:0:
329,179,35925,1,0,0:0:0:0:
329,179,36052,6,0,P|252:193|206:154,1,120,2|0,0:0|0:0,0:0:0:0:
81,78,36560,2,0,B|53:48|53:48|58:93|55:138,1,120,8|0,0:3|0:0,0:0:0:0:
92,292,37069,6,0,P|99:227|155:183,1,120,6|2,0:3|0:0,0:0:0:0:
286,265,37577,2,0,P|225:288|169:259,1,120,8|2,0:3|0:3,0:0:0:0:
230,202,37958,1,8,0:3:0:0:
310,177,38086,6,0,P|365:171|417:229,1,120,2|2,0:3|0:3,0:0:0:0:
442,289,38467,1,2,0:3:0:0:
442,289,38594,2,0,P|467:274|489:223,1,60,8|2,0:3|0:3,0:0:0:0:
484,164,38848,2,0,P|471:131|497:164,1,120,2|4,0:3|0:0,0:0:0:0:
131,262,46984,5,2,0:0:0:0:
34,124,47238,6,0,L|33:205,2,60,12|2|2,0:3|0:3|0:3,0:0:0:0:
106,79,47620,2,0,P|75:48|46:42,2,60,8|2|2,0:3|0:3|0:3,0:0:0:0:
116,162,48001,1,8,0:3:0:0:
261,246,48255,6,0,L|180:247,2,60,12|2|2,0:3|0:3|0:3,0:0:0:0:
306,174,48637,2,0,P|337:205|343:234,2,60,8|2|2,0:3|0:3|0:3,0:0:0:0:
222,168,49018,1,8,0:3:0:0:
381,116,49272,6,0,P|323:87|260:96,1,120,12|2,0:3|0:3,0:0:0:0:
306,174,49653,2,0,L|326:308,1,120,8|2,0:3|0:3,0:0:0:0:
405,313,50035,2,0,L|420:241,1,60,6|0,0:3|0:0,0:0:0:0:
436,172,50289,6,0,L|507:171,2,60,8|2|2,0:3|0:3|0:3,0:0:0:0:
421,89,50670,2,0,P|376:106|359:139,2,60,8|2|2,0:3|0:3|0:3,0:0:0:0:
493,44,51052,1,8,0:3:0:0:
256,192,51306,12,0,52831,0:0:0:0:
121,304,53340,5,8,0:3:0:0:
121,304,53467,1,8,0:3:0:0:
220,168,53721,1,8,0:3:0:0:
346,278,53975,1,8,0:3:0:0:
435,96,54230,1,8,0:3:0:0:
435,96,54357,2,2,B|417:142|440:178|440:178|424:216|424:216|457:259|434:324,1,215.999993408203,8|0,0:3|0:0,1:1:0:0:
346,278,54865,1,2,0:3:0:0:
102,195,55374,6,2,L|142:52,1,143.999995605469,6|8,0:3|0:3,1:1:0:0:
210,129,55755,2,2,L|170:272,1,143.999995605469,2|2,0:3|0:3,1:1:0:0:
145,365,56136,1,8,0:3:0:0:
339,310,56391,6,2,L|181:270,1,143.999995605469,2|8,0:3|0:3,1:1:0:0:
277,211,56772,2,2,L|435:251,1,143.999995605469,2|2,0:3|0:3,1:1:0:0:
510,272,57153,1,8,0:3:0:0:
365,130,57408,6,2,L|509:106,1,143.999995605469,2|8,0:3|0:3,1:1:0:0:
435,34,57789,2,2,L|291:58,1,143.999995605469,2|2,0:3|0:3,1:1:0:0:
194,77,58170,1,8,0:3:0:0:
47,220,58425,6,2,P|92:193|67:254,1,143.999995605469,2|8,0:0|0:3,1:0:0:0:
182,287,58806,2,2,B|226:185|147:169|196:70,1,215.999993408203,2|8,0:3|0:3,1:0:0:0:
403,147,59442,6,0,L|248:133,1,143.999995605469,6|8,0:3|0:3,0:0:0:0:
293,236,59823,2,0,P|291:269|260:320,2,71.9999978027344,0|2|2,0:0|0:0|0:3,0:0:0:0:
192,225,60204,1,8,0:3:0:0:
123,298,60331,6,0,B|89:256|89:256|108:134,1,143.999995605469,2|2,0:0|0:3,0:0:0:0:
118,66,60713,1,8,0:3:0:0:
308,132,60967,2,0,L|400:123,1,71.9999978027344,2|0,0:0|0:0,0:0:0:0:
430,38,61221,2,0,L|338:47,1,71.9999978027344,8|0,0:3|0:0,0:0:0:0:
414,128,61475,6,0,P|430:165|416:224,1,71.9999978027344,6|2,0:3|0:3,0:0:0:0:
400,293,61730,1,8,0:3:0:0:
164,289,61984,6,0,B|231:271|254:331|323:310,1,143.999995605469,6|8,0:0|0:3,0:0:0:0:
314,108,62492,2,0,B|281:137|281:137|285:236,1,143.999995605469,6|8,3:0|0:3,0:0:0:0:
89,185,63001,2,0,L|175:172,1,71.9999978027344,8|2,0:3|0:3,0:0:0:0:
167,277,63255,2,0,L|264:258,1,71.9999978027344,2|2,0:3|0:3,0:0:0:0:
30,269,63509,6,2,B|49:204|49:204|46:190|46:190|72:110,1,143.999995605469,6|8,0:3|0:3,1:1:0:0:
130,209,63891,2,2,B|111:274|111:274|114:288|114:288|88:368,1,143.999995605469,2|2,0:3|0:3,1:1:0:0:
193,325,64272,1,8,0:3:0:0:
340,174,64526,6,2,B|405:190|405:190|416:199|416:199|498:217,1,143.999995605469,2|8,0:3|0:3,1:1:0:0:
441,117,64908,2,2,B|375:100|375:100|364:91|364:91|282:73,1,143.999995605469,2|2,0:3|0:3,1:1:0:0:
378,10,65289,1,8,0:3:0:0:
246,178,65543,6,2,B|230:113|230:113|221:102|221:102|203:20,1,143.999995605469,2|8,0:3|0:3,1:1:0:0:
303,77,65925,2,2,B|320:143|320:143|329:154|329:154|347:236,1,143.999995605469,2|2,0:3|0:3,1:1:0:0:
409,139,66306,1,8,0:3:0:0:
419,311,66560,6,2,P|402:345|372:285,1,143.999995605469,2|8,0:0|0:3,1:1:0:0:
461,243,66942,2,0,B|434:200|434:200|329:216,1,143.999995605469,2|2,0:3|0:3,0:0:0:0:
268,282,67323,1,8,0:3:0:0:
107,159,67577,6,0,P|80:258|102:316,2,143.999995605469,6|8|2,0:3|0:3|0:0,0:0:0:0:
307,129,68340,1,8,0:3:0:0:
307,129,68467,6,0,P|208:102|150:124,1,143.999995605469,2|2,0:0|0:3,0:0:0:0:
227,195,68848,1,8,0:3:0:0:
70,322,69103,2,0,L|164:305,1,71.9999978027344,2|0,0:0|0:0,0:0:0:0:
116,211,69357,2,0,L|210:194,1,71.9999978027344,8|0,0:3|0:0,0:0:0:0:
246,279,69611,6,0,P|229:228|251:125,1,143.999995605469,2|8,3:0|0:3,0:0:0:0:
296,55,69992,2,0,P|241:44|204:49,2,71.9999978027344,2|2|2,0:0|0:3|0:0,0:0:0:0:
348,141,70374,1,8,0:3:0:0:
378,259,70501,6,2,P|387:139|474:81,1,215.999993408203,2|8,0:0|0:3,1:0:0:0:
487,286,71136,2,0,P|472:328|450:356,1,71.9999978027344,8|8,0:3|0:3,0:0:0:0:
357,372,71391,2,0,P|315:357|287:335,1,71.9999978027344,8|8,0:3|0:3,0:0:0:0:
119,293,71645,6,0,L|277:273,2,143.999995605469,6|8|2,0:3|0:3|0:0,0:0:0:0:
32,239,72281,1,2,0:3:0:0:
107,52,72535,2,0,B|137:148|86:110|116:219,1,143.999995605469,2|0,0:0|0:0,0:0:0:0:
119,293,72916,1,8,0:3:0:0:
317,325,73170,2,0,L|398:312,1,71.9999978027344,0|2,0:3|0:3,0:0:0:0:
447,209,73425,2,0,L|366:222,1,71.9999978027344,8|0,0:3|0:0,0:0:0:0:
275,232,73679,6,0,B|269:181|269:181|285:131|285:131|281:74,2,143.999995605469,2|8|2,0:3|0:3|0:3,0:0:0:0:
405,77,74442,1,8,0:3:0:0:
405,77,74569,2,0,B|407:117|407:117|391:167|391:167|397:218,1,143.999995605469,2|0,0:0|0:0,0:0:0:0:
315,160,74950,2,2,P|240:162|160:151,1,143.999995605469,8|0,0:3|0:3,1:1:0:0:
91,93,75331,1,2,0:3:0:0:
69,191,75458,2,0,P|65:242|72:284,1,71.9999978027344,8|2,0:3|0:0,0:0:0:0:
164,291,75713,6,0,P|111:359|37:362,2,143.999995605469,6|8|2,0:3|0:3|0:0,0:0:0:0:
91,93,76475,1,8,0:3:0:0:
91,93,76603,2,0,B|226:90|148:154|292:152,1,215.999993408203,2|8,0:0|0:3,0:0:0:0:
438,289,77238,2,0,P|465:238|466:205,1,71.9999978027344,2|2,0:0|0:3,0:0:0:0:
462,79,77492,2,0,L|406:165,1,71.9999978027344,8|0,0:3|0:0,0:0:0:0:
372,219,77747,6,2,P|284:193|228:213,1,143.999995605469,2|8,0:3|0:3,1:1:0:0:
158,270,78128,2,2,P|201:257|139:217,1,143.999995605469,2|2,0:3|0:3,1:1:0:0:
73,318,78509,2,2,B|83:227|29:176|29:176|108:54|184:173|288:264|382:110|351:18|238:-9|198:89,1,647.99998022461,8|8,0:3|0:3,1:0:0:0:
200,168,79781,6,2,P|227:236|300:248,1,132.00000402832,6|8,0:3|0:3,1:1:0:0:
321,334,80162,2,2,P|329:262|358:195,1,132.00000402832,2|2,0:0|0:3,1:1:0:0:
442,193,80543,2,2,P|409:128|359:75,1,132.00000402832,8|0,0:3|0:0,1:1:0:0:
200,168,81052,2,0,L|104:180,1,66.0000020141602,8|2,0:3|0:0,0:0:0:0:
43,190,81306,1,2,0:0:0:0:
72,102,81433,2,2,P|113:68|192:76,1,132.00000402832,2|0,0:3|0:0,1:1:0:0:
200,168,81814,6,2,P|184:237|205:300,1,132.00000402832,2|8,0:3|0:3,1:1:0:0:
276,348,82196,2,2,P|208:342|139:354,1,132.00000402832,2|2,0:0|0:3,1:1:0:0:
57,325,82577,2,2,P|110:281|150:224,1,132.00000402832,8|2,0:3|0:0,1:1:0:0:
143,45,83086,2,0,P|169:65|181:117,1,66.0000020141602,8|2,0:3|0:0,0:0:0:0:
95,127,83340,1,2,0:0:0:0:
30,60,83467,2,0,P|4:118|23:185,1,132.00000402832,2|0,0:3|0:0,0:0:0:0:
81,251,83848,6,2,B|120:245|120:245|177:257|177:257|215:252,1,132.00000402832,6|8,0:3|0:3,1:1:0:0:
272,182,84230,2,2,B|294:223|294:223|286:319,1,132.00000402832,2|2,0:0|0:3,1:1:0:0:
360,363,84611,2,2,B|373:318|373:318|446:256,1,132.00000402832,8|0,0:3|3:0,1:1:0:0:
420,78,85120,2,0,L|467:152,1,66.0000020141602,8|0,0:3|0:0,0:0:0:0:
507,209,85374,1,2,0:3:0:0:
438,263,85501,2,2,B|405:259|405:259|353:220|353:220|318:215,1,132.00000402832,2|0,0:3|0:0,1:0:0:0:
278,132,85882,6,2,P|239:164|233:247,1,132.00000402832,8|8,0:3|0:3,1:0:0:0:
299,304,86264,2,2,P|241:334|175:312,1,132.00000402832,8|8,0:3|0:3,1:0:0:0:
132,237,86645,2,2,B|97:200|97:200|102:291,1,132.00000402832,8|8,0:3|0:3,1:0:0:0:
80,97,87153,1,2,0:3:0:0:
80,97,87408,2,0,L|162:105,1,66.0000020141602,2|2,0:3|0:3,0:0:0:0:
233,133,87662,2,0,L|317:116,1,66.0000020141602,2|2,0:3|0:3,0:0:0:0:
366,71,87916,6,0,P|424:74|465:121,1,120,6|2,0:3|0:0,0:0:0:0:
401,273,88425,2,0,P|374:203|387:151,1,120,2|2,0:3|0:3,0:0:0:0:
463,117,88806,1,2,0:0:0:0:
338,229,89060,2,0,L|213:219,1,120,2|2,0:0|0:0,0:0:0:0:
133,215,89442,1,2,0:3:0:0:
133,215,89696,1,2,0:0:0:0:
88,53,89950,6,0,B|57:86|57:86|71:181,1,120,2|0,0:0|0:0,0:0:0:0:
133,215,90331,2,0,B|57:244|57:244|102:268,1,120,2|2,0:0|0:0,0:0:0:0:
143,328,90713,2,0,P|209:344|285:330,1,120,2|2,0:0|0:3,0:0:0:0:
299,264,91094,2,0,B|375:293|375:293|330:317,1,120,2|0,0:0|0:0,0:0:0:0:
260,338,91475,1,8,0:3:0:0:
260,338,91730,1,2,0:0:0:0:
278,171,91984,6,0,P|292:102|339:56,1,120,2|2,0:3|0:0,0:0:0:0:
466,156,92492,2,0,P|451:224|404:270,1,120,2|2,0:3|0:3,0:0:0:0:
346,217,92874,1,2,0:0:0:0:
238,88,93128,2,0,L|112:94,1,120,2|0,0:0|0:0,0:0:0:0:
47,48,93509,1,2,0:3:0:0:
47,48,93764,1,2,0:0:0:0:
39,215,94018,6,0,B|67:191|67:191|168:206,1,120,2|0,0:0|3:0,0:0:0:0:
180,281,94399,2,0,P|212:258|220:165,1,120,2|0,0:0|0:0,0:0:0:0:
237,98,94781,2,0,P|291:123|360:97,1,120,2|2,0:0|0:3,0:0:0:0:
407,49,95162,2,0,B|433:15|433:15|429:108,1,120,2|0,0:0|0:0,0:0:0:0:
403,171,95543,2,0,L|406:247,1,60,8|8,0:3|0:3,0:0:0:0:
470,283,95797,2,0,L|471:354,1,60,2|2,0:3|0:3,0:0:0:0:
282,319,96052,6,0,B|324:334|324:334|401:304,1,120,6|2,0:3|0:0,0:0:0:0:
250,219,96560,2,0,P|191:207|127:234,1,120,2|2,0:3|0:0,0:0:0:0:
146,310,96942,2,0,P|205:322|269:295,1,120,2|2,0:0|0:0,0:0:0:0:
389,195,97450,1,2,0:0:0:0:
389,195,97577,2,0,L|389:121,1,60,2|0,0:3|0:0,0:0:0:0:
446,73,97831,2,0,L|444:12,1,60,2|0,0:0|0:0,0:0:0:0:
365,44,98086,6,0,B|276:48|276:48|307:79,1,120,2|2,0:3|0:0,0:0:0:0:
220,127,98467,1,2,0:0:0:0:
208,211,98594,2,0,P|149:220|86:189,1,120,2|0,0:3|0:0,0:0:0:0:
108,114,98975,2,0,P|166:104|230:136,1,120,2|2,0:0|0:0,0:0:0:0:
300,276,99484,1,2,0:0:0:0:
300,276,99611,2,0,L|224:283,1,60,8|0,0:3|0:0,0:0:0:0:
184,344,99865,2,0,P|201:284|177:232,1,120,2|6,0:0|0:3,0:0:0:0:
54,348,100374,5,2,0:0:0:0:
60,180,100628,2,0,L|56:309,1,120,2|0,0:3|0:0,0:0:0:0:
147,126,101136,2,0,L|143:255,1,120,2|0,0:3|0:0,0:0:0:0:
87,309,101518,2,0,B|184:360|190:274|283:327,1,180,2|0,0:0|0:0,0:0:0:0:
331,163,102153,6,0,P|291:121|219:112,1,120,2|2,0:3|0:0,0:0:0:0:
74,48,102662,2,0,P|64:105|83:179,1,120,2|0,0:3|3:0,0:0:0:0:
179,297,103170,2,0,B|205:263|205:263|299:272,1,120,8|8,0:3|0:3,0:0:0:0:
335,335,103552,2,0,P|357:301|348:223,1,120,8|8,0:3|0:3,0:0:0:0:
272,190,103933,2,0,P|275:148|293:117,1,60,8|8,0:3|0:3,0:0:0:0:
411,83,104187,6,0,P|359:54|343:-11,1,120,6|8,0:3|0:3,0:3:0:0:
166,27,104696,2,0,P|194:83|173:138,1,120,2|8,0:0|0:3,0:0:0:0:
101,284,105204,2,0,P|73:228|94:173,1,120,2|8,0:3|0:3,0:0:0:0:
259,167,105713,2,0,P|287:223|266:278,1,120,2|8,0:0|0:3,0:0:0:0:
176,134,106221,6,0,L|188:323,2,180,2|2|8,0:0|0:0|0:3,0:0:0:0:
13,88,107238,2,0,P|61:41|121:40,1,120,2|8,0:3|0:3,0:0:0:0:
173,94,107620,1,2,0:3:0:0:
173,94,107874,2,0,L|243:93,1,60,2|8,0:3|0:3,0:0:0:0:
389,33,108255,6,0,P|378:96|399:168,1,120,6|8,0:3|0:3,0:0:0:0:
474,295,108764,2,0,L|366:234,1,120,2|8,0:0|0:3,0:0:0:0:
289,98,109272,2,0,P|351:110|393:156,1,120,2|8,0:0|0:3,0:0:0:0:
313,299,109781,2,0,P|251:287|208:240,1,120,2|8,0:0|0:3,0:0:0:0:
142,95,110289,6,0,B|179:71|179:71|164:166,1,120,2|8,0:0|0:3,0:0:0:0:
99,195,110670,1,2,0:3:0:0:
31,245,110797,2,0,P|54:270|80:276,1,60,0|2,0:0|0:3,0:0:0:0:
159,253,111052,2,0,P|179:231|184:202,1,60,8|0,0:3|0:0,0:0:0:0:
267,192,111306,6,0,P|265:138|232:79,1,120,2|8,0:3|0:3,0:0:0:0:
288,17,111687,2,0,P|336:95|347:204,1,180,2|8,0:0|0:3,0:0:0:0:
409,338,112323,6,0,B|417:280|458:239|458:239|376:211|367:142|416:61|504:98,1,360,6|8,0:3|0:3,0:0:0:0:
490,93,113340,6,0,P|495:163|457:155,1,120,2|8,0:3|0:3,0:0:0:0:
406,107,113721,1,2,0:3:0:0:
406,107,113975,2,0,L|319:92,1,60,2|8,0:3|0:3,0:0:0:0:
195,23,114357,6,0,P|155:81|192:93,1,120,2|8,0:3|0:3,0:0:0:0:
256,122,114738,2,0,P|245:182|195:183,1,120,2|2,0:0|0:3,0:0:0:0:
113,161,115120,2,2,B|119:266|192:307|245:252|417:227|324:397|265:287,1,360,8|2,0:3|0:3,1:0:0:0:
105,323,116136,2,0,P|76:299|56:268,1,60,8|0,0:3|0:0,0:0:0:0:
42,198,116391,6,0,L|8:17,2,180,2|2|2,0:0|0:0|0:0,0:0:0:0:
290,100,118170,2,0,L|282:29,1,60,8|2,0:3|0:0,0:0:0:0:
170,126,118425,6,0,B|186:262|186:261,1,120,6|2,0:3|0:0,0:0:0:0:
195,328,118806,1,2,0:0:0:0:
195,328,119060,1,2,0:0:0:0:
362,335,119314,6,2,B|373:277|354:249|354:249|374:206|374:206|332:160|362:88,1,240,2|0,0:0|0:0,1:1:0:0:
431,143,119950,1,2,0:3:0:0:
182,36,120458,6,2,L|331:97,1,143.999995605469,6|8,0:3|0:3,1:1:0:0:
336,189,120840,2,2,L|187:128,1,143.999995605469,2|2,0:3|0:3,1:1:0:0:
109,96,121221,1,8,0:3:0:0:
98,336,121475,6,2,L|48:182,1,143.999995605469,2|8,0:3|0:3,1:1:0:0:
116,120,121857,2,2,L|165:273,1,143.999995605469,2|2,0:3|0:3,1:1:0:0:
192,353,122238,1,8,0:3:0:0:
395,230,122492,6,2,L|236:258,1,143.999995605469,2|8,0:3|0:3,1:1:0:0:
213,348,122874,2,2,L|371:319,1,143.999995605469,2|2,0:3|0:3,1:1:0:0:
454,306,123255,1,8,0:3:0:0:
474,105,123509,6,2,P|427:82|454:140,1,143.999995605469,2|8,0:0|0:3,1:0:0:0:
486,232,123891,2,2,B|376:253|388:173|274:190,1,215.999993408203,2|8,0:3|0:3,1:0:0:0:
138,46,124526,6,0,B|186:37|186:37|166:138,1,143.999995605469,6|8,0:3|0:3,0:0:0:0:
80,182,124908,2,0,P|33:160|18:126,2,71.9999978027344,0|2|2,0:0|0:0|0:3,0:0:0:0:
159,244,125289,1,8,0:3:0:0:
246,194,125416,6,0,P|303:160|333:78,1,143.999995605469,2|2,0:0|0:3,0:0:0:0:
262,19,125797,1,8,0:3:0:0:
435,122,126052,2,0,L|523:120,1,71.9999978027344,2|0,0:0|0:0,0:0:0:0:
485,209,126306,2,0,L|414:211,1,71.9999978027344,8|0,0:3|0:0,0:0:0:0:
339,278,126560,6,0,L|346:369,1,71.9999978027344,6|2,0:3|0:3,0:0:0:0:
250,313,126814,1,8,0:3:0:0:
63,231,127069,6,0,B|127:199|162:268|232:229,1,143.999995605469,6|8,0:0|0:3,0:0:0:0:
206,38,127577,2,0,B|171:64|171:64|184:168,1,143.999995605469,6|8,0:3|0:3,0:0:0:0:
137,360,128086,2,0,L|145:275,1,71.9999978027344,8|8,0:3|0:3,0:0:0:0:
49,252,128340,2,0,L|37:166,1,71.9999978027344,8|8,0:3|0:3,0:0:0:0:
136,157,128594,6,2,B|145:87|145:87|138:81|138:81|146:14,1,143.999995605469,6|8,0:3|0:3,1:1:0:0:
231,70,128975,2,2,B|222:140|222:140|229:146|229:146|221:213,1,143.999995605469,2|2,0:3|0:3,1:1:0:0:
311,162,129357,1,8,0:3:0:0:
168,295,129611,6,2,B|98:286|98:286|92:293|92:293|25:285,1,143.999995605469,2|8,0:3|0:3,1:1:0:0:
81,200,129992,2,2,B|151:209|151:209|157:202|157:202|224:210,1,143.999995605469,2|2,0:3|0:3,1:1:0:0:
166,124,130374,1,8,0:3:0:0:
336,170,130628,6,2,B|406:161|406:161|412:168|412:168|479:160,1,143.999995605469,2|8,0:3|0:3,1:1:0:0:
487,60,131009,2,2,B|419:38|419:38|417:29|417:29|353:8,1,143.999995605469,2|2,0:3|0:3,1:1:0:0:
279,75,131391,1,8,0:3:0:0:
318,224,131645,6,2,P|320:172|350:225,1,143.999995605469,2|8,0:0|0:3,1:1:0:0:
423,293,132026,2,0,B|347:273|352:343|260:308,1,143.999995605469,2|2,0:3|0:3,0:0:0:0:
189,282,132408,1,8,0:3:0:0:
75,115,132662,6,0,L|89:276,2,143.999995605469,6|8|2,0:3|0:3|0:0,0:0:0:0:
265,47,133425,1,8,0:3:0:0:
265,47,133552,2,0,P|174:19|115:40,1,143.999995605469,2|2,0:0|0:3,0:0:0:0:
187,114,133933,1,8,0:3:0:0:
382,163,134187,2,0,L|306:166,1,71.9999978027344,2|2,0:0|0:3,0:0:0:0:
438,77,134442,2,0,L|362:80,1,71.9999978027344,8|0,0:3|0:0,0:0:0:0:
267,99,134696,6,0,P|286:146|257:242,1,143.999995605469,2|8,3:0|0:3,0:0:0:0:
234,329,135077,2,0,P|195:312|174:282,2,71.9999978027344,2|0|2,0:0|3:0|0:3,0:0:0:0:
333,315,135458,1,8,0:3:0:0:
414,374,135586,6,2,B|462:276|373:245|424:157,1,215.999993408203,2|8,0:0|0:3,1:0:0:0:
452,69,136094,2,0,L|484:108,2,35.9999989013672,8|8|8,0:3|0:3|0:3,0:0:0:0:
355,99,136348,1,8,0:3:0:0:
295,17,136475,2,0,P|262:49|252:79,1,71.9999978027344,8|8,0:3|0:3,0:0:0:0:
247,174,136730,6,0,L|78:150,2,143.999995605469,6|8|2,0:3|0:3|0:0,0:0:0:0:
247,174,137492,1,8,0:3:0:0:
178,248,137620,2,0,L|27:226,1,143.999995605469,2|2,0:0|0:3,0:0:0:0:
112,291,138001,1,8,0:3:0:0:
293,378,138255,2,0,L|374:345,1,71.9999978027344,0|2,0:0|0:3,0:0:0:0:
278,290,138509,2,0,L|197:324,1,71.9999978027344,8|0,0:3|0:0,0:0:0:0:
392,276,138764,6,0,B|354:249|354:249|364:135,2,143.999995605469,2|8|2,0:3|0:3|0:0,0:0:0:0:
477,329,139399,1,2,0:3:0:0:
493,128,139653,2,0,B|461:95|461:95|344:125,1,143.999995605469,2|2,0:0|0:3,0:0:0:0:
326,212,140035,2,2,P|267:152|284:73,1,143.999995605469,8|0,0:3|0:0,1:1:0:0:
337,22,140416,1,2,0:3:0:0:
269,96,140543,2,0,L|171:92,1,71.9999978027344,8|0,0:3|0:0,0:0:0:0:
101,62,140797,6,0,B|93:99|93:99|104:166|104:166|96:206,2,143.999995605469,6|8|2,0:3|0:3|0:0,0:0:0:0:
174,250,141560,1,8,0:3:0:0:
174,250,141687,2,0,B|73:224|14:268|14:268|36:307|80:289,1,215.999993408203,2|8,0:0|0:3,0:0:0:0:
250,335,142323,2,0,L|331:327,1,71.9999978027344,2|2,0:0|0:3,0:0:0:0:
422,331,142577,2,0,L|474:272,1,71.9999978027344,8|0,0:3|0:0,0:0:0:0:
419,189,142831,6,2,P|387:134|406:49,1,143.999995605469,2|8,0:3|0:3,1:1:0:0:
501,84,143213,2,2,P|478:151|419:189,1,143.999995605469,2|2,0:3|0:3,1:1:0:0:
337,130,143594,2,2,B|222:147|111:65|111:65|40:201|56:305|165:377|312:237|195:168|150:205,1,647.99998022461,8|8,0:3|0:3,1:0:0:0:
181,197,144865,5,6,0:3:0:0:
457,213,153001,6,0,L|298:235,1,143.999995605469,6|8,0:3|0:3,0:0:0:0:
238,299,153382,2,0,P|216:266|213:230,2,71.9999978027344,2|2|2,0:0|0:0|0:3,0:0:0:0:
335,326,153764,1,8,0:3:0:0:
375,128,154018,6,0,B|278:83|278:83|174:116,2,215.999993408203,2|2|8,0:3|0:3|0:3,0:0:0:0:
246,283,155035,2,0,B|343:328|343:328|447:295,2,215.999993408203,2|2|8,0:3|0:0|0:3,0:0:0:0:
101,141,156052,2,0,L|117:299,1,143.999995605469,2|8,0:0|0:3,0:0:0:0:
33,342,156433,2,0,L|8:282,2,35.9999989013672,8|8|8,0:3|0:3|0:3,0:0:0:0:
125,381,156687,1,2,0:3:0:0:
210,328,156814,2,0,L|222:252,1,71.9999978027344,2|2,0:3|0:3,0:0:0:0:
198,158,157069,6,0,B|206:44|206:44|235:71,1,143.999995605469,6|8,0:3|0:3,0:0:0:0:
300,134,157450,1,2,0:3:0:0:
387,84,157577,2,0,L|466:82,1,71.9999978027344,8|2,0:3|0:3,0:0:0:0:
459,182,157831,2,0,L|382:184,1,71.9999978027344,8|2,0:3|0:3,0:0:0:0:
337,272,158086,6,0,B|454:268|454:268|435:289,1,143.999995605469,8|8,0:3|0:3,0:0:0:0:
370,364,158467,1,2,0:3:0:0:
271,345,158594,2,0,P|247:316|240:278,1,71.9999978027344,8|2,0:3|0:3,0:0:0:0:
245,182,158848,2,0,P|278:154|318:148,1,71.9999978027344,8|2,0:3|0:3,0:0:0:0:
401,116,159103,6,0,B|440:91|440:91|330:61,1,143.999995605469,8|8,0:3|0:3,0:0:0:0:
251,99,159484,1,2,0:3:0:0:
180,27,159611,2,0,L|266:16,1,71.9999978027344,8|2,0:3|0:3,0:0:0:0:
162,109,159865,2,0,L|63:102,1,71.9999978027344,8|2,0:3|0:3,0:0:0:0:
81,222,160120,6,2,L|347:203,2,251.999992309571,8|2|8,0:3|0:3|0:3,1:1:0:0:
269,293,161136,6,0,B|289:243|268:202|268:202|287:156|287:156|257:120|266:71,2,215.999993408203,12|2|8,0:3|0:3|0:3,0:0:0:0:
475,267,162153,2,0,P|407:268|467:346,2,215.999993408203,8|8|8,0:3|0:3|0:3,0:0:0:0:
284,198,163170,2,8,B|182:187|182:187|174:173|174:173|74:161,2,215.999993408203,8|8|8,0:3|0:3|0:3,0:0:0:0:
464,106,164187,2,0,P|409:54|404:150,2,215.999993408203,8|8|12,0:3|0:3|0:3,0:0:0:0:
426,304,165204,5,4,0:3:0:0:
381,262,173086,5,2,0:0:0:0:
478,124,173340,6,0,L|479:205,2,60,12|2|2,0:3|0:3|0:3,0:0:0:0:
406,79,173722,2,0,P|437:48|466:42,2,60,8|2|2,0:3|0:3|0:3,0:0:0:0:
396,162,174103,1,8,0:3:0:0:
251,246,174357,6,0,L|332:247,2,60,12|2|2,0:3|0:3|0:3,0:0:0:0:
206,174,174739,2,0,P|175:205|169:234,2,60,8|2|2,0:3|0:3|0:3,0:0:0:0:
290,168,175120,1,8,0:3:0:0:
131,116,175374,6,0,P|189:87|252:96,1,120,12|2,0:3|0:3,0:0:0:0:
206,174,175755,2,0,L|186:308,1,120,8|2,0:3|0:3,0:0:0:0:
107,313,176137,2,0,L|92:241,1,60,6|0,0:3|0:0,0:0:0:0:
76,172,176391,6,0,L|5:171,2,60,8|2|2,0:3|0:3|0:3,0:0:0:0:
91,89,176772,2,0,P|136:106|153:139,2,60,8|2|2,0:3|0:3|0:3,0:0:0:0:
19,44,177154,1,8,0:3:0:0:
256,192,177408,12,0,178933,0:0:0:0:
391,304,179442,5,8,0:3:0:0:
391,304,179569,1,8,0:3:0:0:
292,168,179823,1,8,0:3:0:0:
166,278,180077,1,8,0:3:0:0:
77,96,180332,1,8,0:3:0:0:
77,96,180459,2,2,B|95:142|72:178|72:178|88:216|88:216|55:259|78:324,1,215.999993408203,8|0,0:3|0:0,1:1:0:0:
166,278,180967,1,2,0:3:0:0:
256,192,183509,5,4,0:0:0:0:
418,262,191136,6,0,L|304:236,1,107.999996704102,0|2,3:0|0:0,0:0:0:0:
204,343,191645,6,0,P|203:213|257:140,1,215.999993408203,6|2,0:3|0:0,0:0:0:0:
400,162,192408,1,2,0:0:0:0:
398,10,192662,2,0,P|241:40|188:88,1,215.999993408203,2|8,0:3|0:3,0:0:0:0:
145,214,193425,1,2,0:0:0:0:
50,96,193679,2,0,P|115:158|248:166,1,215.999993408203,2|2,0:3|0:0,0:0:0:0:
387,173,194442,1,2,0:0:0:0:
311,303,194696,6,0,L|180:283,1,107.999996704102,2|0,0:3|0:0,0:0:0:0:
42,241,195204,2,0,B|48:313,1,60,8|8,0:3|0:3,0:0:0:0:
126,326,195458,2,0,L|120:251,1,60,8|8,0:3|0:3,0:0:0:0:
157,189,195713,6,0,P|96:145|33:146,1,120,6|8,0:3|0:3,0:0:0:0:
201,63,196221,2,0,P|156:40|121:34,2,60,2|2|8,0:0|0:3|0:3,0:0:0:0:
247,133,196603,6,0,L|260:277,1,120,2|0,0:0|0:0,0:0:0:0:
263,336,196984,1,8,0:3:0:0:
373,215,197238,2,0,L|358:359,1,120,2|8,0:0|0:3,0:0:0:0:
430,151,197747,6,0,P|368:132|297:173,1,144,2|0,0:0|0:0,0:0:0:0:
301,167,198255,2,0,P|257:198|201:189,1,96,2|2,0:0|0:0,0:0:0:0:
189,116,198636,6,2,B|155:208|227:191|190:308,1,192,2|0,0:0|0:0,1:1:0:0:
104,250,199272,6,8,L|69:214,3,35.9999989013672,2|8|8|8,0:3|0:3|0:3|0:3,0:0:0:0:
61,176,199526,2,8,L|68:116,3,35.9999989013672,8|8|8|8,0:3|0:3|0:3|0:3,0:0:0:0:
79,90,199781,6,2,L|246:49,1,143.999995605469,6|8,0:3|0:3,1:1:0:0:
299,116,200162,2,2,L|132:157,1,143.999995605469,2|2,0:3|0:3,1:1:0:0:
61,176,200543,1,8,0:3:0:0:
201,320,200797,6,2,L|160:153,1,143.999995605469,2|8,0:3|0:3,1:1:0:0:
227,100,201178,2,2,L|268:267,1,143.999995605469,2|2,0:3|0:3,1:1:0:0:
287,338,201560,1,8,0:3:0:0:
481,213,201814,6,2,L|314:172,1,143.999995605469,2|8,0:3|0:3,1:1:0:0:
261,239,202195,2,2,L|428:280,1,143.999995605469,2|2,0:3|0:3,1:1:0:0:
499,299,202577,1,8,0:3:0:0:
472,99,202831,6,2,P|443:70|442:137,1,143.999995605469,2|8,0:0|0:3,1:0:0:0:
467,229,203213,2,2,B|373:261|365:164|260:193,1,215.999993408203,2|8,0:3|0:3,1:0:0:0:
89,294,203848,6,0,L|256:284,1,143.999995605469,6|8,0:3|0:3,0:0:0:0:
262,192,204230,2,0,P|263:148|243:105,2,71.9999978027344,2|2|2,0:3|0:0|0:3,0:0:0:0:
162,179,204611,1,8,0:3:0:0:
62,164,204738,6,0,P|70:106|148:35,1,143.999995605469,2|2,0:0|0:3,0:0:0:0:
225,27,205120,1,8,0:3:0:0:
419,80,205374,2,0,L|320:89,1,71.9999978027344,2|0,0:0|0:0,0:0:0:0:
333,183,205628,2,0,L|229:195,1,71.9999978027344,8|0,0:3|0:0,0:0:0:0:
162,179,205882,6,0,L|199:96,1,71.9999978027344,6|2,0:3|0:3,0:0:0:0:
225,27,206136,1,8,0:3:0:0:
105,250,206391,6,0,B|71:218|71:218|89:110,1,143.999995605469,6|8,0:0|0:3,0:0:0:0:
167,306,206899,2,0,B|119:358|78:312|35:353,1,143.999995605469,6|8,0:3|0:3,0:0:0:0:
191,223,207408,2,0,P|227:243|249:279,1,71.9999978027344,8|2,0:3|0:3,0:0:0:0:
278,360,207662,2,0,P|300:332|332:316,1,71.9999978027344,8|8,0:3|0:3,0:0:0:0:
424,277,207916,6,2,B|378:236|378:236|364:232|364:232|313:186,1,143.999995605469,6|8,0:3|0:3,1:1:0:0:
324,86,208297,2,2,B|370:127|370:127|384:131|384:131|435:177,1,143.999995605469,2|2,0:3|0:3,1:1:0:0:
489,91,208679,1,8,0:3:0:0:
313,186,208933,6,2,B|251:192|251:192|239:200|239:200|171:207,1,143.999995605469,2|8,0:3|0:3,1:1:0:0:
104,133,209314,2,2,B|165:126|165:126|177:118|177:118|245:111,1,143.999995605469,2|2,0:3|0:3,1:1:0:0:
207,17,209696,1,8,0:3:0:0:
171,207,209950,6,2,B|227:231|227:231|241:231|241:231|304:259,1,143.999995605469,2|8,0:3|0:3,1:1:0:0:
326,357,210331,2,2,B|269:332|269:332|255:332|255:332|192:304,1,143.999995605469,2|2,0:3|0:3,1:1:0:0:
91,303,210713,1,8,0:3:0:0:
127,67,210967,6,2,P|108:40|107:97,1,143.999995605469,2|8,0:0|0:3,1:1:0:0:
59,193,211348,2,0,B|116:197|116:197|210:156,1,143.999995605469,2|2,0:3|0:3,0:0:0:0:
288,121,211730,1,8,0:3:0:0:
474,45,211984,6,0,B|428:21|428:21|310:34,2,143.999995605469,6|8|2,0:3|0:3|0:0,0:0:0:0:
471,247,212747,1,8,0:3:0:0:
471,247,212874,2,0,P|391:255|328:220,1,143.999995605469,2|2,0:0|0:3,0:0:0:0:
413,162,213255,1,8,0:3:0:0:
235,256,213509,2,0,L|248:172,1,71.9999978027344,2|2,0:0|0:3,0:0:0:0:
335,227,213764,2,0,L|322:311,1,71.9999978027344,8|2,0:3|0:3,0:0:0:0:
241,356,214018,6,0,L|203:346,7,35.9999989013672,8|2|2|2|2|2|2|2,0:3|0:3|0:3|0:3|0:3|0:3|0:3|0:3,0:0:0:0:
158,365,214526,1,2,0:3:0:0:
158,365,214653,2,0,P|119:336|13:377,1,143.999995605469,8|8,0:3|0:3,0:3:0:0:
52,254,215035,6,0,L|44:204,7,35.9999989013672,2|2|2|2|2|2|2|2,0:3|0:3|0:3|0:3|0:3|0:3|0:3|0:3,0:0:0:0:
32,169,215543,2,0,B|50:154|50:154|104:176,1,71.9999978027344,2|2,0:3|0:3,0:0:0:0:
184,217,215797,2,0,L|204:117,1,71.9999978027344,8|2,0:3|0:0,0:0:0:0:
220,29,216052,6,0,B|183:54|183:54|77:20,2,143.999995605469,6|8|2,0:3|0:3|0:0,0:0:0:0:
274,113,216687,1,2,0:3:0:0:
458,29,216942,2,0,P|397:80|400:151,1,143.999995605469,2|2,0:0|0:3,0:0:0:0:
494,123,217323,1,8,0:3:0:0:
328,237,217577,2,0,L|417:226,1,71.9999978027344,0|2,0:0|0:3,0:0:0:0:
466,303,217831,2,0,L|388:314,1,71.9999978027344,8|0,0:3|0:0,0:0:0:0:
295,335,218086,6,0,B|314:256|268:261|287:184,2,143.999995605469,2|8|2,0:3|0:3|0:0,0:0:0:0:
180,169,218848,1,8,0:3:0:0:
180,169,218975,6,0,B|199:90|153:95|172:18,1,143.999995605469,2|0,0:0|0:0,0:0:0:0:
76,67,219357,2,2,P|36:113|108:109,1,143.999995605469,8|0,0:3|0:0,1:1:0:0:
180,169,219738,1,2,0:3:0:0:
103,234,219865,2,0,P|50:238|16:222,1,71.9999978027344,8|2,0:3|0:3,0:0:0:0:
175,287,220120,6,0,P|136:310|36:317,2,143.999995605469,6|8|2,0:3|0:3|0:0,0:0:0:0:
295,125,220882,1,8,0:3:0:0:
295,125,221009,2,0,B|281:183|281:183|304:267|304:267|292:339,1,215.999993408203,2|8,0:0|0:3,0:0:0:0:
457,217,221645,2,0,P|461:157|440:121,1,71.9999978027344,2|2,0:0|0:3,0:0:0:0:
397,16,221899,2,0,L|376:107,1,71.9999978027344,8|0,0:3|0:0,0:0:0:0:
373,180,222153,6,2,P|311:177|259:238,1,143.999995605469,2|8,0:3|0:3,1:1:0:0:
187,305,222535,2,2,P|229:279|164:245,1,143.999995605469,2|2,0:3|0:3,1:1:0:0:
82,278,222916,2,2,B|69:175|142:117|234:127|234:127|313:177|393:115|393:115|385:51|317:18|243:47|243:47|209:42,1,647.99998022461,8|8,0:3|0:3,1:0:0:0:
210,42,224187,5,6,0:3:0:0:
256,192,224314,12,8,231814,0:3:0:0:
441,209,232323,6,2,P|405:184|336:230,1,132.00000402832,6|8,0:3|0:3,1:1:0:0:
299,313,232704,2,2,P|261:238|257:169,1,132.00000402832,2|2,0:0|0:3,1:1:0:0:
306,113,233086,2,2,P|230:149|164:155,1,132.00000402832,8|2,0:3|0:3,1:1:0:0:
10,91,233594,2,0,L|54:147,1,66.0000020141602,8|2,0:3|0:3,0:0:0:0:
110,213,233848,1,2,0:3:0:0:
45,279,233975,2,2,P|104:305|165:285,1,132.00000402832,2|2,0:3|0:3,1:1:0:0:
221,210,234357,6,2,P|208:273|230:367,1,132.00000402832,2|8,0:3|0:3,1:1:0:0:
292,284,234738,2,2,P|305:221|283:127,1,132.00000402832,2|2,0:0|0:3,1:1:0:0:
244,76,235120,2,2,P|301:108|363:79,1,132.00000402832,8|2,0:3|0:0,1:1:0:0:
400,264,235628,2,0,B|396:220|419:184,1,66.0000020141602,8|2,0:3|0:0,0:0:0:0:
454,118,235882,1,2,0:3:0:0:
384,178,236009,2,0,P|318:191|283:248,1,132.00000402832,2|2,0:3|0:3,0:0:0:0:
341,315,236391,6,2,B|277:329|277:329|216:301,1,132.00000402832,6|8,0:3|0:3,1:1:0:0:
174,219,236772,2,2,B|153:247|153:247|176:372,1,132.00000402832,2|2,0:0|0:3,1:1:0:0:
80,323,237153,2,2,B|62:227|62:227|83:199,1,132.00000402832,8|2,0:3|0:3,1:1:0:0:
246,110,237662,2,0,L|163:107,1,66.0000020141602,8|2,0:3|0:3,0:0:0:0:
87,106,237916,1,2,0:3:0:0:
153,41,238043,2,0,P|176:102|149:177,1,132.00000402832,2|2,0:3|0:3,0:0:0:0:
129,252,238425,6,2,B|163:219|163:219|258:233,1,132.00000402832,2|8,0:3|0:3,1:1:0:0:
286,314,238806,2,2,P|335:249|321:183,1,132.00000402832,2|2,0:0|0:3,1:1:0:0:
373,120,239187,2,2,P|404:166|414:260,1,132.00000402832,8|8,0:3|0:3,1:0:0:0:
438,56,239696,1,2,0:3:0:0:
438,56,239950,2,0,P|400:44|373:41,1,66.0000020141602,2|2,0:3|0:3,0:0:0:0:
291,82,240204,1,12,0:3:0:0:
230,215,240458,6,0,L|152:232,1,71.9999978027344,4|0,0:0|0:0,0:0:0:0:
118,261,240840,6,0,L|102:177,1,71.9999978027344,2|0,0:0|0:0,0:0:0:0:
116,141,241221,2,0,L|132:225,1,71.9999978027344,2|0,0:0|0:0,0:0:0:0:
146,311,241730,1,0,3:0:0:0:
243,286,241984,2,0,L|286:270,2,35.9999989013672,2|2|2,0:0|0:0|0:0,0:0:0:0:
422,227,242492,6,0,P|384:190|352:180,1,71.9999978027344,2|0,0:0|3:0,0:0:0:0:
390,228,242874,2,0,P|343:202|310:200,1,71.9999978027344,2|0,0:0|0:0,0:0:0:0:
276,189,243255,2,0,P|287:120|351:68,1,143.999995605469,2|2,0:0|0:0,0:0:0:0:
440,73,244018,1,0,0:0:0:0:
446,122,244145,2,0,L|450:155,2,17.9999994506836,2|2|8,0:3|0:3|0:3,0:0:0:0:
242,171,244526,6,0,B|344:222|422:174|422:174|518:229|484:299|379:283,1,396.000012084961,6|0,0:3|0:0,0:0:0:0:
