osu file format v14

[General]
AudioFilename: Toaru ed2.mp3
AudioLeadIn: 0
PreviewTime: 52632
Countdown: 0
SampleSet: Soft
StackLeniency: 0.7
Mode: 3
LetterboxInBreaks: 0
SpecialStyle: 0
WidescreenStoryboard: 1

[Editor]
DistanceSpacing: 1
BeatDivisor: 4
GridSize: 4
TimelineZoom: 1.5

[Metadata]
Title:Memories Last (TV size.)
TitleUnicode:メモリーズ・ラスト (TV size.)
Artist:Kurosaki Maon
ArtistUnicode:黒崎真音
Creator:Danielslz9
Version:4K MX
Source:Toaru Majutsu no Index II
Tags:A Certain Magical Index とある魔術の禁書目録 J.C.Staff Ending Second Season -[ AmiShici ]- Lenfried-
BeatmapID:825266
BeatmapSetID:377015

[Difficulty]
HPDrainRate:8
CircleSize:4
OverallDifficulty:8
ApproachRate:5
SliderMultiplier:1.4
SliderTickRate:1

[Events]
//Background and Video events
0,0,"tumblr_static_touma.png",0,0
Video,-500,"Index.avi"
//Break Periods
//Storyboard Layer 0 (Background)
//Storyboard Layer 1 (Fail)
//Storyboard Layer 2 (Pass)
//Storyboard Layer 3 (Foreground)
//Storyboard Sound Samples

[TimingPoints]
783,346.820809248555,4,2,0,40,1,0
53499,-100,4,2,0,40,0,1
75696,-100,4,2,0,40,0,0

[HitObjects]
64,192,262,128,0,436:0:0:0:0:
320,192,436,128,0,609:0:0:0:0:
448,192,609,128,0,783:0:0:0:0:
64,192,783,128,0,956:0:0:0:0:
192,192,783,1,0,0:0:0:0:
320,192,956,128,0,1129:0:0:0:0:
448,192,1129,128,0,1303:0:0:0:0:
64,192,1303,128,0,1650:0:0:0:0:
320,192,1303,1,0,0:0:0:0:
448,192,1650,128,0,1996:0:0:0:0:
192,192,1650,1,0,0:0:0:0:
320,192,1996,1,0,0:0:0:0:
64,192,1996,1,0,0:0:0:0:
192,192,2343,1,0,0:0:0:0:
448,192,2517,1,0,0:0:0:0:
320,192,2690,1,0,0:0:0:0:
64,192,2863,1,0,0:0:0:0:
192,192,3037,1,0,0:0:0:0:
320,192,3210,1,0,0:0:0:0:
448,192,3384,1,0,0:0:0:0:
320,192,3557,1,0,0:0:0:0:
64,192,3557,1,0,0:0:0:0:
192,192,3730,1,0,0:0:0:0:
64,192,3904,1,0,0:0:0:0:
192,192,4077,1,0,0:0:0:0:
448,192,4077,1,0,0:0:0:0:
320,192,4424,1,0,0:0:0:0:
448,192,4771,1,0,0:0:0:0:
64,192,4771,1,0,0:0:0:0:
448,192,5118,1,0,0:0:0:0:
320,192,5291,1,0,0:0:0:0:
64,192,5465,1,0,0:0:0:0:
192,192,5638,1,0,0:0:0:0:
448,192,5811,128,0,5985:0:0:0:0:
64,192,5985,128,0,6158:0:0:0:0:
320,192,6158,128,0,6332:0:0:0:0:
64,192,6332,1,0,0:0:0:0:
192,192,6332,1,0,0:0:0:0:
448,192,6332,1,0,0:0:0:0:
448,192,6505,1,0,0:0:0:0:
192,192,6505,1,0,0:0:0:0:
64,192,6505,1,0,0:0:0:0:
192,192,6678,1,0,0:0:0:0:
320,192,6678,1,0,0:0:0:0:
64,192,6852,1,0,0:0:0:0:
448,192,6852,1,0,0:0:0:0:
192,192,7199,1,0,0:0:0:0:
448,192,7546,1,0,0:0:0:0:
320,192,7546,1,0,0:0:0:0:
192,192,7892,1,0,0:0:0:0:
320,192,8066,1,0,0:0:0:0:
64,192,8239,1,0,0:0:0:0:
448,192,8413,1,0,0:0:0:0:
320,192,8586,1,0,0:0:0:0:
192,192,8759,1,0,0:0:0:0:
64,192,8933,1,0,0:0:0:0:
448,192,9106,1,0,0:0:0:0:
320,192,9193,1,0,0:0:0:0:
192,192,9280,1,0,0:0:0:0:
64,192,9453,1,0,0:0:0:0:
192,192,9540,1,0,0:0:0:0:
320,192,9626,1,0,0:0:0:0:
448,192,9626,1,0,0:0:0:0:
192,192,9713,1,0,0:0:0:0:
64,192,9800,1,0,0:0:0:0:
320,192,9800,1,0,0:0:0:0:
192,192,9887,1,0,0:0:0:0:
448,192,9973,1,0,0:0:0:0:
320,192,10060,1,0,0:0:0:0:
192,192,10147,1,0,0:0:0:0:
448,192,10233,1,0,0:0:0:0:
320,192,10320,1,0,0:0:0:0:
192,192,10407,1,0,0:0:0:0:
64,192,10493,1,0,0:0:0:0:
448,192,10493,1,0,0:0:0:0:
192,192,10667,1,0,0:0:0:0:
320,192,10754,1,0,0:0:0:0:
448,192,10840,1,0,0:0:0:0:
64,192,10840,1,0,0:0:0:0:
320,192,11014,1,0,0:0:0:0:
192,192,11100,1,0,0:0:0:0:
320,192,11187,1,0,0:0:0:0:
448,192,11187,1,0,0:0:0:0:
192,192,11361,1,0,0:0:0:0:
320,192,11447,1,0,0:0:0:0:
192,192,11534,1,0,0:0:0:0:
64,192,11534,1,0,0:0:0:0:
448,192,11621,1,0,0:0:0:0:
320,192,11707,1,0,0:0:0:0:
192,192,11794,1,0,0:0:0:0:
448,192,11881,1,0,0:0:0:0:
320,192,11881,1,0,0:0:0:0:
64,192,11881,128,0,12228:0:0:0:0:
448,192,12228,1,0,0:0:0:0:
192,192,12228,1,0,0:0:0:0:
448,192,12401,128,0,12574:0:0:0:0:
64,192,12574,128,0,12748:0:0:0:0:
192,192,12574,1,0,0:0:0:0:
320,192,12748,128,0,12921:0:0:0:0:
448,192,12921,128,0,13095:0:0:0:0:
192,192,12921,1,0,0:0:0:0:
64,192,12921,1,0,0:0:0:0:
64,192,13095,128,0,14135:0:0:0:0:
320,192,13441,1,0,0:0:0:0:
448,192,13615,1,0,0:0:0:0:
192,192,13615,1,0,0:0:0:0:
320,192,13788,1,0,0:0:0:0:
448,192,13962,1,0,0:0:0:0:
192,192,13962,1,0,0:0:0:0:
448,192,14135,128,0,14655:0:0:0:0:
320,192,14135,1,0,0:0:0:0:
192,192,14309,1,0,0:0:0:0:
64,192,14309,1,0,0:0:0:0:
320,192,14482,1,0,0:0:0:0:
192,192,14655,1,0,0:0:0:0:
64,192,14655,1,0,0:0:0:0:
448,192,14829,128,0,15002:0:0:0:0:
320,192,15002,128,0,15176:0:0:0:0:
64,192,15002,1,0,0:0:0:0:
192,192,15002,1,0,0:0:0:0:
64,192,15176,128,0,15349:0:0:0:0:
448,192,15176,1,0,0:0:0:0:
448,192,15349,128,0,15522:0:0:0:0:
192,192,15349,1,0,0:0:0:0:
320,192,15522,128,0,15696:0:0:0:0:
192,192,15696,1,0,0:0:0:0:
64,192,15696,1,0,0:0:0:0:
448,192,15869,128,0,16389:0:0:0:0:
320,192,15869,1,0,0:0:0:0:
192,192,16216,1,0,0:0:0:0:
192,192,16389,1,0,0:0:0:0:
64,192,16389,1,0,0:0:0:0:
320,192,16389,1,0,0:0:0:0:
448,192,16563,1,0,0:0:0:0:
192,192,16563,1,0,0:0:0:0:
448,192,16736,1,0,0:0:0:0:
320,192,16736,1,0,0:0:0:0:
64,192,16736,1,0,0:0:0:0:
192,192,16910,1,0,0:0:0:0:
320,192,16910,1,0,0:0:0:0:
192,192,17083,1,0,0:0:0:0:
64,192,17083,1,0,0:0:0:0:
448,192,17083,1,0,0:0:0:0:
320,192,17256,1,0,0:0:0:0:
64,192,17256,1,0,0:0:0:0:
448,192,17430,1,0,0:0:0:0:
192,192,17430,1,0,0:0:0:0:
64,192,17430,1,0,0:0:0:0:
448,192,17603,128,0,17777:0:0:0:0:
320,192,17777,128,0,17950:0:0:0:0:
192,192,17777,1,0,0:0:0:0:
64,192,17777,1,0,0:0:0:0:
448,192,17950,128,0,18124:0:0:0:0:
64,192,18124,128,0,18297:0:0:0:0:
192,192,18124,1,0,0:0:0:0:
192,192,18297,128,0,18470:0:0:0:0:
320,192,18297,1,0,0:0:0:0:
64,192,18470,1,0,0:0:0:0:
448,192,18470,1,0,0:0:0:0:
320,192,18470,1,0,0:0:0:0:
448,192,18644,128,0,19684:0:0:0:0:
320,192,18644,1,0,0:0:0:0:
192,192,18991,1,0,0:0:0:0:
320,192,19164,1,0,0:0:0:0:
64,192,19164,1,0,0:0:0:0:
192,192,19337,1,0,0:0:0:0:
320,192,19511,1,0,0:0:0:0:
64,192,19511,1,0,0:0:0:0:
64,192,19684,128,0,20204:0:0:0:0:
320,192,19684,1,0,0:0:0:0:
192,192,19858,1,0,0:0:0:0:
448,192,19858,1,0,0:0:0:0:
192,192,20031,128,0,20204:0:0:0:0:
448,192,20204,128,0,20378:0:0:0:0:
320,192,20204,1,0,0:0:0:0:
64,192,20378,128,0,20551:0:0:0:0:
192,192,20551,128,0,20725:0:0:0:0:
448,192,20551,1,0,0:0:0:0:
320,192,20551,1,0,0:0:0:0:
448,192,20725,128,0,20898:0:0:0:0:
64,192,20725,1,0,0:0:0:0:
64,192,20898,128,0,21072:0:0:0:0:
320,192,20898,1,0,0:0:0:0:
320,192,21072,128,0,21245:0:0:0:0:
192,192,21072,1,0,0:0:0:0:
64,192,21245,1,0,0:0:0:0:
192,192,21245,1,0,0:0:0:0:
448,192,21245,1,0,0:0:0:0:
64,192,21418,128,0,21765:0:0:0:0:
448,192,21418,1,0,0:0:0:0:
448,192,21765,1,0,0:0:0:0:
192,192,21765,1,0,0:0:0:0:
320,192,21939,1,0,0:0:0:0:
64,192,21939,1,0,0:0:0:0:
448,192,21939,1,0,0:0:0:0:
192,192,22112,1,0,0:0:0:0:
320,192,22112,1,0,0:0:0:0:
448,192,22285,1,0,0:0:0:0:
320,192,22285,1,0,0:0:0:0:
64,192,22285,1,0,0:0:0:0:
64,192,22459,1,0,0:0:0:0:
448,192,22459,1,0,0:0:0:0:
320,192,22632,1,0,0:0:0:0:
64,192,22632,1,0,0:0:0:0:
192,192,22632,1,0,0:0:0:0:
320,192,22806,1,0,0:0:0:0:
192,192,22806,1,0,0:0:0:0:
320,192,22979,1,0,0:0:0:0:
64,192,22979,1,0,0:0:0:0:
448,192,22979,1,0,0:0:0:0:
192,192,23152,1,0,0:0:0:0:
320,192,23239,1,0,0:0:0:0:
448,192,23326,1,0,0:0:0:0:
64,192,23326,1,0,0:0:0:0:
192,192,23326,1,0,0:0:0:0:
320,192,23499,1,0,0:0:0:0:
448,192,23673,1,0,0:0:0:0:
64,192,23673,1,0,0:0:0:0:
448,192,23846,1,0,0:0:0:0:
64,192,23846,1,0,0:0:0:0:
448,192,24019,1,0,0:0:0:0:
320,192,24019,1,0,0:0:0:0:
192,192,24019,1,0,0:0:0:0:
64,192,24193,1,0,0:0:0:0:
448,192,24366,1,0,0:0:0:0:
192,192,24366,1,0,0:0:0:0:
64,192,24540,1,0,0:0:0:0:
192,192,24713,1,0,0:0:0:0:
320,192,24713,1,0,0:0:0:0:
448,192,24713,1,0,0:0:0:0:
448,192,24887,1,0,0:0:0:0:
320,192,25060,1,0,0:0:0:0:
64,192,25060,1,0,0:0:0:0:
192,192,25233,1,0,0:0:0:0:
448,192,25233,1,0,0:0:0:0:
64,192,25407,1,0,0:0:0:0:
448,192,25407,1,0,0:0:0:0:
320,192,25407,1,0,0:0:0:0:
192,192,25580,1,0,0:0:0:0:
64,192,25754,1,0,0:0:0:0:
448,192,25754,1,0,0:0:0:0:
320,192,25927,1,0,0:0:0:0:
448,192,26100,1,0,0:0:0:0:
192,192,26100,1,0,0:0:0:0:
64,192,26100,1,0,0:0:0:0:
64,192,26274,1,0,0:0:0:0:
192,192,26447,1,0,0:0:0:0:
448,192,26447,1,0,0:0:0:0:
320,192,26621,1,0,0:0:0:0:
64,192,26621,1,0,0:0:0:0:
448,192,26794,1,0,0:0:0:0:
192,192,26794,1,0,0:0:0:0:
64,192,26794,1,0,0:0:0:0:
320,192,26967,1,0,0:0:0:0:
64,192,27141,1,0,0:0:0:0:
192,192,27141,1,0,0:0:0:0:
448,192,27314,1,0,0:0:0:0:
320,192,27488,1,0,0:0:0:0:
192,192,27488,1,0,0:0:0:0:
64,192,27488,1,0,0:0:0:0:
448,192,27661,1,0,0:0:0:0:
320,192,27835,1,0,0:0:0:0:
64,192,27835,1,0,0:0:0:0:
192,192,28008,1,0,0:0:0:0:
448,192,28008,128,0,28181:0:0:0:0:
192,192,28181,128,0,28355:0:0:0:0:
320,192,28181,1,0,0:0:0:0:
64,192,28181,1,0,0:0:0:0:
64,192,28355,128,0,28528:0:0:0:0:
448,192,28355,1,0,0:0:0:0:
320,192,28528,128,0,28702:0:0:0:0:
192,192,28528,1,0,0:0:0:0:
64,192,28702,128,0,28875:0:0:0:0:
448,192,28702,1,0,0:0:0:0:
448,192,28875,1,0,0:0:0:0:
320,192,28875,1,0,0:0:0:0:
192,192,28875,1,0,0:0:0:0:
448,192,29222,1,0,0:0:0:0:
64,192,29222,1,0,0:0:0:0:
448,192,29395,1,0,0:0:0:0:
64,192,29395,1,0,0:0:0:0:
448,192,29569,1,0,0:0:0:0:
320,192,29569,1,0,0:0:0:0:
192,192,29569,1,0,0:0:0:0:
64,192,29742,1,0,0:0:0:0:
192,192,29915,1,0,0:0:0:0:
448,192,29915,1,0,0:0:0:0:
320,192,30089,1,0,0:0:0:0:
448,192,30262,1,0,0:0:0:0:
192,192,30262,1,0,0:0:0:0:
64,192,30262,1,0,0:0:0:0:
64,192,30436,1,0,0:0:0:0:
192,192,30609,1,0,0:0:0:0:
448,192,30609,1,0,0:0:0:0:
320,192,30783,1,0,0:0:0:0:
64,192,30783,1,0,0:0:0:0:
448,192,30956,1,0,0:0:0:0:
192,192,30956,1,0,0:0:0:0:
64,192,30956,1,0,0:0:0:0:
320,192,31129,1,0,0:0:0:0:
192,192,31129,1,0,0:0:0:0:
448,192,31303,1,0,0:0:0:0:
320,192,31303,1,0,0:0:0:0:
64,192,31303,1,0,0:0:0:0:
320,192,31650,1,0,0:0:0:0:
192,192,31650,1,0,0:0:0:0:
64,192,31650,1,0,0:0:0:0:
448,192,31996,1,0,0:0:0:0:
192,192,31996,1,0,0:0:0:0:
64,192,32170,1,0,0:0:0:0:
320,192,32170,1,0,0:0:0:0:
448,192,32343,1,0,0:0:0:0:
192,192,32343,1,0,0:0:0:0:
64,192,32343,1,0,0:0:0:0:
448,192,32690,1,0,0:0:0:0:
320,192,32690,1,0,0:0:0:0:
64,192,32690,1,0,0:0:0:0:
64,192,32863,1,0,0:0:0:0:
320,192,32863,1,0,0:0:0:0:
448,192,32863,1,0,0:0:0:0:
192,192,33037,1,0,0:0:0:0:
64,192,33037,1,0,0:0:0:0:
448,192,33037,1,0,0:0:0:0:
448,192,33210,1,0,0:0:0:0:
320,192,33210,1,0,0:0:0:0:
192,192,33210,1,0,0:0:0:0:
192,192,33384,1,0,0:0:0:0:
64,192,33384,1,0,0:0:0:0:
320,192,33384,1,0,0:0:0:0:
448,192,33557,1,0,0:0:0:0:
320,192,33557,1,0,0:0:0:0:
64,192,33557,1,0,0:0:0:0:
64,192,33730,1,0,0:0:0:0:
192,192,33730,1,0,0:0:0:0:
448,192,33730,1,0,0:0:0:0:
320,192,33904,1,0,0:0:0:0:
192,192,33991,1,0,0:0:0:0:
320,192,34077,1,0,0:0:0:0:
448,192,34077,1,0,0:0:0:0:
64,192,34077,128,0,34424:0:0:0:0:
448,192,34424,1,0,0:0:0:0:
320,192,34424,1,0,0:0:0:0:
192,192,34424,1,0,0:0:0:0:
448,192,34771,1,0,0:0:0:0:
192,192,34771,1,0,0:0:0:0:
320,192,34944,1,0,0:0:0:0:
64,192,34944,1,0,0:0:0:0:
192,192,35118,1,0,0:0:0:0:
448,192,35118,1,0,0:0:0:0:
64,192,35118,1,0,0:0:0:0:
320,192,35291,1,0,0:0:0:0:
192,192,35291,1,0,0:0:0:0:
64,192,35638,1,0,0:0:0:0:
448,192,35638,1,0,0:0:0:0:
448,192,35811,1,0,0:0:0:0:
320,192,35811,1,0,0:0:0:0:
192,192,35811,1,0,0:0:0:0:
64,192,35985,1,0,0:0:0:0:
192,192,36158,1,0,0:0:0:0:
320,192,36158,1,0,0:0:0:0:
448,192,36158,1,0,0:0:0:0:
64,192,36332,1,0,0:0:0:0:
192,192,36505,1,0,0:0:0:0:
448,192,36505,1,0,0:0:0:0:
320,192,36505,128,0,36852:0:0:0:0:
64,192,36678,1,0,0:0:0:0:
192,192,36852,1,0,0:0:0:0:
448,192,36852,128,0,37372:0:0:0:0:
64,192,37025,1,0,0:0:0:0:
192,192,37199,1,0,0:0:0:0:
320,192,37199,1,0,0:0:0:0:
320,192,37372,1,0,0:0:0:0:
64,192,37372,128,0,38066:0:0:0:0:
448,192,37546,1,0,0:0:0:0:
192,192,37546,1,0,0:0:0:0:
320,192,37719,1,0,0:0:0:0:
448,192,37892,1,0,0:0:0:0:
192,192,37892,1,0,0:0:0:0:
448,192,38066,128,0,38586:0:0:0:0:
320,192,38066,1,0,0:0:0:0:
192,192,38413,1,0,0:0:0:0:
320,192,38586,1,0,0:0:0:0:
64,192,38586,1,0,0:0:0:0:
192,192,38933,1,0,0:0:0:0:
320,192,38933,1,0,0:0:0:0:
448,192,38933,1,0,0:0:0:0:
64,192,39106,1,0,0:0:0:0:
192,192,39193,1,0,0:0:0:0:
320,192,39280,1,0,0:0:0:0:
448,192,39366,1,0,0:0:0:0:
64,192,39453,1,0,0:0:0:0:
192,192,39540,1,0,0:0:0:0:
320,192,39626,1,0,0:0:0:0:
448,192,39626,1,0,0:0:0:0:
64,192,39626,1,0,0:0:0:0:
448,192,39800,1,0,0:0:0:0:
320,192,39800,1,0,0:0:0:0:
64,192,39800,1,0,0:0:0:0:
320,192,39973,1,0,0:0:0:0:
192,192,39973,1,0,0:0:0:0:
64,192,39973,1,0,0:0:0:0:
448,192,40320,1,0,0:0:0:0:
320,192,40320,1,0,0:0:0:0:
192,192,40493,1,0,0:0:0:0:
64,192,40493,1,0,0:0:0:0:
448,192,40667,1,0,0:0:0:0:
320,192,40667,1,0,0:0:0:0:
64,192,40840,128,0,42228:0:0:0:0:
192,192,40840,1,0,0:0:0:0:
320,192,41187,1,0,0:0:0:0:
448,192,41361,1,0,0:0:0:0:
192,192,41361,1,0,0:0:0:0:
320,192,41534,1,0,0:0:0:0:
448,192,41707,1,0,0:0:0:0:
192,192,41707,1,0,0:0:0:0:
320,192,41881,1,0,0:0:0:0:
448,192,42228,1,0,0:0:0:0:
192,192,42228,1,0,0:0:0:0:
448,192,42401,1,0,0:0:0:0:
320,192,42401,1,0,0:0:0:0:
64,192,42401,1,0,0:0:0:0:
448,192,42574,1,0,0:0:0:0:
320,192,42574,1,0,0:0:0:0:
192,192,42574,1,0,0:0:0:0:
192,192,42748,1,0,0:0:0:0:
64,192,42748,1,0,0:0:0:0:
448,192,42748,1,0,0:0:0:0:
320,192,43095,1,0,0:0:0:0:
64,192,43095,1,0,0:0:0:0:
448,192,43268,1,0,0:0:0:0:
192,192,43441,1,0,0:0:0:0:
64,192,43441,1,0,0:0:0:0:
448,192,43615,128,0,44482:0:0:0:0:
192,192,43962,1,0,0:0:0:0:
320,192,44135,1,0,0:0:0:0:
64,192,44135,1,0,0:0:0:0:
192,192,44309,1,0,0:0:0:0:
64,192,44482,1,0,0:0:0:0:
320,192,44482,1,0,0:0:0:0:
192,192,44482,1,0,0:0:0:0:
320,192,44655,1,0,0:0:0:0:
448,192,44655,1,0,0:0:0:0:
192,192,44829,1,0,0:0:0:0:
64,192,44829,1,0,0:0:0:0:
448,192,44829,1,0,0:0:0:0:
320,192,45002,1,0,0:0:0:0:
448,192,45176,1,0,0:0:0:0:
64,192,45176,128,0,46389:0:0:0:0:
448,192,45522,1,0,0:0:0:0:
192,192,45522,1,0,0:0:0:0:
320,192,45696,1,0,0:0:0:0:
192,192,45869,1,0,0:0:0:0:
320,192,46043,1,0,0:0:0:0:
448,192,46216,1,0,0:0:0:0:
192,192,46216,1,0,0:0:0:0:
320,192,46389,1,0,0:0:0:0:
448,192,46389,128,0,47256:0:0:0:0:
64,192,46563,1,0,0:0:0:0:
320,192,46736,1,0,0:0:0:0:
192,192,46910,1,0,0:0:0:0:
64,192,46910,1,0,0:0:0:0:
320,192,47083,1,0,0:0:0:0:
320,192,47256,1,0,0:0:0:0:
64,192,47256,128,0,47950:0:0:0:0:
192,192,47430,1,0,0:0:0:0:
448,192,47603,1,0,0:0:0:0:
192,192,47603,1,0,0:0:0:0:
320,192,47777,1,0,0:0:0:0:
448,192,47950,1,0,0:0:0:0:
320,192,47950,1,0,0:0:0:0:
192,192,47950,128,0,48991:0:0:0:0:
64,192,48297,1,0,0:0:0:0:
448,192,48297,1,0,0:0:0:0:
320,192,48470,1,0,0:0:0:0:
448,192,48644,1,0,0:0:0:0:
64,192,48644,1,0,0:0:0:0:
320,192,48817,1,0,0:0:0:0:
448,192,48991,1,0,0:0:0:0:
64,192,48991,1,0,0:0:0:0:
320,192,48991,1,0,0:0:0:0:
448,192,49164,128,0,50725:0:0:0:0:
192,192,49511,1,0,0:0:0:0:
320,192,49684,1,0,0:0:0:0:
64,192,49684,1,0,0:0:0:0:
192,192,49858,1,0,0:0:0:0:
320,192,50031,1,0,0:0:0:0:
64,192,50031,1,0,0:0:0:0:
192,192,50204,1,0,0:0:0:0:
320,192,50378,1,0,0:0:0:0:
192,192,50378,1,0,0:0:0:0:
64,192,50378,1,0,0:0:0:0:
320,192,50551,1,0,0:0:0:0:
64,192,50551,1,0,0:0:0:0:
192,192,50725,1,0,0:0:0:0:
64,192,50725,1,0,0:0:0:0:
448,192,51072,1,0,0:0:0:0:
192,192,51072,1,0,0:0:0:0:
320,192,51158,1,0,0:0:0:0:
64,192,51245,1,0,0:0:0:0:
192,192,51332,1,0,0:0:0:0:
448,192,51418,1,0,0:0:0:0:
320,192,51505,1,0,0:0:0:0:
192,192,51592,1,0,0:0:0:0:
64,192,51592,1,0,0:0:0:0:
448,192,51678,1,0,0:0:0:0:
320,192,51765,1,0,0:0:0:0:
64,192,51852,1,0,0:0:0:0:
192,192,51939,1,0,0:0:0:0:
320,192,52025,1,0,0:0:0:0:
448,192,52112,1,0,0:0:0:0:
192,192,52112,1,0,0:0:0:0:
64,192,52112,1,0,0:0:0:0:
64,192,52285,1,0,0:0:0:0:
320,192,52285,1,0,0:0:0:0:
448,192,52285,1,0,0:0:0:0:
192,192,52459,1,0,0:0:0:0:
64,192,52459,1,0,0:0:0:0:
448,192,52459,1,0,0:0:0:0:
448,192,52632,1,0,0:0:0:0:
320,192,52632,1,0,0:0:0:0:
192,192,52632,1,0,0:0:0:0:
320,192,53326,1,0,0:0:0:0:
192,192,53413,1,0,0:0:0:0:
64,192,53499,1,0,0:0:0:0:
448,192,53499,128,0,53846:0:0:0:0:
320,192,53846,1,0,0:0:0:0:
192,192,53846,1,0,0:0:0:0:
64,192,53846,1,0,0:0:0:0:
64,192,54193,1,0,0:0:0:0:
320,192,54193,1,0,0:0:0:0:
192,192,54366,1,0,0:0:0:0:
448,192,54366,1,0,0:0:0:0:
64,192,54540,1,0,0:0:0:0:
320,192,54540,1,0,0:0:0:0:
448,192,54540,1,0,0:0:0:0:
192,192,54713,1,0,0:0:0:0:
320,192,54887,1,0,0:0:0:0:
448,192,54887,1,0,0:0:0:0:
64,192,55060,128,0,55233:0:0:0:0:
192,192,55233,1,0,0:0:0:0:
448,192,55233,1,0,0:0:0:0:
320,192,55407,1,0,0:0:0:0:
448,192,55580,1,0,0:0:0:0:
192,192,55580,1,0,0:0:0:0:
64,192,55754,1,0,0:0:0:0:
192,192,55927,1,0,0:0:0:0:
320,192,55927,1,0,0:0:0:0:
448,192,55927,1,0,0:0:0:0:
448,192,56100,1,0,0:0:0:0:
320,192,56274,1,0,0:0:0:0:
64,192,56274,1,0,0:0:0:0:
192,192,56447,1,0,0:0:0:0:
64,192,56621,1,0,0:0:0:0:
320,192,56621,1,0,0:0:0:0:
448,192,56621,1,0,0:0:0:0:
448,192,56794,128,0,56967:0:0:0:0:
192,192,56794,1,0,0:0:0:0:
64,192,56967,128,0,57141:0:0:0:0:
320,192,56967,1,0,0:0:0:0:
320,192,57141,128,0,57314:0:0:0:0:
192,192,57141,1,0,0:0:0:0:
448,192,57314,128,0,57488:0:0:0:0:
192,192,57314,1,0,0:0:0:0:
64,192,57314,1,0,0:0:0:0:
320,192,57488,1,0,0:0:0:0:
64,192,57488,128,0,58008:0:0:0:0:
448,192,57835,128,0,58008:0:0:0:0:
320,192,58008,1,0,0:0:0:0:
192,192,58008,1,0,0:0:0:0:
448,192,58181,1,0,0:0:0:0:
64,192,58181,1,0,0:0:0:0:
320,192,58355,1,0,0:0:0:0:
192,192,58355,1,0,0:0:0:0:
448,192,58528,1,0,0:0:0:0:
64,192,58528,1,0,0:0:0:0:
192,192,58702,1,0,0:0:0:0:
320,192,58702,1,0,0:0:0:0:
448,192,58702,1,0,0:0:0:0:
64,192,58875,1,0,0:0:0:0:
320,192,59048,1,0,0:0:0:0:
448,192,59048,128,0,59395:0:0:0:0:
320,192,59395,1,0,0:0:0:0:
64,192,59395,1,0,0:0:0:0:
320,192,59569,1,0,0:0:0:0:
192,192,59742,1,0,0:0:0:0:
448,192,59742,1,0,0:0:0:0:
320,192,59915,1,0,0:0:0:0:
64,192,59915,1,0,0:0:0:0:
448,192,60089,1,0,0:0:0:0:
192,192,60089,1,0,0:0:0:0:
64,192,60089,1,0,0:0:0:0:
320,192,60262,128,0,60609:0:0:0:0:
192,192,60436,128,0,60609:0:0:0:0:
64,192,60609,1,0,0:0:0:0:
64,192,60783,1,0,0:0:0:0:
320,192,60783,1,0,0:0:0:0:
192,192,60783,1,0,0:0:0:0:
448,192,60956,1,0,0:0:0:0:
320,192,61129,1,0,0:0:0:0:
64,192,61129,1,0,0:0:0:0:
448,192,61303,1,0,0:0:0:0:
320,192,61476,1,0,0:0:0:0:
192,192,61476,1,0,0:0:0:0:
64,192,61476,1,0,0:0:0:0:
448,192,61650,1,0,0:0:0:0:
320,192,61736,1,0,0:0:0:0:
192,192,61823,1,0,0:0:0:0:
64,192,61823,128,0,62170:0:0:0:0:
448,192,62170,1,0,0:0:0:0:
320,192,62170,1,0,0:0:0:0:
192,192,62170,1,0,0:0:0:0:
448,192,62343,1,0,0:0:0:0:
320,192,62517,1,0,0:0:0:0:
64,192,62517,1,0,0:0:0:0:
192,192,62690,1,0,0:0:0:0:
448,192,62690,1,0,0:0:0:0:
64,192,62863,1,0,0:0:0:0:
320,192,62863,1,0,0:0:0:0:
448,192,62863,1,0,0:0:0:0:
448,192,63037,1,0,0:0:0:0:
320,192,63124,1,0,0:0:0:0:
192,192,63210,1,0,0:0:0:0:
64,192,63210,128,0,63557:0:0:0:0:
192,192,63557,1,0,0:0:0:0:
320,192,63557,1,0,0:0:0:0:
448,192,63557,1,0,0:0:0:0:
64,192,63904,1,0,0:0:0:0:
192,192,63904,1,0,0:0:0:0:
320,192,63904,1,0,0:0:0:0:
448,192,64251,1,0,0:0:0:0:
320,192,64251,1,0,0:0:0:0:
192,192,64251,1,0,0:0:0:0:
320,192,64598,128,0,64944:0:0:0:0:
192,192,64598,1,0,0:0:0:0:
192,192,64944,1,0,0:0:0:0:
64,192,64944,1,0,0:0:0:0:
448,192,64944,1,0,0:0:0:0:
64,192,65118,1,0,0:0:0:0:
192,192,65291,1,0,0:0:0:0:
448,192,65291,1,0,0:0:0:0:
320,192,65465,1,0,0:0:0:0:
64,192,65465,1,0,0:0:0:0:
448,192,65638,1,0,0:0:0:0:
192,192,65638,1,0,0:0:0:0:
64,192,65638,1,0,0:0:0:0:
320,192,65811,1,0,0:0:0:0:
448,192,65985,1,0,0:0:0:0:
64,192,65985,128,0,66332:0:0:0:0:
448,192,66158,128,0,66332:0:0:0:0:
192,192,66332,1,0,0:0:0:0:
320,192,66332,1,0,0:0:0:0:
192,192,66505,1,0,0:0:0:0:
64,192,66505,1,0,0:0:0:0:
448,192,66678,1,0,0:0:0:0:
320,192,66678,1,0,0:0:0:0:
320,192,66852,1,0,0:0:0:0:
192,192,66852,1,0,0:0:0:0:
192,192,67025,1,0,0:0:0:0:
64,192,67025,1,0,0:0:0:0:
448,192,67025,1,0,0:0:0:0:
64,192,67372,128,0,67719:0:0:0:0:
448,192,67372,128,0,67719:0:0:0:0:
320,192,67719,1,0,0:0:0:0:
192,192,67719,1,0,0:0:0:0:
64,192,67892,1,0,0:0:0:0:
448,192,67892,1,0,0:0:0:0:
320,192,68239,1,0,0:0:0:0:
192,192,68239,1,0,0:0:0:0:
64,192,68586,128,0,68933:0:0:0:0:
448,192,68586,128,0,68933:0:0:0:0:
320,192,68933,1,0,0:0:0:0:
192,192,68933,1,0,0:0:0:0:
64,192,69106,1,0,0:0:0:0:
192,192,69106,1,0,0:0:0:0:
448,192,69106,1,0,0:0:0:0:
320,192,69106,1,0,0:0:0:0:
64,192,69280,128,0,69453:0:0:0:0:
448,192,69453,128,0,69626:0:0:0:0:
192,192,69453,1,0,0:0:0:0:
64,192,69626,128,0,69800:0:0:0:0:
320,192,69626,1,0,0:0:0:0:
192,192,69800,1,0,0:0:0:0:
448,192,69800,1,0,0:0:0:0:
320,192,69800,128,0,69973:0:0:0:0:
448,192,69973,1,0,0:0:0:0:
64,192,69973,1,0,0:0:0:0:
64,192,70147,1,0,0:0:0:0:
192,192,70147,1,0,0:0:0:0:
320,192,70147,1,0,0:0:0:0:
448,192,70147,1,0,0:0:0:0:
448,192,70493,1,0,0:0:0:0:
64,192,70493,1,0,0:0:0:0:
192,192,70493,1,0,0:0:0:0:
64,192,70840,1,0,0:0:0:0:
320,192,70840,1,0,0:0:0:0:
192,192,71014,1,0,0:0:0:0:
448,192,71014,1,0,0:0:0:0:
64,192,71187,1,0,0:0:0:0:
320,192,71187,1,0,0:0:0:0:
448,192,71187,1,0,0:0:0:0:
64,192,71361,128,0,71881:0:0:0:0:
320,192,71707,128,0,71881:0:0:0:0:
192,192,71881,1,0,0:0:0:0:
448,192,71881,1,0,0:0:0:0:
64,192,72228,1,0,0:0:0:0:
192,192,72228,1,0,0:0:0:0:
320,192,72401,1,0,0:0:0:0:
192,192,72401,1,0,0:0:0:0:
64,192,72574,1,0,0:0:0:0:
320,192,72574,1,0,0:0:0:0:
448,192,72574,1,0,0:0:0:0:
192,192,72921,1,0,0:0:0:0:
320,192,73268,1,0,0:0:0:0:
448,192,73268,1,0,0:0:0:0:
64,192,73268,1,0,0:0:0:0:
448,192,73615,1,0,0:0:0:0:
192,192,73615,1,0,0:0:0:0:
64,192,73788,1,0,0:0:0:0:
320,192,73788,1,0,0:0:0:0:
448,192,73962,1,0,0:0:0:0:
192,192,73962,1,0,0:0:0:0:
64,192,73962,1,0,0:0:0:0:
64,192,74135,1,0,0:0:0:0:
448,192,74135,128,0,74655:0:0:0:0:
64,192,74482,128,0,74655:0:0:0:0:
192,192,74655,128,0,75002:0:0:0:0:
320,192,74655,1,0,0:0:0:0:
320,192,74829,128,0,75002:0:0:0:0:
64,192,75002,1,0,0:0:0:0:
448,192,75002,1,0,0:0:0:0:
320,192,75176,1,0,0:0:0:0:
192,192,75176,1,0,0:0:0:0:
192,192,75349,1,0,0:0:0:0:
64,192,75349,1,0,0:0:0:0:
448,192,75349,1,0,0:0:0:0:
448,192,75696,1,0,0:0:0:0:
320,192,75696,1,0,0:0:0:0:
192,192,75696,1,0,0:0:0:0:
64,192,75696,1,0,0:0:0:0:
448,192,76389,1,0,0:0:0:0:
320,192,76389,1,0,0:0:0:0:
64,192,76389,1,0,0:0:0:0:
64,192,76736,1,0,0:0:0:0:
192,192,76736,1,0,0:0:0:0:
448,192,76736,1,0,0:0:0:0:
448,192,76910,1,0,0:0:0:0:
320,192,76910,1,0,0:0:0:0:
64,192,76910,1,0,0:0:0:0:
448,192,77256,1,0,0:0:0:0:
64,192,77256,1,0,0:0:0:0:
192,192,77430,1,0,0:0:0:0:
320,192,77430,1,0,0:0:0:0:
320,192,77777,1,0,0:0:0:0:
192,192,77777,1,0,0:0:0:0:
64,192,77777,1,0,0:0:0:0:
448,192,78124,1,0,0:0:0:0:
320,192,78124,1,0,0:0:0:0:
192,192,78297,1,0,0:0:0:0:
64,192,78297,1,0,0:0:0:0:
448,192,78470,1,0,0:0:0:0:
64,192,78470,128,0,78817:0:0:0:0:
448,192,78817,1,0,0:0:0:0:
192,192,78817,1,0,0:0:0:0:
320,192,78991,1,0,0:0:0:0:
192,192,78991,1,0,0:0:0:0:
64,192,79164,1,0,0:0:0:0:
320,192,79164,1,0,0:0:0:0:
448,192,79164,1,0,0:0:0:0:
64,192,79511,1,0,0:0:0:0:
192,192,79511,1,0,0:0:0:0:
320,192,79684,1,0,0:0:0:0:
448,192,79684,1,0,0:0:0:0:
192,192,80031,1,0,0:0:0:0:
64,192,80204,1,0,0:0:0:0:
448,192,80204,1,0,0:0:0:0:
320,192,80378,1,0,0:0:0:0:
448,192,80551,1,0,0:0:0:0:
192,192,80551,1,0,0:0:0:0:
64,192,80551,1,0,0:0:0:0:
448,192,80725,1,0,0:0:0:0:
320,192,80725,1,0,0:0:0:0:
192,192,80725,1,0,0:0:0:0:
64,192,80898,1,0,0:0:0:0:
192,192,80898,1,0,0:0:0:0:
448,192,80898,1,0,0:0:0:0:
448,192,81072,1,0,0:0:0:0:
320,192,81072,1,0,0:0:0:0:
64,192,81072,1,0,0:0:0:0:
320,192,81245,1,0,0:0:0:0:
192,192,81245,1,0,0:0:0:0:
64,192,81245,1,0,0:0:0:0:
448,192,81418,1,0,0:0:0:0:
192,192,81418,1,0,0:0:0:0:
320,192,81418,1,0,0:0:0:0:
64,192,82285,1,0,0:0:0:0:
192,192,82285,1,0,0:0:0:0:
448,192,82285,1,0,0:0:0:0:
448,192,82459,1,0,0:0:0:0:
320,192,82459,1,0,0:0:0:0:
64,192,82459,1,0,0:0:0:0:
320,192,83152,1,0,0:0:0:0:
192,192,83152,1,0,0:0:0:0:
64,192,83152,1,0,0:0:0:0:
448,192,83326,1,0,0:0:0:0:
320,192,83326,1,0,0:0:0:0:
192,192,83326,1,0,0:0:0:0:
192,192,83499,1,0,0:0:0:0:
64,192,83499,1,0,0:0:0:0:
448,192,83499,1,0,0:0:0:0:
448,192,83673,1,0,0:0:0:0:
320,192,83673,1,0,0:0:0:0:
64,192,83673,1,0,0:0:0:0:
192,192,83846,1,0,0:0:0:0:
64,192,83846,1,0,0:0:0:0:
448,192,83846,1,0,0:0:0:0:
448,192,84019,1,0,0:0:0:0:
320,192,84019,1,0,0:0:0:0:
64,192,84019,1,0,0:0:0:0:
192,192,84193,1,0,0:0:0:0:
64,192,84193,1,0,0:0:0:0:
320,192,84193,1,0,0:0:0:0:
448,192,85060,1,0,0:0:0:0:
320,192,85060,1,0,0:0:0:0:
64,192,85060,1,0,0:0:0:0:
64,192,85233,1,0,0:0:0:0:
192,192,85233,1,0,0:0:0:0:
448,192,85233,1,0,0:0:0:0:
64,192,85927,1,0,0:0:0:0:
320,192,85927,1,0,0:0:0:0:
448,192,85927,1,0,0:0:0:0:
192,192,86100,1,0,0:0:0:0:
64,192,86100,1,0,0:0:0:0:
448,192,86100,1,0,0:0:0:0:
448,192,86274,1,0,0:0:0:0:
320,192,86274,1,0,0:0:0:0:
64,192,86274,1,0,0:0:0:0:
320,192,86447,1,0,0:0:0:0:
192,192,86447,1,0,0:0:0:0:
448,192,86534,1,0,0:0:0:0:
64,192,86534,1,0,0:0:0:0:
192,192,86621,1,0,0:0:0:0:
320,192,86621,1,0,0:0:0:0:
64,192,86707,1,0,0:0:0:0:
448,192,86707,1,0,0:0:0:0:
192,192,86794,128,0,89222:0:0:0:0:
320,192,86794,128,0,89222:0:0:0:0:
