osu file format v14

[General]
AudioFilename: Memories Last.mp3
AudioLeadIn: 0
PreviewTime: 54232
Countdown: 0
SampleSet: Normal
StackLeniency: 0.7
Mode: 0
LetterboxInBreaks: 0
WidescreenStoryboard: 0

[Editor]
DistanceSpacing: 1.4
BeatDivisor: 4
GridSize: 4
TimelineZoom: 1.6

[Metadata]
Title:Memories Last
TitleUnicode:メモリーズ・ラスト
Artist:Kurosaki Maon
ArtistUnicode:黒崎真音
Creator:Gaia
Version:Hard
Source:とある魔術の禁書目録Ⅱ
Tags:cRyo[iceeicee] To Aru Majutsu no Index II toaru a certain magical kagaku scientific railgun accelerator Kinsho Mokuroku
BeatmapID:1454899
BeatmapSetID:687534

[Difficulty]
HPDrainRate:5
CircleSize:4
OverallDifficulty:5
ApproachRate:8
SliderMultiplier:1.4
SliderTickRate:1

[Events]
//Background and Video events
0,0,"bg standard.jpg",0,0
//Break Periods
2,118334,122933
//Storyboard Layer 0 (Background)
//Storyboard Layer 1 (Fail)
//Storyboard Layer 2 (Pass)
//Storyboard Layer 3 (Foreground)
//Storyboard Sound Samples

[TimingPoints]
215,346.820809248555,4,2,1,55,1,0
1602,-100,4,2,1,55,0,0
7064,-100,4,1,1,65,0,0
7411,-100,4,2,1,55,0,0
9925,-100,4,1,1,45,0,0
11226,-100,4,1,1,45,0,0
12700,-90.9090909090909,4,1,1,65,0,0
23798,-100,4,1,1,65,0,0
39752,-100,4,1,1,65,0,0
39839,-100,4,1,1,65,0,0
46255,-100,4,2,1,65,0,0
46342,-100,4,1,1,65,0,0
51197,-100,4,1,1,45,0,0
51544,-100,4,1,1,45,0,0
52671,-100,4,1,1,45,0,0
52845,-90.9090909090909,4,1,1,65,0,0
64376,-90.9090909090909,4,1,1,55,0,0
65417,-90.9090909090909,4,1,1,65,0,0
68451,-90.9090909090909,4,2,1,55,0,0
68495,-90.9090909090909,4,1,1,65,0,0
76428,-90.9090909090909,4,1,1,45,0,0
76515,-111.111111111111,4,1,1,45,0,0
82064,-100,4,1,1,45,0,0
92469,-100,4,1,1,65,0,0
110070,-100,4,2,1,55,0,0
110113,-100,4,1,1,65,0,0
115359,-100,4,1,1,45,0,0
116746,-100,4,1,1,65,0,0
117787,-100,4,1,1,55,0,0
119521,-100,4,2,1,45,0,0
123336,-125,4,2,1,55,0,0
126457,-111.111111111111,4,2,1,55,0,0
127671,-100,4,1,1,65,0,0
128105,-100,4,1,1,65,0,0
129232,-90.9090909090909,4,1,1,65,0,0
132267,-90.9090909090909,4,2,1,55,0,0
132310,-90.9090909090909,4,1,1,65,0,0
139897,-90.9090909090909,4,1,1,45,0,0
139983,-100,4,1,1,45,0,0
140330,-111.111111111111,4,1,1,45,0,0
145186,-100,4,1,1,55,0,0
145879,-100,4,1,1,65,0,0
150995,-100,4,1,1,65,0,0
151428,-90.9090909090909,4,1,1,65,0,0
173712,-100,4,2,1,5,0,0

[Colours]
Combo1 : 255,128,255
Combo2 : 0,128,255
Combo3 : 0,255,128
Combo4 : 94,255,255
Combo5 : 255,255,128

[HitObjects]
180,128,1082,5,2,0:0:0:0:
92,100,1255,1,0,0:0:0:0:
160,40,1428,1,0,2:3:0:0:
176,152,1602,6,0,P|172:191|164:236,2,70,2|0|0,0:0|0:0|0:0,0:0:0:0:
256,64,2122,2,0,P|304:44|388:84,2,140,2|0|2,0:0|0:0|0:0,0:0:0:0:
256,64,3162,5,0,0:0:0:0:
316,136,3336,2,0,P|322:174|328:228,1,70,2|0,0:0|0:0,0:0:0:0:
416,216,3683,2,0,P|415:256|408:300,1,70,2|0,0:0|0:0,0:0:0:0:
348,352,4030,2,0,P|311:341|272:336,1,70,2|0,0:0|0:0,0:0:0:0:
180,304,4376,6,0,P|143:314|104:320,2,70,2|0|0,0:0|0:0|0:0,0:0:0:0:
116,216,4897,2,0,P|76:164|104:84,2,140,2|0|2,0:0|0:0|0:0,0:0:0:0:
116,216,5937,5,0,0:0:0:0:
204,188,6110,2,0,P|216:152|208:104,1,70,2|0,0:0|0:0,0:0:0:0:
248,36,6457,2,0,P|273:64|318:81,1,70,2|2,0:0|0:0,0:0:0:0:
364,144,6804,2,0,P|326:151|289:182,1,70,0|2,0:0|0:0,0:0:0:0:
364,236,7151,5,8,0:0:0:0:
364,236,7324,2,0,L|376:316,1,70,8|0,0:0|0:0,0:0:0:0:
264,288,7671,2,0,P|202:278|104:272,2,140,2|0|2,0:0|0:0|0:0,0:0:0:0:
264,288,8712,5,0,0:0:0:0:
356,332,8885,2,0,P|396:324|432:304,1,70,2|0,0:0|0:0,0:0:0:0:
476,240,9232,2,0,L|464:152,1,70,2|0,0:0|0:0,0:0:0:0:
364,144,9579,2,0,L|373:213,1,70,2|0,0:0|0:0,0:0:0:0:
270,186,9925,6,0,L|261:117,2,70,0|0|0,0:0|0:0|0:0,0:0:0:0:
216,260,10446,2,0,P|184:280|144:284,1,70,0|0,0:0|0:0,0:0:0:0:
76,336,10793,2,0,P|28:288|52:196,1,140,0|0,0:0|0:0,0:0:0:0:
52,108,11313,5,0,0:0:0:0:
136,140,11486,1,0,0:0:0:0:
136,140,11573,1,0,0:0:0:0:
136,140,11660,2,0,L|212:144,1,70,0|0,0:0|0:0,0:0:0:0:
272,84,12006,1,0,0:0:0:0:
272,84,12093,1,0,0:0:0:0:
272,84,12180,1,0,0:0:0:0:
364,76,12353,2,0,L|433:72,1,70,0|0,0:0|0:0,0:0:0:0:
396,176,12700,6,0,P|364:232|384:340,1,154.000004699707,4|8,0:0|0:0,0:0:0:0:
456,384,13220,2,0,P|372:352|280:376,1,154.000004699707,0|0,0:0|0:0,0:0:0:0:
228,316,13741,1,8,0:0:0:0:
228,316,13914,6,0,L|72:340,1,154.000004699707,0|0,0:0|0:0,0:0:0:0:
8,276,14434,2,0,P|-4:224|12:192,1,77.0000023498536,8|0,0:0|0:0,0:0:0:0:
120,168,14781,2,0,L|104:80,1,77.0000023498536,8|0,0:0|0:0,0:0:0:0:
164,20,15128,2,0,L|208:32,3,38.5000011749268,8|0|0|0,0:0|0:0|0:0|0:0,0:0:0:0:
224,40,15475,6,0,B|332:20|332:20|342:52|356:76,1,154.000004699707,0|8,0:0|0:0,0:0:0:0:
432,100,15995,1,0,0:0:0:0:
432,100,16168,2,0,P|437:60|452:20,2,77.0000023498536,0|0|8,0:0|0:0|0:0,0:0:0:0:
352,184,16688,6,0,B|276:164|276:216|176:188,1,154.000004699707,0|0,0:0|0:0,0:0:0:0:
112,136,17209,2,0,P|96:188|104:228,1,77.0000023498536,8|0,0:0|0:0,0:0:0:0:
216,288,17556,2,0,P|216:249|202:214,1,77.0000023498536,8|0,0:0|0:0,0:0:0:0:
232,108,17902,2,0,L|244:52,3,38.5000011749268,8|0|0|0,0:0|0:0|0:0|0:0,0:0:0:0:
224,40,18249,6,0,P|316:60|376:24,1,154.000004699707,4|8,0:0|0:0,0:0:0:0:
480,28,18769,2,0,P|464:97|460:204,1,154.000004699707,0|0,0:0|0:0,0:0:0:0:
500,264,19290,1,8,0:0:0:0:
500,264,19463,6,0,P|427:279|328:284,1,154.000004699707,0|0,0:0|0:0,0:0:0:0:
268,332,19983,2,0,P|252:300|252:240,1,77.0000023498536,8|0,0:0|0:0,0:0:0:0:
172,160,20330,2,0,P|168:198|152:232,1,77.0000023498536,8|0,0:0|0:0,0:0:0:0:
112,320,20677,2,0,L|60:308,3,38.5000011749268,8|0|0|0,0:0|0:0|0:0|0:0,0:0:0:0:
48,304,21024,6,0,L|28:132,1,154.000004699707,4|8,0:0|0:0,0:0:0:0:
20,60,21544,1,0,0:0:0:0:
20,60,21717,2,0,P|68:75|100:76,1,77.0000023498536,0|0,0:0|0:0,0:0:0:0:
176,120,22064,1,8,0:0:0:0:
268,56,22238,6,0,P|340:12|428:24,1,154.000004699707,4|8,0:0|0:3,0:0:0:0:
476,80,22758,2,0,P|466:118|460:176,1,77.0000023498536,8|0,0:0|0:0,0:0:0:0:
376,192,23105,2,0,P|385:241|396:280,1,77.0000023498536,8|8,0:3|0:3,0:0:0:0:
460,332,23451,2,0,L|504:320,2,38.5000011749268,8|8|8,0:0|0:0|0:0,0:0:0:0:
340,364,23798,6,0,P|311:362|268:340,1,70,4|0,0:0|0:0,0:0:0:0:
188,316,24145,2,0,P|152:332|96:336,1,70,8|0,0:0|0:0,0:0:0:0:
44,292,24492,2,0,P|37:248|28:208,2,70,0|0|8,0:0|0:0|0:0,0:0:0:0:
128,240,25012,6,0,P|135:178|136:88,1,140,0|0,0:0|0:0,0:0:0:0:
212,32,25532,2,0,P|216:72|228:116,1,70,8|0,0:0|0:0,0:0:0:0:
312,120,25879,2,0,P|343:98|396:96,2,70,0|0|8,0:0|0:0|0:0,0:0:0:0:
248,200,26399,1,0,0:0:0:0:
248,200,26573,6,0,L|164:184,1,70,0|0,0:0|0:0,0:0:0:0:
88,184,26920,2,0,P|72:229|80:276,1,70,8|0,0:0|0:0,0:0:0:0:
96,340,27267,2,0,L|27:353,2,70,0|0|8,0:0|0:0|0:0,0:0:0:0:
208,368,27787,6,0,P|252:320|336:328,1,140,0|0,0:0|0:0,0:0:0:0:
444,328,28307,2,0,P|375:329|329:280,1,140,8|0,0:0|0:0,0:0:0:0:
268,212,28827,1,0,0:0:0:0:
268,212,29001,2,0,L|280:136,1,70,8|0,0:0|0:0,0:0:0:0:
292,40,29347,6,0,P|255:51|204:60,1,70,0|0,0:0|0:0,0:0:0:0:
160,124,29694,2,0,P|123:112|72:104,1,70,8|0,0:0|0:0,0:0:0:0:
8,140,30041,2,0,P|-4:114|-4:68,2,70,0|0|8,0:0|0:0|0:0,0:0:0:0:
84,232,30561,6,0,P|143:222|240:216,1,140,0|0,0:0|0:0,0:0:0:0:
278,142,31082,2,0,P|310:150|354:154,1,70,8|0,0:0|0:0,0:0:0:0:
416,96,31428,2,0,P|416:55|404:16,2,70,0|0|8,0:0|0:0|0:0,0:0:0:0:
436,184,31949,1,0,0:0:0:0:
436,184,32122,6,0,P|424:252|428:332,1,140,4|8,0:0|0:0,0:0:0:0:
348,368,32642,2,0,P|308:312|220:324,1,140,0|0,0:0|0:0,0:0:0:0:
152,296,33162,2,0,P|117:312|72:320,1,70,8|0,0:0|0:0,0:0:0:0:
16,260,33509,5,8,0:3:0:0:
16,260,33683,1,8,0:3:0:0:
68,184,33856,2,0,L|76:96,1,70,8|0,0:0|0:0,0:0:0:0:
172,48,34203,2,0,L|178:117,1,70,0|8,0:0|0:0,0:0:0:0:
264,152,34550,2,0,L|320:164,3,35,8|8|8|8,0:0|0:0|0:0|0:0,0:0:0:0:
328,168,34897,6,0,B|420:148|420:148|436:171|452:212,1,140,4|8,0:0|0:0,0:0:0:0:
488,268,35417,1,0,0:0:0:0:
488,268,35590,2,0,P|464:296|420:300,1,70,0|0,0:0|0:0,0:0:0:0:
364,364,35937,1,8,0:0:0:0:
264,308,36110,6,0,P|203:295|100:288,1,140,0|0,0:0|0:0,0:0:0:0:
44,332,36631,2,0,P|48:305|48:252,1,70,8|0,0:0|0:0,0:0:0:0:
8,180,36978,2,0,P|3:153|4:100,1,70,8|0,0:0|0:0,0:0:0:0:
56,40,37324,1,8,0:0:0:0:
56,40,37498,1,0,0:0:0:0:
128,136,37671,6,0,P|172:172|268:156,1,140,0|8,0:0|0:0,0:0:0:0:
296,88,38191,2,0,P|351:48|419:56,1,140,0|0,0:0|0:0,0:0:0:0:
488,116,38712,1,8,0:0:0:0:
488,116,38885,6,0,P|478:193|476:260,1,140,0|0,0:0|0:0,0:0:0:0:
388,360,39405,2,0,P|384:324|368:284,1,70,12|0,0:0|0:0,0:0:0:0:
292,252,39752,2,0,L|236:264,3,35,8|8|8|8,0:0|0:0|0:0|0:0,0:0:0:0:
232,268,40099,2,0,L|176:256,3,35,8|8|8|8,0:0|0:0|0:0|0:0,0:0:0:0:
168,252,40446,5,8,0:0:0:0:
148,164,40619,1,8,0:0:0:0:
128,76,40793,1,8,0:0:0:0:
128,76,41139,2,0,P|166:92|212:96,1,70,8|0,0:0|0:0,0:0:0:0:
276,52,41486,1,0,0:0:0:0:
276,52,41660,6,0,P|336:20|428:36,1,140,4|0,0:0|0:0,0:0:0:0:
496,16,42180,2,0,P|486:50|480:100,1,70,8|0,0:0|0:0,0:0:0:0:
396,116,42527,2,0,P|405:150|412:200,1,70,8|0,0:0|0:0,0:0:0:0:
496,220,42873,2,0,L|488:308,1,70,8|0,0:0|0:0,0:0:0:0:
444,368,43220,5,8,0:0:0:0:
352,352,43394,1,8,0:0:0:0:
264,340,43567,1,8,0:0:0:0:
264,340,43914,2,0,P|263:303|277:252,1,70,8|0,0:0|0:0,0:0:0:0:
345,219,44261,1,0,0:0:0:0:
203,219,44434,6,0,P|131:251|55:235,1,140,12|0,0:0|0:0,0:0:0:0:
23,166,44954,2,0,L|11:78,1,70,8|0,0:0|0:0,0:0:0:0:
108,36,45301,2,0,L|117:105,1,70,8|0,0:0|0:0,0:0:0:0:
204,132,45648,2,0,L|256:120,3,35,8|8|8|8,0:0|0:0|0:0|0:0,0:0:0:0:
252,100,45995,6,0,B|320:132|320:76|412:112,1,140,4|8,0:0|0:0,0:0:0:0:
464,156,46515,1,0,0:0:0:0:
464,156,46688,2,0,P|474:187|476:240,1,70,0|0,0:0|0:0,0:0:0:0:
504,312,47035,1,8,0:0:0:0:
424,376,47209,6,0,P|356:364|336:276,1,140,0|0,0:0|0:0,0:0:0:0:
380,208,47729,2,0,L|228:232,1,140,8|0,0:0|0:0,0:0:0:0:
180,300,48249,1,0,0:0:0:0:
180,300,48423,2,0,P|142:299|92:272,1,70,8|8,0:0|0:0,0:0:0:0:
88,272,48683,1,8,0:0:0:0:
88,272,48769,6,0,P|80:200|68:120,1,140,4|8,0:0|0:0,0:0:0:0:
72,40,49290,1,0,0:0:0:0:
72,40,49463,2,0,P|112:56|152:56,1,70,0|0,0:0|0:0,0:0:0:0:
264,44,49810,1,8,0:0:0:0:
264,44,49983,6,0,P|216:88|240:184,1,140,0|0,0:0|0:0,0:0:0:0:
312,224,50504,2,0,P|324:188|328:136,1,70,8|0,0:0|0:0,0:0:0:0:
412,64,50850,2,0,P|416:98|428:131,1,70,8|0,0:0|0:0,0:0:0:0:
500,200,51197,2,0,L|484:276,1,70,8|0,0:0|0:0,0:0:0:0:
492,292,51457,1,0,0:0:0:0:
492,292,51544,6,0,P|413:303|344:336,1,140,2|0,0:2|0:0,0:0:0:0:
280,372,52064,2,0,P|215:345|146:336,1,140,2|0,0:2|0:0,0:0:0:0:
60,368,52584,2,0,P|46:338|48:280,1,70,2|0,0:2|0:0,0:0:0:0:
96,224,52931,5,8,0:0:0:0:
188,212,53105,1,8,0:0:0:0:
276,196,53278,1,8,0:0:0:0:
364,184,53451,1,8,0:0:0:0:
358,326,54145,1,8,0:0:0:0:
358,326,54232,1,8,0:0:0:0:
358,326,54319,6,0,P|288:315|190:294,2,154.000004699707,4|8|0,0:0|0:0|0:0,0:0:0:0:
452,344,55186,2,0,P|444:316|436:256,1,77.0000023498536,0|8,0:0|0:0,0:0:0:0:
464,144,55532,6,0,P|420:188|308:180,1,154.000004699707,0|0,0:0|0:0,0:0:0:0:
280,116,56053,2,0,L|172:136,1,77.0000023498536,8|0,0:0|0:0,0:0:0:0:
120,92,56399,2,0,P|80:128|76:164,1,77.0000023498536,0|0,0:0|0:0,0:0:0:0:
40,236,56746,1,8,0:0:0:0:
108,296,56920,1,0,0:0:0:0:
108,296,57006,1,0,0:0:0:0:
108,296,57093,6,0,P|178:304|268:312,1,154.000004699707,0|8,0:0|0:0,0:0:0:0:
344,348,57613,2,0,B|380:312|380:312|360:192,1,154.000004699707,0|0,0:0|0:0,0:0:0:0:
404,124,58134,1,8,0:0:0:0:
320,88,58307,6,0,P|238:107|152:124,1,154.000004699707,0|0,0:0|0:0,0:0:0:0:
102,56,58827,1,8,0:0:0:0:
31,116,59001,1,0,0:0:0:0:
31,116,59174,2,0,P|20:162|30:211,1,77.0000023498536,0|0,0:0|0:0,0:0:0:0:
58,276,59521,1,8,0:0:0:0:
149,241,59694,1,0,0:0:0:0:
149,241,59781,1,0,0:0:0:0:
149,241,59868,6,0,P|239:242|294:291,1,154.000004699707,4|8,0:0|0:0,0:0:0:0:
384,310,60388,1,0,0:0:0:0:
384,310,60561,2,0,P|378:275|373:224,1,77.0000023498536,0|0,0:0|0:0,0:0:0:0:
421,115,60908,1,8,0:0:0:0:
421,115,61082,6,0,P|358:158|283:153,1,154.000004699707,0|0,0:0|0:0,0:0:0:0:
251,66,61602,1,8,0:0:0:0:
251,66,61775,1,0,0:0:0:0:
159,80,61949,2,0,P|144:135|153:181,1,77.0000023498536,0|0,0:0|0:0,0:0:0:0:
67,203,62295,2,0,P|82:258|73:304,1,77.0000023498536,8|0,0:0|0:0,0:0:0:0:
0,384,62642,6,0,P|32:324|129:325,1,154.000004699707,4|8,0:0|0:0,0:0:0:0:
202,294,63162,2,0,P|216:329|219:375,1,77.0000023498536,0|0,0:0|0:0,0:0:0:0:
137,230,63509,2,0,L|146:145,1,77.0000023498536,0|8,0:0|0:0,0:0:0:0:
251,67,63856,6,0,B|292:34|351:72|351:72|324:138,1,154.000004699707,4|0,0:0|0:0,0:0:0:0:
348,220,64376,2,0,L|254:207,1,77.0000023498536,12|8,0:0|0:0,0:0:0:0:
125,304,64723,2,0,L|201:293,1,77.0000023498536,8|8,0:0|0:0,0:0:0:0:
297,352,65070,2,0,L|335:357,3,38.5000011749268,8|8|8|8,0:0|0:0|0:0|0:0,0:0:0:0:
367,363,65417,6,0,P|424:314|497:339,2,154.000004699707,4|8|0,0:0|0:0|0:0,0:0:0:0:
308,269,66284,2,0,P|295:226|294:184,1,77.0000023498536,0|8,0:0|0:0,0:0:0:0:
360,129,66631,6,0,P|274:156|175:163,1,154.000004699707,0|0,0:0|0:0,0:0:0:0:
149,94,67151,2,0,P|99:75|67:84,1,77.0000023498536,8|0,0:0|0:0,0:0:0:0:
18,150,67498,2,0,P|26:202|50:226,1,77.0000023498536,0|0,0:0|0:0,0:0:0:0:
119,268,67845,1,8,0:0:0:0:
89,355,68018,1,0,0:0:0:0:
146,260,68191,6,0,P|232:233|331:226,1,154.000004699707,12|0,0:0|0:0,0:0:0:0:
372,280,68712,1,12,0:0:0:0:
209,144,69058,1,12,0:0:0:0:
431,32,69405,6,0,P|405:95|311:107,1,154.000004699707,12|0,0:0|0:0,0:0:0:0:
260,48,69925,2,0,L|170:37,1,77.0000023498536,8|0,0:0|0:0,0:0:0:0:
91,29,70272,2,0,P|61:89|78:123,1,77.0000023498536,0|0,0:0|0:0,0:0:0:0:
31,182,70619,2,0,L|44:235,3,38.5000011749268,8|8|8|8,0:0|0:0|0:0|0:0,0:0:0:0:
30,246,70966,6,0,P|116:250|191:265,1,154.000004699707,4|8,0:0|0:0,0:0:0:0:
257,317,71486,1,0,0:0:0:0:
257,317,71660,2,0,P|295:304|344:299,1,77.0000023498536,0|0,0:0|0:0,0:0:0:0:
414,338,72006,1,8,0:0:0:0:
363,213,72180,6,0,P|341:144|342:58,1,154.000004699707,0|0,0:0|0:0,0:0:0:0:
232,32,72700,2,0,P|242:66|246:122,1,77.0000023498536,8|0,0:0|0:0,0:0:0:0:
193,182,73047,2,0,P|89:165|75:115,1,154.000004699707,0|8,0:0|0:0,0:0:0:0:
13,61,73567,1,0,0:0:0:0:
13,61,73741,6,0,P|23:108|34:229,1,154.000004699707,0|8,0:0|0:0,0:0:0:0:
68,299,74261,2,0,P|38:294|-28:290,1,77.0000023498536,0|0,0:0|0:0,0:0:0:0:
124,379,74608,2,0,P|162:375|200:370,1,77.0000023498536,0|8,0:0|0:0,0:0:0:0:
267,306,74954,6,0,B|344:288|344:344|437:318,1,154.000004699707,0|0,0:0|0:0,0:0:0:0:
471,248,75475,2,0,P|477:208|455:171,1,77.0000023498536,8|0,0:0|0:0,0:0:0:0:
410,99,75821,2,0,L|250:117,1,154.000004699707,8|8,0:0|0:3,0:0:0:0:
174,72,76342,1,8,0:3:0:0:
89,126,76515,6,0,P|77:98|75:54,2,62.9999980773926,4|0|0,0:0|0:0|0:0,0:0:0:0:
144,194,77035,1,0,0:0:0:0:
144,194,77209,2,0,P|95:172|9:199,1,125.999996154785,8|0,0:0|0:0,0:0:0:0:
32,288,77729,6,0,P|89:310|149:296,1,125.999996154785,0|0,0:0|0:0,0:0:0:0:
232,239,78249,2,0,P|241:280|251:319,1,62.9999980773926,0|0,0:0|0:0,0:0:0:0:
341,326,78596,2,0,P|398:303|458:317,1,125.999996154785,8|0,0:0|0:0,0:0:0:0:
487,121,79290,6,0,B|444:169|370:154|370:154|384:88,1,188.999994232178,4|0,0:0|0:0,0:0:0:0:
326,26,79983,2,0,P|271:20|225:92,1,125.999996154785,8|0,0:0|0:0,0:0:0:0:
137,70,80504,6,0,P|147:121|152:208,1,125.999996154785,0|0,0:0|0:0,0:0:0:0:
124,293,81024,2,0,P|155:283|188:281,1,62.9999980773926
289,303,81371,1,8,0:0:0:0:
315,216,81544,1,8,0:0:0:0:
315,216,81717,2,0,P|354:217|396:233,1,62.9999980773926,8|8,0:3|0:3,0:0:0:0:
457,167,82064,6,0,P|465:137|467:79,2,70,4|0|0,0:0|0:0|0:0,0:0:0:0:
393,248,82584,2,0,L|406:328,2,70,0|8|0,0:0|0:0|0:0,0:0:0:0:
346,125,83105,6,0,P|311:120|256:104,2,70,0|4|0,0:0|0:3|0:0,0:0:0:0:
286,220,83625,2,0,P|250:223|210:233,2,70,0|4|0,0:0|0:3|0:0,0:0:0:0:
190,140,84145,6,0,P|178:108|177:60,1,70,8|0,0:0|0:0,0:0:0:0:
87,167,84492,2,0,P|84:201|72:234,1,70,0|0,0:0|0:0,0:0:0:0:
79,332,84839,6,0,P|49:323|-4:316,2,70,4|0|0,0:0|0:0|0:0,0:0:0:0:
166,263,85359,2,0,P|200:257|234:248,2,70,0|8|0,0:0|0:0|0:0,0:0:0:0:
87,167,85879,6,0,P|81:127|70:93,2,70,0|4|0,0:0|0:3|0:0,0:0:0:0:
186,110,86399,2,0,P|191:71|203:36,2,70,0|4|0,0:0|0:3|0:0,0:0:0:0:
271,160,86920,5,8,0:0:0:0:
271,160,87093,1,8,0:0:0:0:
344,95,87267,2,0,L|438:82,1,70,8|8,0:0|0:3,0:0:0:0:
510,71,87613,1,4,0:0:0:0:
256,192,87700,12,0,90041,0:0:0:0:
117,248,90388,6,0,P|139:294|245:293,1,140,12|0,0:0|0:0,0:0:0:0:
280,231,90908,1,8,0:0:0:0:
280,231,91082,2,0,L|266:145,1,70,0|0,0:0|0:0,0:0:0:0:
297,68,91428,1,8,0:0:0:0:
297,68,91602,6,0,B|391:78|391:78|406:131,1,140,0|8,0:0|0:0,0:0:0:0:
491,164,92122,2,0,P|487:205|472:245,1,70,0|0,0:0|0:0,0:0:0:0:
453,327,92469,1,8,0:0:0:0:
358,350,92642,1,8,0:0:0:0:
289,279,92816,2,0,P|262:271|188:257,1,70,8|8,0:0|0:0,0:0:0:0:
91,225,93162,6,0,P|50:261|71:362,2,140,4|8|0,0:0|0:0|0:0,0:0:0:0:
174,172,94030,2,0,P|173:135|158:96,1,70,0|8,0:0|0:0,0:0:0:0:
97,31,94376,6,0,P|165:57|250:61,1,140,0|0,0:0|0:0,0:0:0:0:
324,31,94897,2,0,L|416:23,1,70,8|0,0:0|0:0,0:0:0:0:
475,78,95243,2,0,P|456:124|463:225,1,140,8|8,0:0|0:0,0:0:0:0:
495,304,95764,1,0,0:0:0:0:
407,348,95937,6,0,P|344:355|249:361,2,140,0|8|0,0:0|0:0|0:0,0:0:0:0:
368,257,96804,2,0,P|337:255|284:243,1,70,0|8,0:0|0:0,0:0:0:0:
217,193,97151,6,0,P|166:206|146:303,1,140,0|0,0:0|0:0,0:0:0:0:
57,338,97671,2,0,P|53:307|42:258,1,70,8|0,0:0|0:0,0:0:0:0:
13,175,98018,2,0,P|16:144|28:95,1,70,8|0,0:0|0:0,0:0:0:0:
97,31,98365,2,0,L|148:52,3,35,8|0|0|0,0:0|0:0|0:0|0:0,0:0:0:0:
160,58,98712,6,0,B|260:42|260:42|270:3,2,140,4|8|0,0:0|0:0|0:0,0:0:0:0:
126,150,99579,2,0,P|160:168|201:168,1,70,0|8,0:0|0:0,0:0:0:0:
322,118,99925,6,0,P|290:175|308:264,1,140,0|0,0:0|0:0,0:0:0:0:
272,342,100446,2,0,P|311:354|350:354,1,70,8|0,0:0|0:0,0:0:0:0:
436,373,100793,2,0,P|461:353|486:311,1,70,8|0,0:0|0:0,0:0:0:0:
458,227,101139,2,0,L|443:176,3,35,8|0|0|0,0:0|0:0|0:0|0:0,0:0:0:0:
439,154,101486,6,0,P|355:151|291:130,1,140,4|8,0:0|0:0,0:0:0:0:
222,77,102006,1,0,0:0:0:0:
222,77,102180,2,0,P|176:89|146:109,1,70,0|0,0:0|0:0,0:0:0:0:
66,139,102527,2,0,P|68:183|83:217,1,70,8|0,0:0|0:0,0:0:0:0:
67,304,102873,6,0,P|35:288|1:280,2,70,8|8|8,0:3|0:3|0:0,0:0:0:0:
148,359,103394,1,0,0:0:0:0:
148,359,103567,2,0,P|181:359|226:329,1,70,8|8,0:0|0:0,0:0:0:0:
265,184,103914,2,0,P|248:212|251:266,1,70,8|8,0:0|0:0,0:0:0:0:
312,321,104261,5,12,0:0:0:0:
401,306,104434,1,8,0:0:0:0:
490,288,104608,1,8,0:0:0:0:
490,288,104954,2,0,P|503:242|487:205,1,70,8|0,0:0|0:0,0:0:0:0:
411,191,105301,1,0,0:0:0:0:
411,191,105475,6,0,P|362:150|367:69,1,140,4|0,0:0|0:0,0:0:0:0:
312,1,105995,2,0,P|275:21|220:26,1,70,8|0,0:0|0:0,0:0:0:0:
162,51,106342,2,0,P|125:31|70:26,1,70,8|0,0:0|0:0,0:0:0:0:
15,64,106688,2,0,P|24:97|34:160,1,70,8|0,0:0|0:0,0:0:0:0:
108,180,107035,5,8,0:0:0:0:
98,270,107209,1,8,0:0:0:0:
87,360,107382,1,8,0:0:0:0:
87,360,107729,1,8,0:0:0:0:
176,372,107902,2,0,P|214:364|272:345,1,70,0|0,0:0|0:0,0:0:0:0:
311,260,108249,6,0,B|333:187|283:187|311:98,1,140,4|0,0:0|0:0,0:0:0:0:
400,80,108769,2,0,P|405:110|393:159,1,70,8|0,0:0|0:0,0:0:0:0:
212,165,109116,2,0,P|204:130|209:96,1,70,8|0,0:0|0:0,0:0:0:0:
125,60,109463,2,0,L|73:53,3,35,8|8|8|8,0:0|0:0|0:0|0:0,0:0:0:0:
61,52,109810,6,0,P|96:114|90:207,1,140,4|8,0:0|0:0,0:0:0:0:
33,246,110330,1,0,0:0:0:0:
66,331,110504,2,0,P|96:332|143:313,1,70,0|0,0:0|0:0,0:0:0:0:
184,244,110850,1,8,0:0:0:0:
243,338,111024,6,0,P|310:362|408:357,1,140,0|0,0:0|0:0,0:0:0:0:
439,296,111544,1,8,0:0:0:0:
439,296,111717,2,0,B|441:257|422:211|422:211|445:198|457:159,1,140,0|0,0:0|0:0,0:0:0:0:
458,78,112238,2,0,P|425:86|373:97,1,70,8|0,0:0|0:0,0:0:0:0:
289,62,112584,6,0,P|225:19|147:35,1,140,4|8,0:0|0:0,0:0:0:0:
83,142,113105,1,0,0:0:0:0:
83,142,113278,2,0,P|151:145|206:104,1,140,0|8,0:0|0:0,0:0:0:0:
254,193,113798,6,0,P|222:232|221:334,1,140,0|0,0:0|0:0,0:0:0:0:
301,348,114319,2,0,P|354:339|378:312,1,70,8|0,0:0|0:0,0:0:0:0:
411,252,114665,2,0,L|401:173,1,70,0|0,0:0|0:0,0:0:0:0:
368,97,115012,2,0,L|375:56,3,35,8|0|0|0,0:0|0:0|0:0|0:0,0:0:0:0:
380,32,115359,6,0,P|412:29|455:18,2,70,2|0|0,0:2|0:0|0:0,0:0:0:0:
263,31,115879,2,0,L|285:200,1,140,2|0,0:2|0:0,0:0:0:0:
236,249,116399,2,0,P|193:246|167:216,1,70,0|0,0:0|0:0,0:0:0:0:
114,160,116746,5,8,0:0:0:0:
24,180,116920,1,8,0:0:0:0:
4,268,117093,1,8,0:0:0:0:
67,334,117267,1,8,0:0:0:0:
334,281,117787,2,0,L|375:288,3,35,0|2|2|2,0:0|2:2|2:2|2:2,0:0:0:0:
391,291,118134,5,6,2:2:0:0:
120,92,123683,6,0,L|136:212,1,112,2|0,0:0|0:0,0:0:0:0:
76,272,124203,2,0,B|124:208|208:240|208:240|180:268|184:320,1,224,2|0,0:0|0:0,0:0:0:0:
272,304,125070,6,0,P|316:332|388:316,1,112,2|0,0:0|0:0,0:0:0:0:
432,260,125590,2,0,B|412:204|448:128|448:128|420:176|368:180,1,224,2|0,0:0|0:0,0:0:0:0:
288,160,126457,6,0,P|247:120|248:48,1,125.999996154785,2|0,0:0|0:0,0:0:0:0:
156,28,126978,2,0,P|136:68|136:100,1,62.9999980773926,2|0,0:0|0:0,0:0:0:0:
48,124,127324,2,0,P|51:166|64:200,1,62.9999980773926,0|0,0:0|0:0,0:0:0:0:
32,308,127671,6,0,P|88:336|180:324,1,140,4|0,0:0|0:0,0:0:0:0:
224,264,128191,2,0,L|212:116,1,140,12|8,0:0|0:0,0:0:0:0:
272,52,128712,1,0,0:0:0:0:
272,52,128885,2,0,P|306:56|344:80,1,70,8|8,0:0|0:0,0:0:0:0:
380,168,129232,6,0,P|424:172|488:76,2,154.000004699707,12|8|0,0:0|0:0|0:0,0:0:0:0:
304,220,130099,2,0,P|320:256|320:308,1,77.0000023498536,0|8,0:0|0:0,0:0:0:0:
204,356,130446,6,0,B|96:336|96:336|72:272,1,154.000004699707,0|0,0:0|0:0,0:0:0:0:
36,216,130966,2,0,B|144:196|144:196|159:154,1,154.000004699707,8|0,0:0|0:0,0:0:0:0:
192,68,131486,1,0,0:0:0:0:
192,68,131660,2,0,L|100:48,1,77.0000023498536,8|0,0:0|0:0,0:0:0:0:
192,164,132006,6,0,P|248:164|352:108,1,154.000004699707,12|8,0:0|0:0,0:0:0:0:
356,32,132527,1,12,0:0:0:0:
288,276,132873,1,12,0:0:0:0:
500,204,133220,6,0,P|432:168|356:163,1,154.000004699707,12|0,0:0|0:0,0:0:0:0:
274,200,133741,2,0,L|290:288,1,77.0000023498536,8|8,0:0|0:0,0:0:0:0:
232,352,134087,1,8,0:0:0:0:
140,364,134261,1,8,0:0:0:0:
92,288,134434,2,0,L|100:240,3,38.5000011749268,8|8|8|8,0:0|0:0|0:0|0:0,0:0:0:0:
104,216,134781,6,0,P|92:145|84:48,1,154.000004699707,4|8,0:0|0:0,0:0:0:0:
168,20,135301,1,0,0:0:0:0:
168,20,135475,2,0,P|209:22|248:56,1,77.0000023498536,0|0,0:0|0:0,0:0:0:0:
260,132,135821,1,8,0:0:0:0:
360,76,135995,6,0,P|434:66|520:52,1,154.000004699707,0|0,0:0|0:0,0:0:0:0:
484,144,136515,2,0,P|468:188|468:232,1,77.0000023498536,8|0,0:0|0:0,0:0:0:0:
412,312,136862,2,0,P|356:256|260:280,1,154.000004699707,0|8,0:0|0:0,0:0:0:0:
88,296,137556,6,0,P|164:275|191:180,1,154.000004699707,0|8,0:0|0:0,0:0:0:0:
136,140,138076,2,0,L|56:124,1,77.0000023498536,0|0,0:0|0:0,0:0:0:0:
192,60,138423,2,0,L|272:44,1,77.0000023498536,0|8,0:0|0:0,0:0:0:0:
368,13,138769,6,0,B|388:88|332:92|360:177,1,154.000004699707,0|0,0:0|0:0,0:0:0:0:
448,224,139290,2,0,B|464:324|464:324|436:336|400:368,1,154.000004699707,8|0,0:0|0:0,0:0:0:0:
328,340,139810,1,0,0:0:0:0:
328,340,139983,2,0,P|300:333|232:328,1,70,8|0,0:0|0:0,0:0:0:0:
176,280,140330,6,0,P|168:324|168:360,1,62.9999980773926,4|0,0:0|0:0,0:0:0:0:
80,328,140677,2,0,P|82:296|88:265,1,62.9999980773926,0|0,0:0|0:0,0:0:0:0:
140,192,141024,2,0,P|94:178|94:100,1,125.999996154785,8|0,0:0|0:0,0:0:0:0:
128,32,141544,6,0,L|269:45,1,125.999996154785,4|0,0:3|0:0,0:0:0:0:
292,124,142064,2,0,L|431:110,1,125.999996154785,4|8,0:3|0:0,0:0:0:0:
496,156,142584,1,0,0:0:0:0:
496,156,142758,2,0,P|487:194|484:240,1,62.9999980773926,0|0,0:0|0:0,0:0:0:0:
484,320,143105,6,0,B|444:316|412:288|412:288|396:320|364:340,1,125.999996154785,4|0,0:0|0:0,0:0:0:0:
296,336,143625,1,0,0:0:0:0:
296,336,143798,2,0,P|229:348|152:352,1,125.999996154785,8|0,0:0|0:0,0:0:0:0:
100,300,144319,1,4,0:3:0:0:
164,240,144492,6,0,P|180:187|176:92,1,125.999996154785,0|4,0:0|0:3,0:0:0:0:
264,60,145012,1,0,0:0:0:0:
264,60,145186,2,0,P|270:99|280:148,1,70,8|8,0:0|0:0,0:0:0:0:
424,256,145532,2,0,P|430:221|435:187,1,70,8|8,0:3|0:3,0:0:0:0:
439,88,145879,5,8,0:0:0:0:
355,108,146053,1,8,0:0:0:0:
275,128,146226,2,0,L|191:120,1,70,0|0,0:0|0:0,0:0:0:0:
73,296,146920,5,8,0:0:0:0:
157,276,147094,1,8,0:0:0:0:
237,256,147267,2,0,L|305:273,2,70,0|0|0,0:0|0:0|0:0,0:0:0:0:
180,192,147787,5,8,0:0:0:0:
182,108,147960,1,8,0:0:0:0:
258,73,148134,1,8,0:0:0:0:
332,116,148307,2,0,P|345:152|340:196,1,70,8|8,0:0|0:0,0:0:0:0:
304,272,148654,5,8,0:0:0:0:
388,252,148828,1,8,0:0:0:0:
472,232,149001,2,0,L|460:312,1,70,0|0,0:0|0:0,0:0:0:0:
180,192,149694,5,8,0:0:0:0:
96,172,149868,1,8,0:0:0:0:
96,172,150215,5,0,0:0:0:0:
96,172,150561,5,8,0:0:0:0:
28,232,150735,2,0,P|20:276|40:320,1,70,8|8,0:0|0:0,0:0:0:0:
104,348,151082,2,0,L|144:356,3,35,8|8|8|8,0:0|0:0|0:0|0:0,0:0:0:0:
164,364,151428,6,0,P|236:358|332:340,1,154.000004699707,4|8,0:0|0:0,0:0:0:0:
392,284,151949,2,0,P|407:319|412:364,1,77.0000023498536,0|0,0:0|0:0,0:0:0:0:
308,256,152295,2,0,P|312:217|328:182,1,77.0000023498536,0|8,0:0|0:0,0:0:0:0:
396,92,152642,6,0,L|232:116,1,154.000004699707,0|0,0:0|0:0,0:0:0:0:
172,56,153162,2,0,P|124:16|28:56,1,154.000004699707,8|8,0:0|0:0,0:0:0:0:
24,128,153683,1,0,0:0:0:0:
24,128,153856,2,0,P|34:162|44:216,1,77.0000023498536,8|0,0:0|0:0,0:0:0:0:
76,304,154203,6,0,P|33:293|-36:300,2,77.0000023498536,0|0|8,0:0|0:0|0:0,0:0:0:0:
152,224,154723,2,0,B|256:199|256:199|260:128,1,154.000004699707,0|0,0:0|0:0,0:0:0:0:
244,60,155243,1,8,0:0:0:0:
376,28,155417,6,0,P|340:92|356:184,1,154.000004699707,0|0,0:0|0:0,0:0:0:0:
416,236,155937,2,0,P|444:224|500:220,1,77.0000023498536,8|0,0:0|0:0,0:0:0:0:
432,336,156284,2,0,P|393:332|357:319,1,77.0000023498536,8|0,0:0|0:0,0:0:0:0:
264,316,156631,2,0,L|200:332,3,38.5000011749268,8|0|0|0,0:0|0:0|0:0|0:0,0:0:0:0:
216,348,156978,6,0,P|156:312|48:336,1,154.000004699707,4|8,0:0|0:0,0:0:0:0:
20,244,157498,2,0,P|28:208|32:160,1,77.0000023498536,0|0,0:0|0:0,0:0:0:0:
116,68,157845,2,0,P|119:106|127:143,1,77.0000023498536,0|8,0:0|0:0,0:0:0:0:
232,184,158191,6,0,B|312:160|316:232|408:196,1,154.000004699707,0|0,0:0|0:0,0:0:0:0:
472,148,158712,2,0,P|436:184|460:292,1,154.000004699707,8|8,0:0|0:0,0:0:0:0:
412,364,159232,1,0,0:0:0:0:
412,364,159405,2,0,P|390:351|316:344,1,77.0000023498536,8|0,0:0|0:0,0:0:0:0:
256,300,159752,6,0,P|214:314|156:320,2,77.0000023498536,0|0|8,0:0|0:0|0:0,0:0:0:0:
196,220,160272,2,0,P|184:140|184:48,1,154.000004699707,0|0,0:0|0:0,0:0:0:0:
260,12,160793,1,8,0:0:0:0:
260,12,160966,6,0,P|320:8|352:104,1,154.000004699707,0|0,0:0|0:0,0:0:0:0:
380,184,161486,2,0,L|276:168,1,77.0000023498536,8|0,0:0|0:0,0:0:0:0:
156,272,161833,2,0,L|232:260,1,77.0000023498536,8|0,0:0|0:0,0:0:0:0:
301,335,162180,2,0,L|339:340,3,38.5000011749268,8|0|0|0,0:0|0:0|0:0|0:0,0:0:0:0:
368,348,162527,6,0,P|350:287|348:192,1,154.000004699707,4|8,0:0|0:0,0:0:0:0:
400,104,163047,2,0,P|436:102|484:80,1,77.0000023498536,0|0,0:0|0:0,0:0:0:0:
333,28,163394,2,0,P|297:13|259:11,1,77.0000023498536,0|8,0:0|0:0,0:0:0:0:
140,72,163741,6,0,P|152:128|252:148,1,154.000004699707,0|0,0:0|0:0,0:0:0:0:
260,264,164261,2,0,P|204:255|88:248,1,154.000004699707,8|8,0:0|0:0,0:0:0:0:
292,376,164954,2,0,P|330:372|380:360,1,77.0000023498536,8|0,0:0|0:0,0:0:0:0:
388,336,165215,1,0,0:0:0:0:
388,336,165301,6,0,P|372:296|376:232,1,77.0000023498536,0|0,0:0|0:0,0:0:0:0:
444,204,165648,1,8,0:0:0:0:
387,127,165821,2,0,P|313:146|211:155,1,154.000004699707,0|0,0:0|0:0,0:0:0:0:
160,104,166342,1,8,0:0:0:0:
44,172,166515,6,0,P|28:268|84:320,1,154.000004699707,0|0,0:0|0:0,0:0:0:0:
156,280,167035,2,0,L|168:376,1,77.0000023498536,8|0,0:0|0:0,0:0:0:0:
256,276,167382,2,0,L|246:199,1,77.0000023498536,8|0,0:0|0:0,0:0:0:0:
356,244,167729,2,0,L|360:282,3,38.5000011749268,8|0|0|0,0:0|0:0|0:0|0:0,0:0:0:0:
364,312,168076,6,0,B|472:324|472:324|504:280,1,154.000004699707,4|8,0:0|0:0,0:0:0:0:
480,180,168596,2,0,L|384:160,1,77.0000023498536,0|0,0:0|0:0,0:0:0:0:
332,64,168943,2,0,L|236:84,1,77.0000023498536,0|8,0:0|0:0,0:0:0:0:
132,48,169290,6,0,P|96:64|112:172,1,154.000004699707,0|0,0:0|0:0,0:0:0:0:
184,200,169810,2,0,B|280:172|280:172|304:203|328:216,1,154.000004699707,8|8,0:0|0:0,0:0:0:0:
404,244,170330,1,0,0:0:0:0:
404,244,170504,2,0,P|399:294|396:340,1,77.0000023498536,8|0,0:0|0:0,0:0:0:0:
300,360,170850,6,0,P|293:322|280:280,2,77.0000023498536,0|0|8,0:0|0:0|0:0,0:0:0:0:
196,344,171371,2,0,B|88:332|88:332|68:272,1,154.000004699707,0|0,0:0|0:0,0:0:0:0:
16,216,171891,1,8,0:0:0:0:
84,152,172064,6,0,P|96:115|96:64,1,77.0000023498536,0|0,0:0|0:0,0:0:0:0:
184,40,172411,1,0,0:0:0:0:
184,40,172584,2,0,P|196:76|196:128,1,77.0000023498536,8|0,0:0|0:0,0:0:0:0:
272,172,172931,2,0,L|360:156,2,77.0000023498536,0|0|8,0:0|0:0|0:0,0:0:0:0:
216,248,173451,1,8,0:0:0:0:
216,248,173625,5,4,0:0:0:0:
256,192,173712,12,0,178827,0:0:0:0:
