osu file format v14

[General]
AudioFilename: audio.mp3
AudioLeadIn: 600
PreviewTime: 60055
Countdown: 0
SampleSet: Normal
StackLeniency: 0.7
Mode: 1
LetterboxInBreaks: 0
WidescreenStoryboard: 0

[Editor]
DistanceSpacing: 2.5
BeatDivisor: 4
GridSize: 32
TimelineZoom: 1.4

[Metadata]
Title:Last Desire (TV Size)
TitleUnicode:Last Desire (TV Size)
Artist:Kurosaki Maon
ArtistUnicode:黒崎真音
Creator:Kawayi Rika
Version:Oni
Source:Rewrite 2ndシーズン
Tags:anime japanese op opening season2 taiko galgame key 折戸伸治 Orito Shinji
BeatmapID:2344807
BeatmapSetID:1122098

[Difficulty]
HPDrainRate:5
CircleSize:4
OverallDifficulty:5
ApproachRate:6
SliderMultiplier:1.4
SliderTickRate:1

[Events]
//Background and Video events
0,0,"BG.png",0,0
Video,251,"opening.mp4"
//Break Periods
//Storyboard Layer 0 (Background)
//Storyboard Layer 1 (Fail)
//Storyboard Layer 2 (Pass)
//Storyboard Layer 3 (Foreground)
//Storyboard Layer 4 (Overlay)
//Storyboard Sound Samples

[TimingPoints]
761,352.941176470588,4,1,0,70,1,0
16290,-100,4,1,0,55,0,0
26349,-100,4,1,0,45,0,0
27055,-100,4,1,0,55,0,0
27584,-100,4,1,0,65,0,0
38349,-102.040816326531,4,1,0,65,0,0
38525,-103.092783505155,4,1,0,65,0,0
38702,-104.166666666667,4,1,0,65,0,0
38878,-105.263157894737,4,1,0,50,0,0
49819,-104.166666666667,4,1,0,55,0,0
49908,-103.092783505155,4,1,0,55,0,0
49996,-102.040816326531,4,1,0,55,0,0
50172,-100,4,1,0,60,0,0
54937,-99.009900990099,4,1,0,60,0,0
55025,-98.0392156862745,4,1,0,60,0,0
55113,-97.0873786407767,4,1,0,60,0,0
55290,-96.1538461538461,4,1,0,60,0,0
55466,-95.2380952380952,4,1,0,60,0,0
55819,-93.0232558139535,4,1,0,70,0,0
58643,-90.9090909090909,4,1,0,70,0,0
59878,-88.8888888888889,4,1,0,70,0,0
60231,-86.9565217391304,4,1,0,70,0,0
60760,-85.1063829787234,4,1,0,70,0,0
61290,-83.3333333333333,4,1,0,75,0,1
78055,-84.0336134453781,4,1,0,75,0,1
78143,-84.7457627118644,4,1,0,75,0,1
78231,-85.4700854700855,4,1,0,75,0,1
78319,-86.2068965517241,4,1,0,75,0,1
78408,-86.9565217391304,4,1,0,75,0,1
80790,-86.2068965517241,4,1,0,75,0,1
80878,-85.4700854700855,4,1,0,75,0,1
80966,-84.0336134453781,4,1,0,75,0,1
81231,-83.3333333333333,4,1,0,75,0,1
81760,-80,4,1,0,75,0,1
82466,-76.9230769230769,4,1,0,75,0,1
82996,-90.9090909090909,4,1,0,75,0,1
84055,-86.9565217391304,4,1,0,80,0,1
84231,-85.1063829787234,4,1,0,80,0,1
84584,-83.3333333333333,4,1,0,80,0,1
84760,-81.6326530612245,4,1,0,80,0,1
85113,-80,4,1,0,80,0,1
85290,-78.4313725490196,4,1,0,70,0,0
85466,-78.4313725490196,4,1,0,30,0,0

[HitObjects]
224,160,584,5,0,0:0:0:0:
224,160,672,1,0,0:0:0:0:
288,160,761,1,2,0:0:0:0:
224,160,937,1,4,0:0:0:0:
288,160,1290,1,6,0:0:0:0:
224,160,1643,1,4,0:0:0:0:
288,160,1996,1,6,0:0:0:0:
288,160,2349,1,2,0:0:0:0:
224,160,2525,1,0,0:0:0:0:
224,160,2702,1,0,0:0:0:0:
224,160,3055,1,0,0:0:0:0:
224,160,3231,1,0,0:0:0:0:
288,160,3584,1,2,0:0:0:0:
288,160,3672,1,2,0:0:0:0:
224,160,3760,1,0,0:0:0:0:
224,160,3849,1,0,0:0:0:0:
288,160,3937,1,2,0:0:0:0:
288,160,4025,1,2,0:0:0:0:
224,160,4113,1,0,0:0:0:0:
288,160,4290,1,2,0:0:0:0:
224,160,4378,1,0,0:0:0:0:
224,160,4466,1,0,0:0:0:0:
288,160,4643,1,2,0:0:0:0:
224,160,4819,1,4,0:0:0:0:
224,160,5172,1,0,0:0:0:0:
224,160,5260,1,0,0:0:0:0:
288,160,5349,1,2,0:0:0:0:
224,160,5525,1,0,0:0:0:0:
224,160,5702,1,0,0:0:0:0:
224,160,5790,1,0,0:0:0:0:
224,160,5878,1,0,0:0:0:0:
288,160,6055,1,2,0:0:0:0:
224,160,6231,1,4,0:0:0:0:
224,160,6584,1,0,0:0:0:0:
288,160,6760,1,2,0:0:0:0:
224,160,6937,1,0,0:0:0:0:
288,160,7113,1,2,0:0:0:0:
224,160,7290,1,0,0:0:0:0:
224,160,7378,1,0,0:0:0:0:
288,160,7466,1,2,0:0:0:0:
224,160,7555,1,0,0:0:0:0:
288,160,7643,1,2,0:0:0:0:
224,160,7819,1,4,0:0:0:0:
288,160,8172,1,2,0:0:0:0:
288,160,8437,1,2,0:0:0:0:
224,160,8525,1,0,0:0:0:0:
224,160,8702,1,0,0:0:0:0:
288,160,8878,1,2,0:0:0:0:
224,160,9055,1,4,0:0:0:0:
224,160,9408,1,0,0:0:0:0:
288,160,9584,1,2,0:0:0:0:
224,160,9760,1,0,0:0:0:0:
288,160,9849,1,2,0:0:0:0:
224,160,9937,1,0,0:0:0:0:
224,160,10113,1,0,0:0:0:0:
288,160,10290,1,2,0:0:0:0:
288,160,10378,1,2,0:0:0:0:
288,160,10466,1,2,0:0:0:0:
288,160,10555,1,2,0:0:0:0:
224,160,10643,1,0,0:0:0:0:
288,160,10996,1,2,0:0:0:0:
288,160,11260,1,2,0:0:0:0:
224,160,11349,1,0,0:0:0:0:
224,160,11525,1,0,0:0:0:0:
288,160,11702,1,2,0:0:0:0:
224,160,11878,1,4,0:0:0:0:
224,160,12231,1,0,0:0:0:0:
288,160,12408,1,2,0:0:0:0:
224,160,12584,1,0,0:0:0:0:
288,160,12672,1,2,0:0:0:0:
224,160,12760,1,0,0:0:0:0:
224,160,12937,1,0,0:0:0:0:
288,160,13113,1,2,0:0:0:0:
288,160,13202,1,2,0:0:0:0:
288,160,13290,1,2,0:0:0:0:
224,160,13466,1,4,0:0:0:0:
288,160,13819,1,2,0:0:0:0:
224,160,13996,1,0,0:0:0:0:
224,160,14172,1,0,0:0:0:0:
224,160,14349,1,0,0:0:0:0:
224,160,14437,1,0,0:0:0:0:
288,160,14525,1,2,0:0:0:0:
224,160,14702,1,4,0:0:0:0:
224,160,15055,1,0,0:0:0:0:
288,160,15231,1,2,0:0:0:0:
288,160,15319,1,2,0:0:0:0:
224,160,15408,1,0,0:0:0:0:
224,160,15496,1,0,0:0:0:0:
288,160,15584,1,2,0:0:0:0:
224,160,15760,1,0,0:0:0:0:
224,160,15849,1,0,0:0:0:0:
224,160,15937,1,0,0:0:0:0:
224,160,16113,1,0,0:0:0:0:
224,160,16290,1,4,0:0:0:0:
224,160,16643,1,0,0:0:0:0:
288,160,16819,1,2,0:0:0:0:
224,160,16996,1,0,0:0:0:0:
224,160,17084,1,0,0:0:0:0:
288,160,17172,1,2,0:0:0:0:
224,160,17349,1,0,0:0:0:0:
288,160,17525,1,2,0:0:0:0:
224,160,17702,1,0,0:0:0:0:
224,160,18055,1,0,0:0:0:0:
288,160,18231,1,2,0:0:0:0:
288,160,18584,1,2,0:0:0:0:
224,160,18760,1,0,0:0:0:0:
288,160,18937,1,2,0:0:0:0:
224,160,19113,1,0,0:0:0:0:
224,160,19466,1,0,0:0:0:0:
288,160,19643,1,2,0:0:0:0:
224,160,19819,1,0,0:0:0:0:
288,160,19996,1,2,0:0:0:0:
224,160,20349,1,0,0:0:0:0:
288,160,20525,1,2,0:0:0:0:
288,160,20702,1,2,0:0:0:0:
288,160,20790,1,2,0:0:0:0:
224,160,20878,1,0,0:0:0:0:
288,160,21055,1,2,0:0:0:0:
224,160,21408,1,0,0:0:0:0:
288,160,21584,1,2,0:0:0:0:
288,160,21672,1,2,0:0:0:0:
288,160,21760,1,2,0:0:0:0:
224,160,21937,1,0,0:0:0:0:
288,160,22113,1,2,0:0:0:0:
224,160,22290,1,0,0:0:0:0:
224,160,22378,1,0,0:0:0:0:
288,160,22466,1,2,0:0:0:0:
224,160,22643,1,0,0:0:0:0:
224,160,22819,1,0,0:0:0:0:
288,160,22996,1,2,0:0:0:0:
224,160,23172,1,0,0:0:0:0:
224,160,23349,1,0,0:0:0:0:
224,160,23702,1,0,0:0:0:0:
288,160,23878,1,2,0:0:0:0:
224,160,24055,1,0,0:0:0:0:
288,160,24319,1,2,0:0:0:0:
224,160,24408,1,0,0:0:0:0:
288,160,24584,1,2,0:0:0:0:
224,160,24760,1,0,0:0:0:0:
288,160,25113,1,2,0:0:0:0:
224,160,25290,1,0,0:0:0:0:
224,160,25466,1,0,0:0:0:0:
288,160,25643,1,2,0:0:0:0:
288,160,25819,1,2,0:0:0:0:
224,160,25996,1,0,0:0:0:0:
224,160,26349,1,0,0:0:0:0:
224,160,26702,1,0,0:0:0:0:
224,160,27055,1,0,0:0:0:0:
224,160,27143,1,0,0:0:0:0:
288,160,27231,1,2,0:0:0:0:
224,160,27408,1,0,0:0:0:0:
224,160,27584,1,4,0:0:0:0:
224,160,27760,1,0,0:0:0:0:
224,160,27849,1,0,0:0:0:0:
288,160,27937,1,2,0:0:0:0:
288,160,28113,1,2,0:0:0:0:
224,160,28290,1,0,0:0:0:0:
224,160,28466,1,0,0:0:0:0:
288,160,28643,1,2,0:0:0:0:
224,160,28819,1,0,0:0:0:0:
224,160,28996,1,0,0:0:0:0:
224,160,29172,1,0,0:0:0:0:
224,160,29260,1,0,0:0:0:0:
288,160,29349,1,2,0:0:0:0:
288,160,29702,1,2,0:0:0:0:
224,160,29878,1,0,0:0:0:0:
288,160,30055,1,2,0:0:0:0:
224,160,30231,1,0,0:0:0:0:
224,160,30408,1,0,0:0:0:0:
224,160,30584,1,0,0:0:0:0:
224,160,30672,1,0,0:0:0:0:
288,160,30760,1,2,0:0:0:0:
224,160,30937,1,0,0:0:0:0:
288,160,31113,1,2,0:0:0:0:
288,160,31290,1,2,0:0:0:0:
288,160,31466,1,2,0:0:0:0:
224,160,31643,1,0,0:0:0:0:
224,160,31819,1,0,0:0:0:0:
224,160,31908,1,0,0:0:0:0:
224,160,31996,1,0,0:0:0:0:
288,160,32172,1,2,0:0:0:0:
224,160,32349,1,0,0:0:0:0:
288,160,32525,1,2,0:0:0:0:
288,160,32613,1,2,0:0:0:0:
224,160,32702,1,0,0:0:0:0:
224,160,32790,1,0,0:0:0:0:
288,160,32878,1,2,0:0:0:0:
224,160,33231,1,4,0:0:0:0:
224,160,33408,1,0,0:0:0:0:
224,160,33496,1,0,0:0:0:0:
288,160,33584,1,2,0:0:0:0:
224,160,33760,1,0,0:0:0:0:
288,160,33937,1,2,0:0:0:0:
224,160,34113,1,0,0:0:0:0:
288,160,34290,1,2,0:0:0:0:
288,160,34466,1,2,0:0:0:0:
288,160,34643,1,2,0:0:0:0:
224,160,34819,1,0,0:0:0:0:
224,160,34908,1,0,0:0:0:0:
288,160,34996,1,2,0:0:0:0:
224,160,35172,1,0,0:0:0:0:
288,160,35349,1,2,0:0:0:0:
288,160,35437,1,2,0:0:0:0:
224,160,35525,1,0,0:0:0:0:
288,160,35702,1,2,0:0:0:0:
224,160,36055,1,0,0:0:0:0:
224,160,36231,1,0,0:0:0:0:
224,160,36319,1,0,0:0:0:0:
288,160,36408,1,2,0:0:0:0:
224,160,36584,1,0,0:0:0:0:
288,160,36760,1,2,0:0:0:0:
224,160,36937,1,0,0:0:0:0:
288,160,37113,1,2,0:0:0:0:
224,160,37290,1,0,0:0:0:0:
288,160,37466,1,2,0:0:0:0:
224,160,37643,1,0,0:0:0:0:
224,160,37731,1,0,0:0:0:0:
288,160,37819,1,2,0:0:0:0:
224,160,37996,1,4,0:0:0:0:
224,160,38349,1,4,0:0:0:0:
288,160,38525,1,2,0:0:0:0:
224,160,38702,1,0,0:0:0:0:
128,256,38878,2,0,L|414:256,1,265.999992897034
288,160,39937,1,2,0:0:0:0:
288,160,40290,1,2,0:0:0:0:
224,160,40643,1,0,0:0:0:0:
224,160,40996,1,0,0:0:0:0:
224,160,41349,1,0,0:0:0:0:
288,160,41702,1,2,0:0:0:0:
224,160,42408,1,0,0:0:0:0:
288,160,42760,1,2,0:0:0:0:
288,160,43113,1,2,0:0:0:0:
224,160,43466,1,0,0:0:0:0:
224,160,43643,1,0,0:0:0:0:
288,160,43819,1,2,0:0:0:0:
224,160,44172,1,0,0:0:0:0:
224,160,44525,1,0,0:0:0:0:
288,160,45584,1,2,0:0:0:0:
224,160,45937,1,0,0:0:0:0:
288,160,46290,1,2,0:0:0:0:
224,160,46643,1,0,0:0:0:0:
288,160,46996,1,2,0:0:0:0:
224,160,47349,1,0,0:0:0:0:
288,160,48055,1,2,0:0:0:0:
224,160,48408,1,0,0:0:0:0:
224,160,48760,1,0,0:0:0:0:
288,160,48937,1,2,0:0:0:0:
224,160,49113,1,0,0:0:0:0:
288,160,49290,1,2,0:0:0:0:
224,160,49466,1,0,0:0:0:0:
288,160,49643,1,2,0:0:0:0:
288,160,49819,1,2,0:0:0:0:
288,160,49908,1,2,0:0:0:0:
224,160,49996,1,0,0:0:0:0:
288,160,50172,1,6,0:0:0:0:
224,160,50525,1,0,0:0:0:0:
224,160,50878,1,0,0:0:0:0:
224,160,51231,1,0,0:0:0:0:
288,160,51408,1,2,0:0:0:0:
224,160,51584,1,0,0:0:0:0:
224,160,51937,1,0,0:0:0:0:
224,160,52290,1,0,0:0:0:0:
288,160,52643,1,2,0:0:0:0:
288,160,52996,1,2,0:0:0:0:
224,160,53349,1,0,0:0:0:0:
288,160,53702,1,2,0:0:0:0:
224,160,54055,1,0,0:0:0:0:
224,160,54408,1,0,0:0:0:0:
224,160,54760,1,0,0:0:0:0:
288,160,54937,1,2,0:0:0:0:
224,160,55025,1,0,0:0:0:0:
224,160,55113,1,0,0:0:0:0:
224,160,55290,1,0,0:0:0:0:
288,160,55466,1,2,0:0:0:0:
224,160,55819,1,4,0:0:0:0:
224,160,56172,1,0,0:0:0:0:
288,160,56349,1,2,0:0:0:0:
224,160,56525,1,0,0:0:0:0:
288,160,56702,1,2,0:0:0:0:
224,160,56878,1,0,0:0:0:0:
288,160,57055,1,2,0:0:0:0:
224,160,57231,1,0,0:0:0:0:
224,160,57319,1,0,0:0:0:0:
288,160,57408,1,2,0:0:0:0:
224,160,57584,1,0,0:0:0:0:
288,160,57760,1,2,0:0:0:0:
224,160,57937,1,0,0:0:0:0:
224,160,58113,1,0,0:0:0:0:
288,160,58290,1,2,0:0:0:0:
224,160,58378,1,0,0:0:0:0:
288,160,58466,1,2,0:0:0:0:
288,160,58643,1,6,0:0:0:0:
224,160,58819,1,0,0:0:0:0:
224,160,58996,1,0,0:0:0:0:
288,160,59172,1,2,0:0:0:0:
288,160,59349,1,2,0:0:0:0:
224,160,59525,1,0,0:0:0:0:
288,160,59702,1,2,0:0:0:0:
224,160,59878,1,4,0:0:0:0:
224,160,60231,1,4,0:0:0:0:
224,160,60408,1,4,0:0:0:0:
224,160,60760,1,0,0:0:0:0:
288,160,60937,1,2,0:0:0:0:
224,160,61290,1,4,0:0:0:0:
224,160,61466,1,0,0:0:0:0:
224,160,61643,1,0,0:0:0:0:
288,160,61819,1,2,0:0:0:0:
224,160,61996,1,0,0:0:0:0:
224,160,62172,1,0,0:0:0:0:
224,160,62260,1,0,0:0:0:0:
224,160,62349,1,0,0:0:0:0:
288,160,62525,1,2,0:0:0:0:
288,160,62702,1,2,0:0:0:0:
224,160,63055,1,0,0:0:0:0:
288,160,63231,1,2,0:0:0:0:
224,160,63408,1,0,0:0:0:0:
224,160,63496,1,0,0:0:0:0:
224,160,63584,1,0,0:0:0:0:
224,160,63760,1,0,0:0:0:0:
288,160,63937,1,2,0:0:0:0:
224,160,64113,1,0,0:0:0:0:
224,160,64202,1,0,0:0:0:0:
288,160,64290,1,2,0:0:0:0:
224,160,64466,1,0,0:0:0:0:
288,160,64643,1,2,0:0:0:0:
224,160,64819,1,0,0:0:0:0:
288,160,64996,1,2,0:0:0:0:
288,160,65084,1,2,0:0:0:0:
224,160,65172,1,0,0:0:0:0:
288,160,65349,1,2,0:0:0:0:
224,160,65525,1,0,0:0:0:0:
224,160,65878,1,0,0:0:0:0:
288,160,66055,1,2,0:0:0:0:
288,160,66231,1,6,0:0:0:0:
288,160,66584,1,6,0:0:0:0:
224,160,66760,1,0,0:0:0:0:
224,160,66849,1,0,0:0:0:0:
288,160,66937,1,2,0:0:0:0:
224,160,67113,1,4,0:0:0:0:
288,160,67466,1,2,0:0:0:0:
224,160,67643,1,0,0:0:0:0:
288,160,67819,1,2,0:0:0:0:
288,160,67908,1,2,0:0:0:0:
224,160,67996,1,0,0:0:0:0:
288,160,68172,1,2,0:0:0:0:
224,160,68349,1,0,0:0:0:0:
288,160,68525,1,2,0:0:0:0:
224,160,68702,1,0,0:0:0:0:
288,160,68878,1,2,0:0:0:0:
224,160,68966,1,0,0:0:0:0:
224,160,69055,1,0,0:0:0:0:
288,160,69231,1,2,0:0:0:0:
288,160,69408,1,2,0:0:0:0:
224,160,69760,1,0,0:0:0:0:
288,160,69937,1,6,0:0:0:0:
224,160,70290,1,0,0:0:0:0:
288,160,70466,1,6,0:0:0:0:
224,160,70819,1,0,0:0:0:0:
288,160,70996,1,2,0:0:0:0:
224,160,71172,1,0,0:0:0:0:
224,160,71349,1,0,0:0:0:0:
224,160,71525,1,0,0:0:0:0:
224,160,71613,1,0,0:0:0:0:
224,160,71702,1,0,0:0:0:0:
288,160,71878,1,6,0:0:0:0:
224,160,72055,1,0,0:0:0:0:
288,160,72231,1,2,0:0:0:0:
288,160,72319,1,2,0:0:0:0:
288,160,72408,1,2,0:0:0:0:
288,160,72584,1,6,0:0:0:0:
288,160,72937,1,2,0:0:0:0:
224,160,73113,1,0,0:0:0:0:
224,160,73202,1,0,0:0:0:0:
224,160,73290,1,0,0:0:0:0:
288,160,73466,1,2,0:0:0:0:
224,160,73643,1,0,0:0:0:0:
288,160,73819,1,2,0:0:0:0:
288,160,73996,1,2,0:0:0:0:
224,160,74172,1,0,0:0:0:0:
224,160,74349,1,0,0:0:0:0:
224,160,74437,1,0,0:0:0:0:
288,160,74525,1,2,0:0:0:0:
288,160,74702,1,2,0:0:0:0:
224,160,74878,1,0,0:0:0:0:
288,160,75055,1,2,0:0:0:0:
288,160,75231,1,2,0:0:0:0:
224,160,75584,1,0,0:0:0:0:
224,160,75760,1,0,0:0:0:0:
288,160,75937,1,2,0:0:0:0:
288,160,76113,1,2,0:0:0:0:
224,160,76290,1,0,0:0:0:0:
224,160,76466,1,0,0:0:0:0:
224,160,76555,1,0,0:0:0:0:
288,160,76643,1,2,0:0:0:0:
288,160,76819,1,6,0:0:0:0:
224,160,77172,1,0,0:0:0:0:
224,160,77260,1,0,0:0:0:0:
224,160,77349,1,0,0:0:0:0:
288,160,77525,1,6,0:0:0:0:
288,160,77878,1,6,0:0:0:0:
288,160,78055,1,2,0:0:0:0:
288,160,78143,1,2,0:0:0:0:
224,160,78231,1,0,0:0:0:0:
224,160,78319,1,0,0:0:0:0:
224,160,78408,1,0,0:0:0:0:
224,160,78584,1,0,0:0:0:0:
224,160,78760,1,0,0:0:0:0:
224,160,78937,1,0,0:0:0:0:
224,160,79113,1,0,0:0:0:0:
224,160,79202,1,0,0:0:0:0:
224,160,79290,1,0,0:0:0:0:
288,160,79466,1,2,0:0:0:0:
224,160,79643,1,0,0:0:0:0:
288,160,79819,1,2,0:0:0:0:
224,160,79996,1,0,0:0:0:0:
288,160,80172,1,2,0:0:0:0:
224,160,80349,1,0,0:0:0:0:
288,160,80525,1,2,0:0:0:0:
224,160,80702,1,0,0:0:0:0:
224,160,80790,1,0,0:0:0:0:
288,160,80878,1,2,0:0:0:0:
224,160,81055,1,0,0:0:0:0:
288,160,81231,1,6,0:0:0:0:
224,160,81408,1,0,0:0:0:0:
224,160,81584,1,0,0:0:0:0:
288,160,81760,1,6,0:0:0:0:
224,160,81937,1,0,0:0:0:0:
224,160,82113,1,0,0:0:0:0:
288,160,82290,1,2,0:0:0:0:
288,160,82466,1,6,0:0:0:0:
288,160,83172,1,2,0:0:0:0:
224,160,83349,1,0,0:0:0:0:
288,160,83525,1,2,0:0:0:0:
224,160,83702,1,0,0:0:0:0:
224,160,83878,1,0,0:0:0:0:
224,160,84055,1,4,0:0:0:0:
224,160,84231,1,4,0:0:0:0:
288,160,84408,1,2,0:0:0:0:
224,160,84584,1,4,0:0:0:0:
224,160,84760,1,4,0:0:0:0:
288,160,84937,1,2,0:0:0:0:
224,160,85113,1,4,0:0:0:0:
288,160,85290,1,6,0:0:0:0:
256,192,85466,12,0,88290,0:0:0:0:
