osu file format v14

[General]
AudioFilename: audio.mp3
AudioLeadIn: 0
PreviewTime: 60429
Countdown: 0
SampleSet: Soft
StackLeniency: 0.5
Mode: 0
LetterboxInBreaks: 0
WidescreenStoryboard: 1

[Editor]
Bookmarks: 51077
DistanceSpacing: 1
BeatDivisor: 4
GridSize: 32
TimelineZoom: 2.2

[Metadata]
Title:Last Desire (TV Size)
TitleUnicode:Last Desire (TV Size)
Artist:Kurosaki Maon
ArtistUnicode:黒崎真音
Creator:Cami
Version:Insane
Source:Rewrite
Tags:anime season 2 key opening short version visual novel リライト
BeatmapID:1651955
BeatmapSetID:786963

[Difficulty]
HPDrainRate:6
CircleSize:4.2
OverallDifficulty:7.5
ApproachRate:9
SliderMultiplier:1.55
SliderTickRate:1

[Events]
//Background and Video events
0,0,"bg.jpg",0,0
//Break Periods
//Storyboard Layer 0 (Background)
//Storyboard Layer 1 (Fail)
//Storyboard Layer 2 (Pass)
//Storyboard Layer 3 (Foreground)
//Storyboard Sound Samples

[TimingPoints]
430,352.941176470588,4,2,1,50,1,0
430,-166.666666666667,4,2,1,50,0,0
1841,-166.666666666667,4,2,1,5,0,0
2018,-166.666666666667,4,2,1,50,0,0
2371,-142.857142857143,4,2,1,50,0,0
2547,-142.857142857143,4,2,1,5,0,0
2724,-142.857142857143,4,2,1,50,0,0
3077,-142.857142857143,4,2,1,5,0,0
3253,-142.857142857143,4,2,1,50,0,0
4488,-95.2380952380952,4,2,3,70,0,0
4665,-95.2380952380952,4,2,1,60,0,0
6694,-95.2380952380952,4,2,1,30,0,0
6782,-95.2380952380952,4,2,1,60,0,0
8106,-95.2380952380952,4,2,1,30,0,0
8194,-95.2380952380952,4,2,1,60,0,0
9518,-95.2380952380952,4,2,1,30,0,0
9606,-95.2380952380952,4,2,1,60,0,0
10929,-95.2380952380952,4,2,1,30,0,0
11018,-95.2380952380952,4,2,1,60,0,0
12341,-95.2380952380952,4,2,1,30,0,0
12429,-95.2380952380952,4,2,1,60,0,0
13753,-95.2380952380952,4,2,1,30,0,0
13841,-95.2380952380952,4,2,1,60,0,0
15959,-105.263157894737,4,2,1,60,0,0
25488,-95.2380952380952,4,2,1,60,0,0
26900,-153.846153846154,4,2,1,60,0,0
27077,-153.846153846154,4,2,1,5,0,0
27253,-90.9090909090909,4,2,1,60,0,0
29724,-80,4,2,1,60,0,0
29988,-80,4,2,1,5,0,0
30077,-95.2380952380952,4,2,1,60,0,0
32106,-95.2380952380952,4,2,1,30,0,0
32194,-95.2380952380952,4,2,1,60,0,0
32547,-80,4,2,1,60,0,0
32812,-80,4,2,1,5,0,0
32900,-95.2380952380952,4,2,1,60,0,0
33518,-95.2380952380952,4,2,1,30,0,0
33606,-95.2380952380952,4,2,1,60,0,0
34400,-95.2380952380952,4,2,1,5,0,0
34488,-95.2380952380952,4,2,1,60,0,0
34929,-95.2380952380952,4,2,1,30,0,0
35018,-95.2380952380952,4,2,1,60,0,0
35371,-80,4,2,1,60,0,0
35635,-80,4,2,1,5,0,0
35724,-95.2380952380952,4,2,1,60,0,0
37929,-95.2380952380952,4,2,1,5,0,0
38018,-95.2380952380952,4,2,1,60,0,0
38547,-166.666666666667,4,2,2,60,0,0
38724,-166.666666666667,4,2,1,60,0,0
41371,-166.666666666667,4,2,2,60,0,0
41547,-166.666666666667,4,2,1,60,0,0
44194,-166.666666666667,4,2,2,60,0,0
44371,-166.666666666667,4,2,1,60,0,0
47018,-166.666666666667,4,2,2,60,0,0
47194,-166.666666666667,4,2,1,60,0,0
48341,-166.666666666667,4,2,1,5,0,0
48429,-166.666666666667,4,2,1,60,0,0
49841,-142.857142857143,4,2,1,60,0,0
55488,-95.2380952380952,4,2,1,60,0,0
58312,-80,4,2,1,70,0,1
60077,-80,4,2,1,60,0,0
60959,-83.3333333333333,4,2,3,70,0,1
61135,-83.3333333333333,4,2,1,70,0,1
61753,-83.3333333333333,4,2,1,40,0,1
61841,-83.3333333333333,4,2,1,70,0,1
63165,-83.3333333333333,4,2,1,40,0,1
63253,-83.3333333333333,4,2,1,70,0,1
64577,-83.3333333333333,4,2,1,40,0,1
64665,-83.3333333333333,4,2,1,70,0,1
65900,-100,4,2,1,70,0,1
66782,-95.2380952380952,4,2,1,70,0,0
68194,-80,4,2,1,70,0,0
69606,-80,4,2,1,70,0,1
71547,-83.3333333333333,4,2,1,70,0,0
72253,-76.9230769230769,4,2,3,80,0,1
72429,-80,4,2,1,80,0,1
75871,-80,4,2,1,50,0,1
75959,-80,4,2,1,80,0,1
77724,-80,4,2,1,60,0,1
78077,-95.2380952380952,4,2,1,70,0,0
79488,-90.9090909090909,4,2,1,70,0,0
80900,-80,4,2,1,70,0,1
82135,-83.3333333333333,4,2,1,70,0,0
83724,-76.9230769230769,4,2,1,85,0,1
84959,-83.3333333333333,4,2,3,70,0,0
87959,-83.3333333333333,4,2,1,5,0,0

[Colours]
Combo1 : 0,98,145
Combo2 : 127,127,127
Combo3 : 204,0,0
Combo4 : 215,215,215

[HitObjects]
140,229,253,5,0,1:0:0:0:
140,229,341,1,0,1:0:0:0:
140,229,430,1,6,0:0:0:0:
338,187,606,1,2,0:0:0:0:
338,187,959,2,0,P|299:179|275:179,1,46.4999985809327,2|0,0:0|0:0,0:0:0:0:
139,229,1312,2,0,P|156:212|169:193,1,46.4999985809327,2|0,0:0|0:0,0:0:0:0:
201,44,1665,6,0,P|213:81|234:108,1,69.749997871399,2|0,0:0|0:0,0:0:0:0:
244,112,2018,1,2,0:0:0:0:
346,110,2194,1,0,0:0:0:0:
201,44,2371,6,0,P|148:55|111:79,1,81.3749975166321,2|0,0:0|0:0,0:0:0:0:
117,79,2724,1,0,0:0:0:0:
260,151,2900,2,0,P|208:134|164:136,1,81.3749975166321,2|0,0:0|0:0,0:0:0:0:
159,148,3253,6,0,L|156:192,3,27.1249991722107,4|8|0|0,0:1|0:3|1:0|1:0,0:0:0:0:
239,245,3606,2,0,L|238:218,3,27.1249991722107,8|8|0|0,0:3|0:3|1:0|1:0,0:0:0:0:
161,270,3959,1,8,0:3:0:0:
162,296,4047,1,8,0:3:0:0:
164,322,4135,1,0,1:0:0:0:
166,349,4224,1,0,1:0:0:0:
168,375,4312,1,8,0:0:0:0:
278,280,4488,6,0,P|284:225|264:115,1,162.749995033264,4|0,0:0|0:0,0:0:0:0:
139,63,5018,1,10,0:0:0:0:
162,220,5194,1,0,0:0:0:0:
265,119,5371,1,2,1:2:0:0:
86,147,5547,1,2,1:2:0:0:
265,119,5724,1,8,0:0:0:0:
162,220,5900,6,0,B|65:260|93:193|3:229,1,162.749995033264,6|0,1:2|1:0,0:0:0:0:
0,366,6429,1,10,0:0:0:0:
138,357,6606,1,2,0:0:0:0:
150,356,6694,1,8,0:0:0:0:
162,356,6782,1,2,1:2:0:0:
50,298,6959,1,0,1:2:0:0:
224,235,7135,2,0,P|253:255|260:275,1,40.6874987583161,10|0,0:2|0:0,0:0:0:0:
289,370,7312,2,0,P|291:334|305:318,1,40.6874987583161,2|0,0:0|0:0,0:0:0:0:
374,247,7488,6,0,B|349:260|334:260|334:260|306:182|340:127,1,162.749995033264,4|8,1:2|0:0,0:0:0:0:
471,146,8018,1,2,0:0:0:0:
472,158,8106,1,10,0:0:0:0:
473,170,8194,1,2,1:2:0:0:
429,301,8371,1,2,1:2:0:0:
332,143,8547,1,10,0:0:0:0:
224,235,8724,6,0,B|214:294|240:351|240:351|259:367|286:374,1,162.749995033264,6|0,1:2|1:0,0:0:0:0:
429,301,9253,1,8,0:0:0:0:
332,143,9429,1,2,0:0:0:0:
319,141,9518,1,10,0:0:0:0:
306,139,9606,1,2,1:2:0:0:
306,264,9782,1,2,1:2:0:0:
421,177,9959,1,8,0:0:0:0:
424,136,10047,1,8,0:0:0:0:
413,97,10135,1,10,0:0:0:0:
388,65,10223,1,8,0:0:0:0:
353,45,10312,6,0,B|248:14|296:93|170:46,1,162.749995033264,6|8,1:2|0:0,0:0:0:0:
62,8,10841,1,2,0:0:0:0:
66,20,10929,1,10,0:0:0:0:
69,31,11018,1,2,1:2:0:0:
16,189,11194,1,2,1:2:0:0:
2,73,11371,1,10,0:2:0:0:
114,178,11547,6,0,B|116:227|87:260|87:260|79:304|107:351,1,162.749995033264,6|0,1:2|1:0,0:0:0:0:
228,376,12077,1,8,0:0:0:0:
207,285,12253,1,2,0:0:0:0:
194,285,12341,1,10,0:0:0:0:
181,285,12429,1,2,1:2:0:0:
98,333,12606,1,0,1:0:0:0:
283,314,12782,1,8,0:0:0:0:
174,163,12959,1,2,0:0:0:0:
174,163,13047,1,2,0:0:0:0:
174,163,13135,6,0,B|175:120|198:89|198:89|240:93|274:136,1,162.749995033264,6|8,0:0|0:0,0:0:0:0:
328,221,13665,1,2,0:0:0:0:
315,221,13753,1,10,0:0:0:0:
302,221,13841,1,0,1:0:0:0:
174,163,14018,1,2,0:0:0:0:
287,49,14194,1,8,0:0:0:0:
120,92,14371,6,0,B|89:119|79:159|79:159|85:209|119:239,1,162.749995033264,6|0,0:0|1:0,0:0:0:0:
240,282,14900,1,8,0:0:0:0:
191,164,15077,1,10,0:0:0:0:
178,164,15165,1,8,0:0:0:0:
165,164,15253,1,10,0:0:0:0:
89,306,15429,1,8,0:3:0:0:
102,306,15517,1,8,0:3:0:0:
115,306,15605,1,8,0:3:0:0:
240,282,15782,1,8,0:3:0:0:
107,231,15959,6,0,P|78:158|116:93,1,147.249996068001,4|0,1:2|1:0,0:0:0:0:
186,138,16488,2,0,B|273:175|250:117|341:149,1,147.249996068001,2|0,0:0|0:0,0:0:0:0:
394,206,17018,1,0,1:0:0:0:
315,246,17194,1,0,0:0:0:0:
304,246,17282,1,0,0:0:0:0:
292,246,17371,6,0,B|232:246|232:246|204:258|204:258|128:258,1,147.249996068001,2|0,1:2|1:0,0:0:0:0:
102,334,17900,2,0,B|162:334|162:334|190:346|190:346|266:346,1,147.249996068001,2|0,0:0|0:0,0:0:0:0:
335,349,18429,2,0,P|397:364|429:380,1,73.6249980340005,2|0,1:2|0:0,0:0:0:0:
482,323,18782,6,0,P|466:274|468:157,1,147.249996068001,2|0,1:2|1:0,0:0:0:0:
493,95,19312,2,0,B|412:135|424:69|329:111,1,147.249996068001,2|0,0:0|0:0,0:0:0:0:
277,153,19841,1,0,1:0:0:0:
290,233,20018,1,0,0:0:0:0:
301,233,20106,1,0,0:0:0:0:
313,233,20194,6,0,B|373:233|373:233|401:245|401:245|457:245,1,147.249996068001,2|0,1:2|1:0,0:0:0:0:
449,319,20724,2,0,B|389:319|389:319|361:331|361:331|285:331,1,147.249996068001,2|0,0:0|0:0,0:0:0:0:
216,334,21253,2,0,P|154:349|122:365,1,73.6249980340005,2|0,1:2|0:0,0:0:0:0:
96,278,21606,6,0,B|128:208|59:209|106:129,1,147.249996068001,2|0,1:2|1:0,0:0:0:0:
182,99,22135,2,0,B|234:84|234:84|341:91,1,147.249996068001,2|0,0:0|0:0,0:0:0:0:
414,107,22665,1,0,1:0:0:0:
468,176,22841,1,0,0:0:0:0:
468,186,22929,1,0,0:0:0:0:
468,197,23018,6,0,B|468:257|468:257|456:285|456:285|456:341,1,147.249996068001,2|0,1:2|1:0,0:0:0:0:
376,380,23547,2,0,B|376:320|376:320|364:292|364:292|364:216,1,147.249996068001,2|0,0:0|0:0,0:0:0:0:
372,146,24077,2,0,P|384:104|402:77,1,73.6249980340005,2|0,1:2|0:0,0:0:0:0:
321,39,24429,6,0,B|280:56|244:39|244:39|202:23|159:44,1,147.249996068001,2|0,1:2|1:0,0:0:0:0:
114,97,24959,2,0,P|98:171|122:257,1,147.249996068001,2|0,0:0|0:0,0:0:0:0:
240,332,25488,1,8,0:0:0:0:
203,149,25665,1,0,1:0:0:0:
209,157,26724,5,0,1:0:0:0:
209,157,26812,1,0,1:0:0:0:
209,157,26900,2,0,L|293:157,1,75.5624965410234,10|0,0:0|0:0,0:0:0:0:
302,166,27253,6,0,P|326:202|340:242,1,85.2500026016236,6|0,1:2|0:0,0:0:0:0:
255,245,27606,1,10,0:0:0:0:
271,92,27782,2,0,P|314:89|355:97,1,85.2500026016236,2|0,0:2|1:0,0:0:0:0:
396,172,28135,1,2,1:2:0:0:
255,245,28312,1,8,0:0:0:0:
271,92,28488,6,2,P|302:39|404:52,1,170.500005203247,0|0,1:2|1:0,0:1:0:0:
460,109,29018,1,8,0:0:0:0:
347,99,29194,1,0,0:0:0:0:
474,27,29371,1,0,1:0:0:0:
462,204,29547,1,2,1:2:0:0:
330,226,29724,6,2,B|275:225|275:225|232:204|232:204|168:204,1,145.3125,10|0,0:0|0:0,0:1:0:0:
149,213,30077,6,0,P|118:250|104:288,1,81.3749975166322,2|0,1:2|0:0,0:0:0:0:
185,296,30429,1,8,0:0:0:0:
240,192,30606,2,0,P|212:151|179:128,1,81.3749975166322,2|0,0:2|1:0,0:0:0:0:
105,139,30958,1,2,1:2:0:0:
240,192,31135,1,8,0:0:0:0:
202,62,31312,6,2,P|125:59|33:92,1,162.749995033264,2|0,1:2|1:0,0:1:0:0:
17,249,31841,1,8,0:0:0:0:
156,187,32018,1,2,0:0:0:0:
167,191,32106,1,8,0:0:0:0:
178,194,32194,1,0,1:0:0:0:
202,62,32371,1,2,1:2:0:0:
84,145,32547,6,2,B|80:198|80:198|94:242|94:242|87:308,1,145.3125,8|0,0:0|0:0,0:1:0:0:
73,324,32900,6,0,P|128:302|172:308,1,81.3749975166322,6|0,1:2|0:0,0:0:0:0:
224,333,33253,1,8,0:0:0:0:
10,275,33429,1,2,0:0:0:0:
10,262,33518,1,8,0:0:0:0:
11,250,33606,1,0,1:0:0:0:
144,201,33782,1,2,1:2:0:0:
132,380,33959,1,10,0:0:0:0:
62,193,34135,6,2,P|78:153|164:121,1,122.062496274948,2|0,1:2|0:0,0:1:0:0:
186,126,34488,1,2,1:2:0:0:
99,25,34665,2,0,P|139:26|177:43,1,81.3749975166322,8|2,0:0|0:2,0:0:0:0:
177,43,34929,1,8,0:2:0:0:
177,43,35018,1,0,1:0:0:0:
99,135,35194,1,2,0:0:0:0:
235,211,35371,6,2,B|292:217|292:217|333:203|333:203|387:209,1,145.3125,10|0,0:0|0:0,0:1:0:0:
409,182,35724,6,0,P|419:135|406:92,1,81.3749975166322,2|0,1:2|0:0,0:0:0:0:
335,133,36077,1,10,0:0:0:0:
400,277,36253,2,0,P|448:271|491:237,1,81.3749975166322,2|0,0:2|1:0,0:0:0:0:
467,54,36606,1,2,1:2:0:0:
335,133,36782,1,8,0:0:0:0:
475,254,36959,6,0,B|502:319|486:366|486:366|440:383,1,162.749995033264,6|0,0:0|1:0,0:0:0:0:
359,378,37488,1,10,0:0:0:0:
341,207,37665,2,0,P|388:243|388:302,1,122.062496274948,2|0,1:2|0:0,0:0:0:0:
310,311,38018,1,10,0:0:0:0:
220,260,38194,1,0,1:0:0:0:
154,335,38371,1,0,1:0:0:0:
310,311,38547,5,4,0:0:0:0:
458,360,39606,1,2,0:0:0:0:
458,360,39959,6,0,P|480:318|483:263,2,92.9999971618653,0|2|0,0:0|0:0|0:0,0:0:0:0:
367,384,41018,1,2,0:0:0:0:
240,373,41371,6,0,B|220:300|258:251|258:251|263:217|243:173|243:173|289:101|253:9,1,371.999988647461,4|0,0:0|0:0,0:0:0:0:
251,9,43488,1,0,0:0:0:0:
417,123,44194,5,4,0:0:0:0:
417,123,45253,1,2,0:0:0:0:
417,123,45606,6,0,P|395:165|392:220,2,92.9999971618653,0|2|0,0:0|0:0|0:0,0:0:0:0:
508,99,46665,1,2,0:0:0:0:
293,234,47018,6,0,B|259:198|268:147|268:147|280:101|327:79|327:79|245:116|180:60,1,325.499990066529,4|0,0:0|0:0,0:0:0:0:
149,10,48429,2,0,P|116:20|94:40,1,46.4999985809327,2|2,0:0|0:0,0:0:0:0:
88,147,48782,2,0,P|95:124|94:101,2,46.4999985809327,2|2|0,2:0|2:0|2:0,2:0:0:0:
0,26,49312,2,0,P|25:49|53:58,1,46.4999985809327,2|2,2:0|2:0,2:0:0:0:
149,10,49665,1,2,0:0:0:0:
240,161,49841,6,0,L|315:152,1,54.2499983444214,4|0,1:0|0:0,0:0:0:0:
418,185,50194,2,0,L|365:179,1,54.2499983444214,0|0,1:2|0:0,0:0:0:0:
249,84,50547,2,0,L|303:78,1,54.2499983444214,0|0,1:2|0:0,0:0:0:0:
427,262,50900,2,0,L|352:253,1,54.2499983444214,2|0,1:2|0:0,0:0:0:0:
272,314,51253,6,0,L|218:320,1,54.2499983444214,2|0,1:2|0:0,0:0:0:0:
92,291,51606,2,0,L|145:297,1,54.2499983444214,2|0,1:2|0:0,0:0:0:0:
284,238,51959,2,0,L|230:244,1,54.2499983444214,2|0,1:2|0:0,0:0:0:0:
80,215,52312,2,0,L|133:221,1,54.2499983444214,2|0,1:2|0:0,0:0:0:0:
272,314,52665,6,0,L|326:308,1,54.2499983444214,2|0,1:2|0:0,0:0:0:0:
250,166,53018,2,0,L|196:172,1,54.2499983444214,0|0,1:2|0:0,0:0:0:0:
284,238,53371,2,0,L|337:232,1,54.2499983444214,2|0,1:2|0:0,0:0:0:0:
262,90,53724,2,0,L|208:96,1,54.2499983444214,0|0,1:2|0:0,0:0:0:0:
326,8,54077,6,0,L|380:2,1,54.2499983444214,2|0,1:2|0:0,0:0:0:0:
447,146,54429,2,0,L|393:152,1,54.2499983444214,0|2,1:2|0:0,0:0:0:0:
284,238,54782,1,2,1:2:0:0:
262,90,54959,1,0,1:0:0:0:
393,151,55135,1,8,0:0:0:0:
393,151,55488,6,0,L|298:139,1,81.3749975166322,6|0,1:2|0:0,0:0:0:0:
155,145,55841,2,0,L|236:135,1,81.3749975166322,0|0,1:2|0:0,0:0:0:0:
447,90,56194,2,0,L|367:80,1,81.3749975166322,0|2,1:2|0:0,0:0:0:0:
111,66,56547,2,0,L|206:54,1,81.3749975166322,2|2,1:2|0:0,0:0:0:0:
322,234,56900,6,0,L|242:224,1,81.3749975166322,6|0,1:2|0:0,0:0:0:0:
74,154,57253,2,0,L|155:144,1,81.3749975166322,2|2,1:2|0:0,0:0:0:0:
257,312,57606,2,0,L|177:302,1,81.3749975166322,0|2,1:2|0:0,0:0:0:0:
235,135,57959,1,10,0:0:0:0:
235,135,58312,5,14,0:0:0:0:
397,124,58488,1,0,0:0:0:0:
325,269,58665,1,0,1:0:0:0:
230,118,58841,5,14,0:0:0:0:
425,122,59017,1,0,1:0:0:0:
324,288,59194,1,2,0:0:0:0:
209,214,59371,5,10,0:0:0:0:
453,214,59547,1,14,0:0:0:0:
180,225,59900,5,8,0:0:0:0:
472,200,60077,1,8,0:0:0:0:
501,189,60429,5,0,0:0:0:0:
419,107,60606,1,8,0:1:0:0:
294,288,60959,6,0,P|320:201|294:112,1,185.999994323731,6|2,1:2|1:2,0:0:0:0:
154,234,61488,2,0,P|141:290|152:340,1,92.9999971618653,10|2,0:0|0:0,0:0:0:0:
156,340,61753,1,8,0:0:0:0:
166,352,61841,1,2,1:2:0:0:
294,289,62018,1,2,0:0:0:0:
432,339,62194,1,10,0:0:0:0:
294,113,62371,6,0,B|242:209|334:208|293:292,1,185.999994323731,6|0,1:2|1:2,0:0:0:0:
171,381,62900,1,10,0:0:0:0:
161,189,63077,1,2,0:2:0:0:
173,182,63165,1,8,0:2:0:0:
185,175,63253,1,0,1:2:0:0:
351,167,63429,1,2,1:2:0:0:
197,294,63606,1,8,0:0:0:0:
261,103,63782,1,2,0:0:0:0:
278,107,63871,1,2,0:0:0:0:
294,113,63959,6,0,B|334:216|242:188|298:298,1,185.999994323731,6|10,1:2|0:2,0:0:0:0:
411,367,64488,1,2,0:0:0:0:
424,369,64577,1,8,0:0:0:0:
437,371,64665,1,2,1:2:0:0:
397,253,64841,1,2,1:2:0:0:
171,381,65018,1,8,0:0:0:0:
294,290,65194,6,0,P|315:242|293:112,1,185.999994323731,6|2,1:2|1:2,0:0:0:0:
159,86,65724,1,8,0:0:0:0:
294,290,65900,1,2,1:2:0:0:
294,290,66253,5,0,1:0:0:0:
305,290,66341,1,0,1:0:0:0:
316,290,66429,1,8,0:0:0:0:
421,352,66606,1,0,1:0:0:0:
454,181,66782,6,0,L|352:196,1,81.3749975166322,4|0,1:2|0:0,0:0:0:0:
210,223,67135,1,10,0:0:0:0:
316,290,67311,1,2,0:0:0:0:
473,104,67488,2,0,L|371:119,1,81.3749975166322,2|0,1:2|0:0,0:0:0:0:
307,212,67841,1,10,0:0:0:0:
185,150,68018,1,2,0:0:0:0:
281,25,68194,6,0,B|299:98|299:98|286:134|286:134|307:212,1,193.75,4|8,0:0|0:0,0:0:0:0:
332,352,68724,1,2,0:0:0:0:
494,272,68900,1,2,1:2:0:0:
414,110,69077,1,2,0:0:0:0:
307,212,69253,2,0,P|295:241|298:278,1,48.4375,10|0,0:0|0:0,0:0:0:0:
456,181,69429,2,0,P|481:161|497:128,1,48.4375,2|2,0:0|0:0,0:0:0:0:
216,329,69606,6,0,P|215:268|201:225,1,96.875,14|0,0:0|1:0,0:0:0:0:
115,79,69959,1,2,1:2:0:0:
35,309,70135,6,0,P|36:248|50:205,1,96.875,14|0,0:0|1:0,0:0:0:0:
115,79,70488,1,2,1:2:0:0:
126,241,70665,1,8,0:0:0:0:
37,57,70841,6,0,B|108:52|108:52|159:66|159:66|229:59,1,193.75,6|0,1:2|1:0,0:0:0:0:
243,58,71282,1,0,1:2:0:0:
257,57,71371,2,0,L|265:134,1,48.4375,0|0,1:2|1:2,0:2:0:0:
200,293,71547,6,0,P|239:255|367:232,1,185.999994323731,4|8,0:0|0:0,0:0:0:0:
388,246,71988,1,8,0:0:0:0:
417,253,72076,1,8,0:0:0:0:
448,252,72164,1,8,0:0:0:0:
478,242,72253,6,0,B|467:169|467:169|479:126|479:126|467:31,1,201.499990776062,4|2,0:0|1:2,0:0:0:0:
346,5,72782,2,0,P|287:9|250:29,1,96.875,10|0,0:0|0:0,0:0:0:0:
271,193,73135,1,2,1:2:0:0:
334,92,73312,1,2,1:2:0:0:
215,87,73488,1,8,0:0:0:0:
227,268,73665,6,0,P|250:206|196:68,1,193.75,4|2,0:2|1:2,0:0:0:0:
113,55,74194,1,8,0:0:0:0:
334,92,74371,2,0,P|379:109|414:157,1,96.875,2|0,0:0|1:0,0:0:0:0:
227,268,74724,1,2,1:2:0:0:
330,176,74900,1,8,0:0:0:0:
434,350,75077,1,2,0:0:0:0:
434,350,75165,1,2,0:0:0:0:
434,350,75253,6,0,B|421:280|421:280|434:231|434:231|417:144,1,193.75,6|10,1:2|0:0,0:0:0:0:
244,73,75782,2,0,P|205:72|178:79,1,48.4375,2|8,0:2|0:0,0:0:0:0:
146,202,75959,1,2,1:2:0:0:
359,176,76135,2,0,P|399:136|414:106,1,48.4375,2|0,1:2|0:0,0:0:0:0:
408,37,76312,1,8,0:0:0:0:
244,73,76488,6,0,B|190:159|284:181|214:285,1,193.75,6|2,1:2|1:2,0:0:0:0:
219,270,76929,1,0,1:2:0:0:
208,282,77017,1,0,1:2:0:0:
196,292,77105,1,0,1:2:0:0:
182,300,77193,1,2,1:2:0:0:
98,38,77547,1,2,1:2:0:0:
39,127,77724,5,8,0:0:0:0:
74,120,77812,1,8,0:0:0:0:
110,113,77900,1,8,0:0:0:0:
146,107,77988,1,8,0:0:0:0:
181,100,78077,6,0,L|282:113,1,81.3749975166322,4|0,0:0|0:0,0:0:0:0:
405,161,78429,2,0,L|325:172,1,81.3749975166322,2|2,1:2|0:0,0:0:0:0:
242,34,78782,2,0,L|323:45,1,81.3749975166322,2|0,1:2|0:0,0:0:0:0:
467,227,79135,2,0,L|366:240,1,81.3749975166322,2|2,1:2|0:0,0:0:0:0:
242,34,79488,6,0,B|323:45|323:45|349:65|349:65|414:70,1,170.500005203247,4|2,0:0|1:2,0:0:0:0:
486,36,80018,1,0,0:0:0:0:
298,125,80194,1,2,1:2:0:0:
403,151,80371,1,0,0:0:0:0:
271,311,80547,1,8,0:0:0:0:
271,311,80900,5,12,0:0:0:0:
298,125,81077,1,0,1:0:0:0:
445,241,81253,1,0,1:0:0:0:
249,326,81429,5,12,0:0:0:0:
296,98,81606,1,0,1:2:0:0:
455,264,81782,1,0,1:0:0:0:
181,208,81959,5,8,0:0:0:0:
476,134,82135,2,0,B|526:92|497:24|497:24|363:-8|337:116|337:116|453:176|418:304|418:304|368:278|322:306,1,650.999980133057,4|4,0:0|0:3,0:0:0:0:
298,314,83724,5,10,0:0:0:0:
176,76,83900,1,10,0:0:0:0:
317,65,84077,1,2,1:2:0:0:
158,312,84253,5,8,0:0:0:0:
317,65,84429,1,10,0:0:0:0:
403,196,84606,1,2,1:2:0:0:
84,181,84782,5,10,0:0:0:0:
403,196,84959,1,14,0:0:0:0:
256,192,85047,12,0,88312,0:0:0:0:
