osu file format v14

[General]
AudioFilename: audio.mp3
AudioLeadIn: 0
PreviewTime: 60429
Countdown: 0
SampleSet: Soft
StackLeniency: 0.5
Mode: 0
LetterboxInBreaks: 0
WidescreenStoryboard: 0

[Editor]
DistanceSpacing: 1.2
BeatDivisor: 4
GridSize: 32
TimelineZoom: 1.3

[Metadata]
Title:Last Desire (TV Size)
TitleUnicode:Last Desire (TV Size)
Artist:Kurosaki Maon
ArtistUnicode:黒崎真音
Creator:Cami
Version:Hard
Source:Rewrite
Tags:anime season 2 key opening short version visual novel リライト
BeatmapID:1651841
BeatmapSetID:786963

[Difficulty]
HPDrainRate:5
CircleSize:3.8
OverallDifficulty:6
ApproachRate:8
SliderMultiplier:1.4
SliderTickRate:1

[Events]
//Background and Video events
0,0,"bg.jpg",0,0
//Break Periods
2,38747,48782
//Storyboard Layer 0 (Background)
//Storyboard Layer 1 (Fail)
//Storyboard Layer 2 (Pass)
//Storyboard Layer 3 (Foreground)
//Storyboard Sound Samples

[TimingPoints]
430,352.941176470588,4,2,1,50,1,0
4488,-95.2380952380952,4,2,3,70,0,0
4665,-95.2380952380952,4,2,1,60,0,0
15959,-105.263157894737,4,2,1,60,0,0
25488,-95.2380952380952,4,2,1,60,0,0
27165,-95.2380952380952,4,2,1,5,0,0
27253,-95.2380952380952,4,2,1,60,0,0
29724,-80,4,2,1,60,0,0
29988,-80,4,2,1,5,0,0
30077,-95.2380952380952,4,2,1,60,0,0
32106,-95.2380952380952,4,2,1,30,0,0
32194,-95.2380952380952,4,2,1,60,0,0
32547,-80,4,2,1,60,0,0
32900,-95.2380952380952,4,2,1,60,0,0
33518,-95.2380952380952,4,2,1,30,0,0
33606,-95.2380952380952,4,2,1,60,0,0
35371,-80,4,2,1,60,0,0
35635,-80,4,2,1,5,0,0
35724,-95.2380952380952,4,2,1,60,0,0
38547,-250,4,2,2,60,0,0
49841,-222.222222222222,4,2,1,60,0,0
55488,-95.2380952380952,4,2,1,60,0,0
58224,-95.2380952380952,4,2,1,5,0,0
58312,-80,4,2,1,70,0,1
59812,-80,4,2,1,5,0,1
59900,-80,4,2,1,70,0,1
60077,-80,4,2,1,60,0,0
60959,-83.3333333333333,4,2,3,70,0,1
61135,-83.3333333333333,4,2,1,70,0,1
63165,-83.3333333333333,4,2,1,40,0,1
63253,-83.3333333333333,4,2,1,70,0,1
64577,-83.3333333333333,4,2,1,40,0,1
64665,-83.3333333333333,4,2,1,70,0,1
66782,-95.2380952380952,4,2,1,70,0,0
69518,-95.2380952380952,4,2,1,5,0,0
69606,-80,4,2,1,70,0,1
71547,-83.3333333333333,4,2,1,70,0,0
72253,-83.3333333333333,4,2,3,80,0,1
72429,-83.3333333333333,4,2,1,80,0,1
77724,-83.3333333333333,4,2,1,60,0,1
78077,-95.2380952380952,4,2,1,70,0,0
79488,-90.9090909090909,4,2,1,70,0,0
80900,-80,4,2,1,70,0,1
82135,-83.3333333333333,4,2,1,70,0,0
83724,-76.9230769230769,4,2,1,85,0,1
84959,-83.3333333333333,4,2,3,70,0,0
87959,-83.3333333333333,4,2,1,5,0,0

[Colours]
Combo1 : 0,128,192
Combo2 : 141,141,141
Combo3 : 242,0,0

[HitObjects]
332,209,253,5,0,1:0:0:0:
332,209,341,1,0,1:0:0:0:
332,209,430,1,10,0:0:0:0:
359,293,606,2,0,P|414:310|500:294,2,140,2|2|2,0:0|0:0|0:0,0:0:0:0:
242,214,1665,6,0,P|187:197|101:213,1,140,2|0,0:0|0:0,0:0:0:0:
64,275,2194,1,2,0:0:0:0:
64,275,2371,2,0,P|81:220|65:134,1,140,2|0,0:0|0:0,0:0:0:0:
18,80,2900,1,2,0:0:0:0:
163,60,3253,6,0,L|202:56,3,35,4|8|0|0,0:1|0:3|1:0|1:0,0:0:0:0:
231,67,3606,2,0,L|265:70,3,35,8|8|0|0,0:3|0:3|1:0|1:0,0:0:0:0:
299,58,3959,2,0,L|333:54,3,35,8|8|0|0,0:3|0:3|1:0|1:0,0:0:0:0:
365,68,4312,1,8,0:0:0:0:
455,130,4488,6,0,P|472:183|455:279,1,146.999995513916,6|0,0:0|0:0,0:0:0:0:
397,314,5018,1,10,0:0:0:0:
325,329,5194,1,0,0:0:0:0:
257,300,5371,2,0,P|220:301|186:314,1,73.4999977569581,2|0,1:2|1:0,0:0:0:0:
119,346,5724,1,8,0:0:0:0:
156,242,5900,6,0,P|170:170|152:100,1,146.999995513916,2|0,1:2|1:0,0:0:0:0:
94,54,6429,1,10,0:0:0:0:
69,123,6606,1,0,0:0:0:0:
85,195,6782,2,0,P|78:231|62:263,1,73.4999977569581,2|0,1:2|1:0,0:0:0:0:
0,304,7135,1,8,0:0:0:0:
10,376,7312,1,2,0:0:0:0:
103,343,7488,6,0,B|186:381|163:317|267:361,1,146.999995513916,4|8,1:2|0:0,0:0:0:0:
315,378,8018,1,0,0:0:0:0:
387,365,8194,2,0,P|425:340|445:298,1,73.4999977569581,0|2,1:0|1:2,0:0:0:0:
444,243,8547,1,8,0:0:0:0:
346,195,8724,6,0,P|271:174|192:199,1,146.999995513916,4|0,1:2|1:2,0:0:0:0:
163,251,9253,1,8,0:0:0:0:
90,239,9429,1,0,0:0:0:0:
54,178,9606,2,0,P|49:128|57:94,1,73.4999977569581,0|0,1:0|1:2,0:0:0:0:
81,37,9959,2,8,L|125:29,3,36.749998878479,8|8|10|10,0:0|0:0|0:0|0:0,2:0:0:0:
155,41,10312,6,0,P|172:109|145:205,1,146.999995513916,6|8,1:2|0:0,0:0:0:0:
110,240,10841,1,0,0:0:0:0:
111,313,11018,2,0,P|132:363|160:381,1,73.4999977569581,0|2,1:2|0:0,0:2:0:0:
228,371,11371,1,10,0:0:0:0:
283,276,11547,6,0,P|298:218|280:125,1,146.999995513916,6|0,1:2|1:0,0:0:0:0:
231,80,12077,1,8,0:0:0:0:
163,51,12253,1,0,1:2:0:0:
90,72,12429,2,0,P|63:112|55:150,1,73.4999977569581
76,206,12782,1,8,0:0:0:0:
159,281,12959,1,2,0:0:0:0:
159,281,13047,1,0,0:0:0:0:
159,281,13135,6,0,B|242:319|219:255|323:299,1,146.999995513916,6|8,1:2|0:0,0:0:0:0:
369,320,13665,1,0,0:0:0:0:
442,326,13841,2,0,P|481:310|504:282,1,73.4999977569581,0|2,1:0|1:2,0:0:0:0:
503,214,14194,1,10,0:2:0:0:
418,142,14371,6,0,P|347:127|261:147,1,146.999995513916,4|0,1:2|1:0,0:0:0:0:
224,194,14900,1,8,0:0:0:0:
157,226,15077,1,8,0:0:0:0:
146,226,15165,1,10,0:0:0:0:
135,226,15253,1,10,0:0:0:0:
66,252,15429,2,0,L|25:252,2,36.749998878479,8|8|8,0:3|0:3|0:3,0:0:0:0:
124,298,15782,1,8,0:3:0:0:
223,296,15959,6,0,P|291:277|330:216,1,132.999996448517,4|0,1:2|1:0,0:0:0:0:
324,148,16488,2,0,P|358:81|421:59,1,132.999996448517,2|2,0:2|0:0,0:0:0:0:
476,103,17018,1,2,1:2:0:0:
415,154,17194,1,2,0:0:0:0:
512,178,17371,6,0,B|511:229|511:229|492:256|492:256|491:318,1,132.999996448517,2|0,1:2|1:0,0:0:0:0:
414,329,17900,2,0,B|413:278|413:278|394:251|394:251|393:189,1,132.999996448517,2|0,0:2|0:0,0:0:0:0:
355,131,18429,2,0,P|304:152|266:151,1,66.4999982242585,2|0,1:2|0:0,0:0:0:0:
230,203,18782,6,0,B|213:163|213:163|230:64,1,132.999996448517,2|0,1:2|1:0,0:0:0:0:
308,73,19312,2,0,P|288:22|270:7,1,66.4999982242585,2|0,0:0|1:0,0:0:0:0:
199,0,19665,2,0,P|171:18|151:47,1,66.4999982242585,2|0,0:0|1:0,0:0:0:0:
145,124,20018,1,2,0:0:0:0:
235,166,20194,6,0,B|249:221|249:221|244:247|244:247|263:310,1,132.999996448517,2|0,1:2|1:0,0:0:0:0:
191,337,20724,2,0,B|177:282|177:282|160:261|160:261|146:197,1,132.999996448517,2|0,0:2|0:0,0:0:0:0:
163,134,21253,1,2,1:2:0:0:
235,166,21429,1,2,0:0:0:0:
150,212,21606,6,0,B|117:202|93:181|93:181|82:148|86:110,1,132.999996448517,2|0,1:2|1:0,0:0:0:0:
139,55,22135,2,0,P|68:36|12:84,1,132.999996448517,2|0,0:0|0:0,0:0:0:0:
1,139,22665,1,2,1:2:0:0:
11,217,22841,1,2,0:0:0:0:
93,275,23018,6,0,B|92:226|92:226|105:199|105:199|103:129,1,132.999996448517,2|0,1:2|1:0,0:0:0:0:
177,114,23547,2,0,B|179:162|179:162|194:188|194:188|197:258,1,132.999996448517,2|0,0:2|0:0,0:0:0:0:
163,316,24077,1,2,1:2:0:0:
93,275,24253,1,2,0:0:0:0:
196,242,24429,6,0,P|241:210|253:131,1,132.999996448517,2|0,1:2|1:0,0:0:0:0:
177,114,24959,2,0,P|146:89|129:58,1,66.4999982242585,0|0,0:0|1:0,0:0:0:0:
207,38,25312,1,2,0:0:0:0:
320,66,25488,5,8,0:0:0:0:
257,169,25665,1,4,1:2:0:0:
265,177,26724,1,0,1:0:0:0:
265,177,26812,1,0,1:0:0:0:
265,177,26900,2,0,P|276:221|266:299,1,110.249996635437,10|0,0:0|0:0,0:0:0:0:
259,303,27253,6,0,B|337:264|332:330|404:294,1,146.999995513916,6|10,0:0|0:0,0:0:0:0:
444,232,27782,2,0,P|442:188|421:152,1,73.4999977569581,2|0,0:0|1:0,0:0:0:0:
365,121,28135,2,0,P|319:104|282:106,1,73.4999977569581,2|10,0:0|0:0,0:0:0:0:
230,145,28488,2,2,B|168:143|168:143|140:130|140:130|70:128,1,146.999995513916,2|0,1:2|1:0,0:1:0:0:
19,162,29018,2,0,P|6:211|13:248,1,73.4999977569581,8|0,0:0|0:0,0:0:0:0:
56,288,29371,1,0,1:0:0:0:
124,314,29547,1,2,1:2:0:0:
193,339,29724,6,2,B|234:350|256:342|256:342|280:354|280:354|313:346|360:359,1,131.25,10|0,0:0|0:0,0:1:0:0:
337,358,30077,6,0,P|333:293|337:271,1,73.4999977569581,6|2,1:2|0:0,0:0:0:0:
355,214,30429,1,10,0:0:0:0:
312,154,30606,2,0,P|301:109|304:72,1,73.4999977569581,2|0,0:0|1:0,0:0:0:0:
255,25,30959,2,2,P|216:34|177:28,1,73.4999977569581,2|8,0:0|0:0,0:1:0:0:
127,83,31312,6,2,P|97:126|115:214,1,146.999995513916,2|0,1:2|1:0,0:1:0:0:
188,212,31841,2,0,P|233:197|281:208,1,73.4999977569581,10|0,0:0|0:0,0:0:0:0:
281,210,32106,1,8,0:0:0:0:
299,232,32194,1,0,1:0:0:0:
314,304,32371,1,2,1:2:0:0:
252,344,32547,6,2,B|202:344|202:344|166:331|166:331|112:331,1,131.25,8|0,1:2|0:0,0:1:0:0:
105,338,32900,6,0,P|111:285|103:257,1,73.4999977569581,6|2,0:0|0:0,0:0:0:0:
69,202,33253,2,0,P|47:162|54:104,1,73.4999977569581,8|0,0:0|0:0,0:0:0:0:
49,109,33518,1,8,0:0:0:0:
67,86,33606,1,0,1:0:0:0:
134,57,33782,1,2,1:2:0:0:
205,72,33959,1,10,0:0:0:0:
274,47,34135,6,2,B|358:38|336:95|415:79,1,146.999995513916,2|2,1:2|1:2,0:1:0:0:
482,55,34665,1,10,0:0:0:0:
478,128,34841,2,0,P|472:158|471:206,1,73.4999977569581,2|0,0:0|1:0,0:0:0:0:
498,269,35194,1,2,1:2:0:0:
427,304,35371,6,2,B|394:313|370:306|370:306|340:319|340:319|307:311|260:324,1,131.25,10|0,0:0|0:0,0:1:0:0:
269,301,35724,6,0,P|273:236|269:214,1,73.4999977569581,6|2,1:2|0:0,0:0:0:0:
238,162,36077,1,10,0:0:0:0:
259,91,36253,2,0,P|302:73|350:72,1,73.4999977569581,2|0,0:0|1:0,0:0:0:0:
402,67,36606,2,0,P|438:61|471:46,1,73.4999977569581,2|8,0:0|0:0,0:0:0:0:
478,143,36959,6,0,P|489:212|466:289,1,146.999995513916,6|2,0:0|1:2,0:0:0:0:
402,317,37488,1,10,0:0:0:0:
334,346,37665,2,0,B|240:354|283:299|184:312,1,146.999995513916,2|10,1:2|0:2,0:0:0:0:
122,311,38194,1,0,1:0:0:0:
82,248,38371,1,0,1:0:0:0:
174,188,38547,5,4,0:0:0:0:
241,104,49841,5,4,0:1:0:0:
273,50,50194,1,0,1:0:0:0:
326,16,50547,1,0,1:0:0:0:
388,7,50900,2,0,P|433:13|458:21,2,62.9999980773926,2|2|2,1:2|1:2|1:2,0:0:0:0:
326,16,51959,1,2,1:2:0:0:
273,50,52312,1,2,1:2:0:0:
241,104,52665,6,0,P|229:139|227:170,1,62.9999980773926,2|0,1:2|1:0,0:0:0:0:
258,219,53371,2,0,P|253:255|245:285,1,62.9999980773926,2|0,1:2|1:0,0:0:0:0:
202,326,54077,2,0,P|165:321|135:309,1,62.9999980773926,2|0,1:2|1:0,0:0:0:0:
91,259,54606,1,2,0:0:0:0:
91,259,54782,1,2,1:2:0:0:
120,179,54959,1,0,1:0:0:0:
199,143,55135,5,8,0:0:0:0:
199,143,55488,6,0,L|290:150,1,73.4999977569581,6|0,0:0|0:0,0:0:0:0:
340,177,55841,2,0,L|413:171,1,73.4999977569581,0|0,1:0|0:0,0:0:0:0:
512,107,56194,2,0,L|439:102,1,73.4999977569581,0|2,1:0|0:0,0:0:0:0:
370,73,56547,1,2,1:2:0:0:
296,78,56724,1,2,0:0:0:0:
193,145,56900,6,0,P|192:199|200:244,1,73.4999977569581,6|0,1:2|0:0,0:0:0:0:
227,283,57253,1,2,1:2:0:0:
288,322,57429,2,0,P|324:325|361:323,2,73.4999977569581,2|0|0,0:2|1:0|0:0,0:0:0:0:
216,304,57959,2,0,P|161:291|107:306,1,110.249996635437,2|0,1:2|0:0,0:0:0:0:
97,317,58312,6,0,P|103:270|93:227,1,87.5,6|0,0:0|0:0,0:0:0:0:
40,161,58665,1,0,1:0:0:0:
138,74,58841,6,0,P|184:68|227:78,1,87.5,6|0,0:0|1:0,0:0:0:0:
294,131,59194,1,2,1:2:0:0:
328,211,59371,1,10,0:0:0:0:
197,211,59547,6,0,L|62:211,1,131.25,6|0,0:0|0:0,0:0:0:0:
43,213,59900,1,4,0:0:0:0:
15,296,60077,1,12,0:0:0:0:
239,293,60429,5,0,0:0:0:0:
166,368,60606,1,8,0:1:0:0:
166,368,60959,6,0,P|228:379|335:357,1,167.999994873047,6|0,0:0|1:0,0:0:0:0:
389,299,61488,1,10,0:0:0:0:
407,216,61665,2,0,P|408:192|386:130,1,83.9999974365235,0|2,0:0|1:2,0:0:0:0:
339,67,62018,1,2,1:2:0:0:
259,40,62194,1,10,0:0:0:0:
188,145,62371,6,0,B|184:204|184:204|195:261|195:261|187:338,1,167.999994873047,6|0,0:0|0:0,0:0:0:0:
125,366,62900,1,10,0:0:0:0:
98,285,63077,1,2,0:0:0:0:
99,272,63165,1,8,0:0:0:0:
100,259,63253,1,0,1:0:0:0:
90,175,63429,2,0,B|87:131|106:94,1,83.9999974365235,2|8,0:0|0:0,0:0:0:0:
188,145,63782,1,0,0:0:0:0:
202,37,63959,6,0,B|298:13|265:81|372:52,1,167.999994873047,4|10,1:2|0:0,0:0:0:0:
443,26,64488,1,2,0:0:0:0:
455,26,64577,1,8,0:0:0:0:
467,27,64665,1,2,1:2:0:0:
489,107,64841,2,0,P|485:168|477:202,1,83.9999974365235,2|8,0:0|0:0,0:0:0:0:
365,242,65194,6,0,B|337:251|308:252|308:252|249:227|182:260,1,167.999994873047,6|0,0:0|1:0,0:0:0:0:
138,309,65724,1,10,0:0:0:0:
86,242,65900,1,2,1:2:0:0:
136,81,66253,1,0,1:0:0:0:
146,88,66341,1,0,1:0:0:0:
156,95,66429,1,8,0:2:0:0:
142,177,66606,1,0,1:2:0:0:
246,136,66782,6,0,L|321:144,1,73.4999977569581,4|0,0:0|0:0,0:0:0:0:
391,180,67135,2,0,L|464:172,1,73.4999977569581,10|0,0:0|0:0,0:0:0:0:
505,102,67488,2,0,L|432:95,1,73.4999977569581,2|0,1:2|0:0,0:0:0:0:
382,30,67841,2,0,L|308:37,1,73.4999977569581,10|2,0:0|0:0,0:0:0:0:
252,127,68194,6,0,L|260:202,1,73.4999977569581,4|0,0:0|0:0,0:0:0:0:
292,274,68547,2,0,L|284:347,1,73.4999977569581,8|2,0:0|0:0,0:0:0:0:
205,368,68900,2,0,L|197:294,1,73.4999977569581,2|2,1:2|0:0,0:0:0:0:
150,228,69253,2,0,P|150:155|165:114,1,110.249996635437,8|0,0:0|0:0,0:0:0:0:
190,113,69606,6,0,P|195:70|189:20,1,87.5,14|0,0:0|0:0,0:0:0:0:
105,2,69959,1,2,1:2:0:0:
59,116,70135,6,0,P|54:159|60:209,1,87.5,14|0,0:0|0:0,0:0:0:0:
117,279,70488,1,2,1:2:0:0:
213,274,70665,1,8,0:0:0:0:
309,164,70841,6,0,P|367:151|460:223,1,175,6|0,0:0|1:0,0:0:0:0:
460,226,71282,1,0,1:0:0:0:
463,238,71371,1,2,1:2:0:0:
385,288,71547,6,0,B|345:296|345:296|226:291,1,125.999996154785,6|0,0:0|0:0,0:0:0:0:
220,307,71900,1,8,0:0:0:0:
207,303,71988,2,0,L|147:330,1,41.9999987182618,8|8,0:0|0:0,0:0:0:0:
74,366,72253,6,0,P|82:305|62:191,1,167.999994873047,6|2,0:0|1:2,0:0:0:0:
13,133,72782,1,10,0:0:0:0:
27,50,72959,2,0,P|38:30|114:2,1,83.9999974365235,0|2,0:0|1:2,0:0:0:0:
168,32,73312,1,2,1:2:0:0:
251,29,73488,1,10,0:2:0:0:
330,127,73665,6,0,P|342:185|327:312,1,167.999994873047,6|2,0:0|1:2,0:0:0:0:
269,348,74194,1,10,0:0:0:0:
209,287,74371,2,0,P|204:257|212:194,1,83.9999974365235,2|0,0:0|1:0,0:0:0:0:
225,121,74724,1,2,1:2:0:0:
216,37,74900,1,8,0:0:0:0:
119,118,75077,1,2,0:0:0:0:
119,118,75165,1,2,0:0:0:0:
119,118,75253,6,0,B|79:198|153:201|109:289,1,167.999994873047,4|10,0:0|0:0,0:0:0:0:
75,355,75782,1,2,0:0:0:0:
157,373,75959,2,0,P|219:371|263:356,1,83.9999974365235,2|2,1:2|1:2,0:0:0:0:
316,330,76312,1,8,0:0:0:0:
433,376,76488,6,0,P|421:300|428:198,1,167.999994873047,6|2,0:0|1:2,0:0:0:0:
402,128,77018,1,10,0:0:0:0:
328,97,77194,1,2,1:2:0:0:
328,97,77547,1,2,1:2:0:0:
268,156,77724,2,8,L|279:217,3,41.9999987182618
258,230,78077,6,0,L|180:239,1,73.4999977569581,4|0,0:0|0:0,0:0:0:0:
120,273,78429,2,0,L|46:264,1,73.4999977569581,2|2,1:2|0:0,0:0:0:0:
24,194,78782,2,0,L|97:185,1,73.4999977569581,2|0,1:2|0:0,0:0:0:0:
191,123,79135,2,0,L|118:115,1,73.4999977569581,2|2,1:2|0:0,0:0:0:0:
41,41,79488,6,0,L|118:37,1,77.0000023498536,0|2,1:0|0:0,0:0:0:0:
194,24,79841,2,0,L|270:33,1,77.0000023498536,2|0,1:2|0:0,0:0:0:0:
347,101,80194,2,0,L|271:111,1,77.0000023498536,2|0,1:2|0:0,0:0:0:0:
191,123,80547,1,10,0:0:0:0:
191,123,80900,6,0,P|186:170|193:213,1,87.5,14|0,0:0|1:0,0:0:0:0:
236,285,81253,1,2,1:2:0:0:
336,200,81429,6,0,P|341:153|334:110,1,87.5,14|0,0:0|1:0,0:0:0:0:
291,38,81782,1,0,1:0:0:0:
206,14,81959,1,8,0:0:0:0:
191,123,82135,1,6,0:0:0:0:
256,192,82224,12,4,83371,0:3:0:0:
159,101,83724,5,8,0:0:0:0:
104,195,83900,2,0,L|95:293,1,90.9999958343508,8|0,0:0|1:0,0:0:0:0:
195,330,84253,5,8,0:0:0:0:
232,227,84429,2,0,L|241:129,1,90.9999958343508,8|0,0:0|1:0,0:0:0:0:
345,105,84782,5,8,0:0:0:0:
429,161,84959,1,12,0:0:0:0:
256,192,85047,12,0,88312,0:0:0:0:
