osu file format v14

[General]
AudioFilename: audio.mp3
AudioLeadIn: 0
PreviewTime: 197143
Countdown: 0
SampleSet: Soft
StackLeniency: 0.7
Mode: 0
LetterboxInBreaks: 0
WidescreenStoryboard: 0

[Editor]
DistanceSpacing: 0.4
BeatDivisor: 4
GridSize: 32
TimelineZoom: 1.5

[Metadata]
Title:Gravitation
TitleUnicode:Gravitation
Artist:Kurosaki Maon
ArtistUnicode:黒崎真音
Creator:Yudragen
Version:Opposing Fates
Source:とある魔術の禁書目録Ⅲ
Tags:To aru Toaru Majiutsu no Index Touma Accelerator Misaka Mikoto reform xayah dakinibrave chaoticred synderes frostwich attendant anime japanese j rock Kujinn
BeatmapID:2084319
BeatmapSetID:996445

[Difficulty]
HPDrainRate:6
CircleSize:4.3
OverallDifficulty:9.4
ApproachRate:9.5
SliderMultiplier:1.8
SliderTickRate:1

[Events]
//Background and Video events
0,0,"wallhaven-0qe96r.png",0,0
//Break Periods
2,141620,143445
//Storyboard Layer 0 (Background)
//Storyboard Layer 1 (Fail)
//Storyboard Layer 2 (Pass)
//Storyboard Layer 3 (Foreground)
//Storyboard Layer 4 (Overlay)
//Storyboard Sound Samples

[TimingPoints]
1170,300,4,2,1,65,1,0
10770,-89.2857142857143,4,2,1,75,0,0
20370,-117.647058823529,4,2,1,65,0,0
27570,-100,4,2,1,65,0,0
29970,-117.647058823529,4,2,1,65,0,0
37170,-100,4,2,1,65,0,0
39570,-142.857142857143,4,2,1,55,0,0
44370,-142.857142857143,4,2,1,65,0,0
46770,-142.857142857143,4,2,1,85,0,0
48570,-83.3333333333333,4,2,1,45,0,0
49020,-79.3650793650794,4,2,1,75,0,1
63570,-79.3650793650794,4,2,1,65,0,1
70770,-79.3650793650794,4,2,1,85,0,1
73170,-250,4,2,1,35,0,0
79170,-87.719298245614,4,2,1,75,0,0
88770,-125,4,2,1,65,0,0
95970,-100,4,2,1,65,0,0
98370,-117.647058823529,4,2,1,65,0,0
107970,-142.857142857143,4,2,1,55,0,0
112770,-111.111111111111,4,2,1,65,0,0
115170,-111.111111111111,4,2,1,85,0,0
116970,-111.111111111111,4,2,1,45,0,0
117420,-77.5193798449612,4,2,1,75,0,1
131970,-77.5193798449612,4,2,1,65,0,1
139170,-77.5193798449612,4,2,1,85,0,1
141570,-250,4,2,1,35,0,0
143970,-500,4,2,1,45,0,0
153570,-181.818181818182,4,2,1,55,0,0
163170,-153.846153846154,4,2,1,55,0,0
173370,-153.846153846154,4,2,1,35,0,0
173970,-83.3333333333333,4,2,1,85,0,0
183570,-83.3333333333333,4,2,1,65,0,0
183870,-100,4,2,1,65,0,0
193170,-100,4,2,1,85,0,0
197820,-100,4,2,1,35,0,0
206970,-100,4,2,1,45,0,0
207570,-74.6268656716418,4,2,1,75,0,1
212370,-74.6268656716418,4,2,1,65,0,1
217020,-1000,4,2,1,35,0,0
217470,-57.1428571428571,4,2,1,75,0,1
217770,-74.0740740740741,4,2,1,75,0,1
217845,-74.0740740740741,4,2,1,5,0,1
217920,-74.0740740740741,4,2,1,75,0,1
217995,-74.0740740740741,4,2,1,5,0,1
218070,-74.0740740740741,4,2,1,75,0,1
218145,-74.0740740740741,4,2,1,5,0,1
218220,-74.0740740740741,4,2,1,75,0,1
231570,-74.0740740740741,4,2,1,65,0,1
236370,-74.0740740740741,4,2,1,75,0,1
238770,-74.0740740740741,4,2,1,85,0,1
241170,-222.222222222222,4,2,1,35,0,0
247170,-86.9565217391304,4,2,1,75,0,0
256770,-86.9565217391304,4,2,1,85,0,0

[Colours]
Combo1 : 182,131,132
Combo2 : 152,113,162
Combo3 : 99,109,158
Combo4 : 98,172,94

[HitObjects]
204,90,1170,6,0,L|107:74,1,90,6|2,3:2|3:2,0:0:0:0:
233,286,1470,1,10,3:2:0:0:
268,180,1620,1,0,0:0:0:0:
233,286,1770,2,0,L|330:270,1,90,10|0,3:2|0:0,0:0:0:0:
356,58,2070,1,10,3:2:0:0:
413,219,2220,2,0,P|433:164|413:106,1,90,2|0,3:2|0:0,0:0:0:0:
456,301,2520,1,0,3:2:0:0:
350,161,2670,1,10,3:2:0:0:
224,307,2820,2,0,L|127:291,1,90,0|8,0:0|3:2,0:0:0:0:
135,292,3045,1,8,3:2:0:0:
135,292,3120,1,0,3:2:0:0:
247,186,3270,1,8,0:0:0:0:
12,96,3420,6,0,B|84:77|84:77|118:94|118:94|203:71,1,180,6|0,3:2|3:2,0:0:0:0:
131,218,3870,1,10,3:2:0:0:
71,157,4020,1,0,0:0:0:0:
274,230,4170,1,10,3:2:0:0:
224,307,4320,1,0,0:0:0:0:
382,208,4470,1,10,3:2:0:0:
228,131,4620,2,0,P|244:54|252:0,1,90,2|0,3:2|0:0,0:0:0:0:
387,231,4920,1,8,3:2:0:0:
451,70,5070,1,10,3:2:0:0:
309,166,5220,1,2,3:2:0:0:
496,263,5370,1,8,3:2:0:0:
496,263,5445,1,8,3:2:0:0:
496,263,5520,1,0,3:2:0:0:
377,90,5670,1,8,0:0:0:0:
243,323,5820,6,0,B|138:307|203:251|85:234,1,180,6|0,3:2|3:2,0:0:0:0:
283,144,6270,2,0,P|252:220|241:268,1,90,10|0,3:2|0:0,0:0:0:0:
175,0,6570,2,0,P|194:41|209:84,1,90,10|0,3:2|0:0,0:0:0:0:
353,222,6870,1,10,3:2:0:0:
500,32,7020,2,0,P|418:17|342:72,1,180,2|8,3:2|3:2,0:0:0:0:
468,271,7470,1,10,3:2:0:0:
277,127,7620,1,2,3:2:0:0:
443,120,7770,1,8,3:2:0:0:
443,120,7845,1,8,3:2:0:0:
443,120,7920,1,0,3:2:0:0:
346,319,8070,1,8,0:0:0:0:
193,86,8220,6,0,P|210:33|219:-15,1,90,6|0,3:2|0:0,0:0:0:0:
244,313,8520,1,0,3:2:0:0:
64,139,8670,1,10,3:2:0:0:
299,165,8820,1,0,0:0:0:0:
98,295,8970,1,10,3:2:0:0:
193,86,9120,1,0,0:0:0:0:
172,359,9270,1,10,3:2:0:0:
102,19,9420,1,2,3:2:0:0:
102,19,10170,6,0,P|75:31|69:38,14,22.5,2|0|0|0|0|0|0|0|0|0|0|0|0|0|0,0:0|0:0|0:0|0:0|0:0|0:0|0:0|0:0|0:0|0:0|0:0|0:0|0:0|0:0|0:0,0:0:0:0:
44,90,10770,6,0,P|56:152|69:219,1,100.800001230469,4|0,3:2|0:0,0:0:0:0:
187,358,11070,2,0,P|230:295|183:204,1,151.200001845703,10|0,3:2|0:0,0:0:0:0:
206,234,11370,1,0,3:2:0:0:
361,373,11520,2,0,P|417:356|467:338,1,100.800001230469,2|8,0:0|3:2,0:0:0:0:
508,285,11820,1,0,0:0:0:0:
300,190,11970,6,0,B|315:119|315:119|289:78|289:78|307:-6,1,201.600002460938,6|8,3:2|3:2,0:0:0:0:
126,142,12420,2,0,B|173:123|173:123|222:141,1,100.800001230469,6|0,0:0|3:2,0:0:0:0:
476,63,12720,2,0,B|429:81|429:81|382:62,1,100.800001230469,6|8,0:0|3:2,0:0:0:0:
297,7,13020,1,0,0:0:0:0:
466,213,13170,5,0,3:2:0:0:
394,160,13320,1,0,0:0:0:0:
341,317,13470,2,0,L|319:191,1,100.800001230469,10|2,3:2|0:0,0:0:0:0:
197,375,13770,1,0,3:2:0:0:
93,244,13920,2,0,P|26:252|-6:292,1,100.800001230469,2|8,0:0|3:2,0:0:0:0:
146,157,14220,1,0,0:0:0:0:
212,358,14370,6,0,P|225:252|240:123,1,201.600002460938,6|8,3:2|3:2,0:0:0:0:
390,76,14820,2,0,P|357:131|287:136,1,100.800001230469,6|0,0:0|3:2,0:0:0:0:
491,259,15120,2,0,P|458:204|388:199,1,100.800001230469,6|8,0:0|3:2,0:0:0:0:
200,72,15420,1,0,3:2:0:0:
200,72,15495,1,0,3:2:0:0:
200,72,15570,6,0,L|320:51,1,100.800001230469,0|0,3:2|0:0,0:0:0:0:
154,175,15870,2,0,L|-4:147,1,151.200001845703,10|0,3:2|0:0,0:0:0:0:
13,145,16170,1,0,3:2:0:0:
129,359,16320,2,0,P|162:309|152:252,1,100.800001230469,2|8,0:0|3:2,0:0:0:0:
63,65,16620,1,0,0:0:0:0:
241,222,16770,6,0,P|357:197|478:173,1,201.600002460938,6|8,3:2|3:2,0:0:0:0:
373,384,17220,2,0,P|332:308|323:258,1,100.800001230469,6|0,0:0|3:2,0:0:0:0:
328,37,17520,2,0,P|310:84|283:126,1,100.800001230469,6|8,0:0|3:2,0:0:0:0:
205,146,17820,1,0,0:0:0:0:
456,310,17970,5,0,3:2:0:0:
500,108,18120,1,0,3:2:0:0:
500,108,18195,1,0,3:2:0:0:
500,108,18270,1,2,3:2:0:0:
358,221,18420,1,8,3:2:0:0:
235,18,18570,1,0,3:2:0:0:
413,163,18720,1,2,3:2:0:0:
181,264,18870,1,8,3:2:0:0:
278,100,19020,1,0,3:2:0:0:
406,382,19170,5,6,3:2:0:0:
303,335,19320,1,0,3:2:0:0:
303,335,19395,1,0,3:2:0:0:
303,335,19470,1,0,3:2:0:0:
511,290,19620,2,0,P|438:271|399:221,1,100.800001230469,14|0,3:2|3:2,0:0:0:0:
99,192,19920,2,0,P|172:173|211:123,1,100.800001230469,6|8,3:2|3:2,0:0:0:0:
322,4,20220,1,2,3:2:0:0:
379,55,20370,6,0,L|194:32,1,153.000002918243,2|10,3:2|3:2,0:0:0:0:
147,70,20820,2,0,P|168:120|179:165,1,76.5000014591217,2|0,0:0|0:0,0:0:0:0:
279,225,21120,2,0,P|197:223|153:304,1,153.000002918243,2|2,3:2|0:0,0:0:0:0:
200,342,21570,6,0,B|258:329|258:329|292:344|292:344|354:328,1,153.000002918243,2|10,3:2|3:2,0:0:0:0:
428,374,22020,2,0,L|441:227,1,114.750002188683,2|0,0:0|0:0,0:0:0:0:
435,265,22320,2,0,L|416:177,1,76.5000014591217,2|8,3:2|3:2,0:0:0:0:
465,120,22620,1,2,0:0:0:0:
272,56,22770,5,2,3:2:0:0:
272,56,23070,1,10,3:2:0:0:
222,119,23220,1,2,0:0:0:0:
145,81,23370,1,0,0:0:0:0:
54,232,23520,1,2,3:2:0:0:
133,190,23670,1,10,3:2:0:0:
65,125,23820,1,2,0:0:0:0:
139,330,23970,5,2,3:2:0:0:
277,309,24120,2,0,L|177:283,1,76.5000014591217,2|8,0:0|3:2,0:0:0:0:
373,369,24420,2,0,P|395:314|363:240,1,114.750002188683,2|0,0:0|0:0,0:0:0:0:
379,271,24720,2,0,P|353:228|355:180,1,76.5000014591217,2|8,3:2|3:2,0:0:0:0:
413,93,25020,1,2,3:2:0:0:
240,179,25170,6,0,L|118:160,1,114.750002188683,2|0,3:2|0:0,0:0:0:0:
133,157,25470,1,10,3:2:0:0:
78,101,25620,1,2,0:2:0:0:
1,191,25770,2,0,P|17:232|26:281,1,76.5000014591217,2|0,0:2|3:2,0:0:0:0:
82,362,26070,1,8,3:2:0:0:
134,306,26220,1,2,0:2:0:0:
206,358,26370,6,0,P|276:350|378:337,1,153.000002918243,2|10,3:2|3:2,0:0:0:0:
422,286,26820,2,0,P|438:250|412:195,1,76.5000014591217,2|0,0:2|0:0,0:0:0:0:
359,165,27120,2,0,P|343:129|369:74,2,76.5000014591217,2|8|0,3:2|0:0|0:0,0:0:0:0:
164,68,27570,6,0,P|220:33|293:38,1,135,2|0,3:2|0:0,0:0:0:0:
281,29,27870,1,8,3:2:0:0:
162,165,28020,2,0,L|15:132,1,135,0|0,3:2|0:0,0:0:0:0:
38,131,28320,1,0,3:2:0:0:
139,294,28470,1,8,3:2:0:0:
201,245,28620,1,0,0:0:0:0:
288,356,28770,6,0,P|403:338|445:332,1,135,2|0,3:2|0:0,0:0:0:0:
414,332,29070,1,8,3:2:0:0:
475,276,29220,1,0,3:2:0:0:
301,159,29370,1,0,3:2:0:0:
377,250,29520,1,0,3:2:0:0:
447,130,29670,1,8,3:2:0:0:
386,166,29820,1,2,0:0:0:0:
240,11,29970,5,2,3:2:0:0:
240,11,30270,1,10,3:2:0:0:
188,60,30420,1,2,2:2:0:0:
251,150,30570,1,2,2:2:0:0:
179,189,30720,1,2,3:2:0:0:
108,141,30870,1,10,3:2:0:0:
26,310,31020,1,2,2:2:0:0:
109,258,31170,6,0,P|54:242|27:216,1,76.5000014591217,2|0,3:2|0:0,0:0:0:0:
181,371,31470,1,10,3:2:0:0:
241,331,31620,2,0,P|307:344|341:350,1,76.5000014591217,2|0,2:2|0:0,0:0:0:0:
394,240,31920,2,0,P|356:247|318:254,1,76.5000014591217,2|8,3:2|3:2,0:0:0:0:
460,320,32220,1,2,2:2:0:0:
509,128,32370,5,2,3:2:0:0:
509,128,32670,1,10,3:2:0:0:
440,73,32820,1,0,0:0:0:0:
313,154,32970,1,2,0:2:0:0:
268,82,33120,1,2,3:2:0:0:
347,15,33270,1,10,3:2:0:0:
360,86,33420,1,2,0:2:0:0:
130,24,33570,5,2,3:2:0:0:
172,82,33720,2,0,P|160:141|154:172,1,76.5000014591217,2|8,0:2|3:2,0:0:0:0:
80,282,34020,2,0,P|72:244|64:207,1,76.5000014591217,2|0,0:2|0:0,0:0:0:0:
196,275,34320,2,0,P|243:264|287:251,1,76.5000014591217,2|8,3:2|3:2,0:0:0:0:
340,291,34620,1,2,0:2:0:0:
435,144,34770,6,0,P|417:81|408:31,1,114.750002188683,2|0,3:2|0:0,0:0:0:0:
414,39,35070,1,10,3:2:0:0:
334,95,35220,1,0,0:0:0:0:
187,8,35370,1,2,0:2:0:0:
272,43,35520,1,2,3:2:0:0:
170,123,35670,1,10,3:2:0:0:
272,43,35820,1,2,0:2:0:0:
364,218,35970,6,0,P|293:205|197:186,1,153.000002918243,2|10,3:2|3:2,0:0:0:0:
150,243,36420,2,0,P|167:285|172:321,1,76.5000014591217,2|0,0:2|3:2,0:0:0:0:
75,197,36720,2,0,P|81:159|96:124,1,76.5000014591217,2|8,3:2|3:2,0:0:0:0:
162,80,37020,1,0,0:0:0:0:
404,298,37170,6,0,P|445:254|413:159,1,135,2|0,3:2|0:0,0:0:0:0:
435,191,37470,1,8,3:2:0:0:
294,120,37620,2,0,P|397:105|448:97,1,135,0|0,3:2|0:0,0:0:0:0:
422,106,37920,1,0,3:2:0:0:
350,21,38070,1,8,3:2:0:0:
254,201,38220,1,0,0:0:0:0:
179,60,38370,5,2,3:2:0:0:
179,60,38445,1,0,3:2:0:0:
179,60,38520,1,0,3:2:0:0:
179,60,38595,1,0,3:2:0:0:
179,60,38670,1,8,3:2:0:0:
107,256,38820,1,0,3:2:0:0:
248,184,38970,1,0,3:2:0:0:
66,141,39120,1,0,3:2:0:0:
248,184,39270,1,8,3:2:0:0:
25,267,39420,1,0,0:0:0:0:
233,380,39570,5,2,3:2:0:0:
233,380,39720,2,0,P|228:336|224:304,1,62.9999980773926,2|0,0:0|3:2,0:0:0:0:
336,324,40020,1,2,0:0:0:0:
336,324,40170,2,0,P|341:280|345:248,1,62.9999980773926,10|0,3:2|0:0,0:0:0:0:
174,227,40470,1,2,0:2:0:0:
174,227,40620,2,0,P|224:235|286:187,1,125.999996154785,2|2,3:2|3:2,0:0:0:0:
322,124,41070,2,0,P|317:91|314:53,1,62.9999980773926,2|0,0:0|3:2,0:0:0:0:
377,7,41370,1,10,3:2:0:0:
377,7,41520,1,2,0:0:0:0:
440,58,41670,2,0,P|415:139|407:177,1,94.499997116089,2|0,3:2|0:0,0:0:0:0:
407,141,41970,6,0,P|445:174|448:269,1,125.999996154785,2|2,3:2|3:2,0:0:0:0:
409,312,42420,2,0,P|365:302|326:292,1,62.9999980773926,2|8,0:0|3:2,0:0:0:0:
294,349,42720,2,0,P|250:359|211:369,1,62.9999980773926,2|0,0:0|0:0,0:0:0:0:
167,322,43020,2,0,B|141:263|141:263|167:198,2,125.999996154785,2|2|2,3:2|3:2|3:2,0:0:0:0:
234,160,43770,1,8,3:2:0:0:
234,160,44070,1,8,3:2:0:0:
105,96,44220,1,8,3:2:0:0:
309,20,44370,5,10,3:2:0:0:
228,260,44520,1,2,3:2:0:0:
127,188,44670,1,8,3:2:0:0:
415,88,44820,5,2,3:2:0:0:
143,183,44970,1,10,3:2:0:0:
235,82,45120,1,0,3:2:0:0:
394,351,45270,5,10,3:2:0:0:
250,80,45420,1,2,3:2:0:0:
407,106,45570,1,8,3:2:0:0:
114,344,45720,5,2,3:2:0:0:
357,222,45870,1,10,3:2:0:0:
126,167,46020,1,0,3:2:0:0:
328,383,46170,1,10,3:2:0:0:
390,108,46320,1,2,3:2:0:0:
240,294,46470,1,10,3:2:0:0:
149,75,46620,1,0,3:2:0:0:
331,265,46770,5,8,3:2:0:0:
331,265,46845,1,8,3:2:0:0:
331,265,46920,1,0,3:2:0:0:
407,0,47070,1,8,3:2:0:0:
454,274,47220,1,8,3:2:0:0:
236,18,47370,1,8,3:2:0:0:
166,332,47520,1,8,3:2:0:0:
315,53,47670,1,8,3:2:0:0:
390,364,47820,5,10,3:2:0:0:
65,380,48570,5,2,0:0:0:0:
47,356,48645,1,2,0:0:0:0:
48,322,48720,1,2,0:0:0:0:
73,290,48795,1,2,0:0:0:0:
90,255,48870,2,0,P|99:235|89:198,1,53.9999983520508,10|2,3:2|0:0,0:0:0:0:
33,122,49020,6,0,P|8:89|128:32,1,226.799993078614,6|0,3:2|3:2,0:0:0:0:
309,213,49470,2,0,P|256:201|195:157,1,113.399996539307,10|0,3:2|0:0,0:0:0:0:
355,45,49770,1,2,3:2:0:0:
427,275,49920,1,0,3:2:0:0:
264,104,50070,1,10,3:2:0:0:
210,332,50220,6,0,B|122:310|122:310|101:269|101:269|5:244,1,226.799993078614,2|0,0:0|0:0,0:0:0:0:
240,120,50670,2,0,P|211:195|201:234,1,113.399996539307,10|0,3:2|0:0,0:0:0:0:
159,36,50970,1,2,3:2:0:0:
347,143,51120,1,0,3:2:0:0:
159,36,51270,2,0,P|93:24|9:9,1,113.399996539307,10|0,3:2|0:0,0:0:0:0:
370,235,51570,6,0,P|437:172|397:73,1,170.09999480896,2|0,3:2|0:0,0:0:0:0:
422,107,51870,2,0,P|397:69|410:-14,1,113.399996539307,10|0,3:2|0:0,0:0:0:0:
502,231,52170,1,2,3:2:0:0:
232,169,52320,2,0,P|298:157|382:142,1,113.399996539307,2|8,3:2|3:2,0:0:0:0:
148,294,52620,1,2,3:2:0:0:
148,294,52695,1,0,3:2:0:0:
148,294,52770,6,0,P|130:222|117:157,1,113.399996539307,0|0,3:2|0:0,0:0:0:0:
254,384,53070,2,0,P|272:312|285:247,1,113.399996539307,8|0,3:2|0:0,0:0:0:0:
277,80,53370,1,0,3:2:0:0:
383,248,53520,1,0,3:2:0:0:
158,104,53670,2,0,P|103:95|55:124,1,113.399996539307,8|0,3:2|0:0,0:0:0:0:
94,344,53970,6,0,B|69:253|141:276|121:178,1,170.09999480896,2|0,3:2|0:0,0:0:0:0:
130,190,54270,2,0,P|150:262|154:309,1,113.399996539307,10|0,3:2|0:0,0:0:0:0:
215,136,54570,1,2,3:2:0:0:
29,240,54720,1,0,3:2:0:0:
239,357,54870,1,10,3:2:0:0:
380,220,55020,1,2,3:2:0:0:
380,220,55095,1,0,3:2:0:0:
380,220,55170,6,0,P|314:235|247:253,1,113.399996539307,2|0,3:2|0:0,0:0:0:0:
512,133,55470,2,0,P|446:118|379:100,1,113.399996539307,10|0,3:2|0:0,0:0:0:0:
258,73,55770,1,2,3:2:0:0:
455,28,55920,1,0,3:2:0:0:
257,268,56070,2,0,P|227:224|231:149,1,113.399996539307,10|0,3:2|0:0,0:0:0:0:
43,11,56370,6,0,B|27:69|27:69|42:103|42:103|25:181,1,170.09999480896,2|0,3:2|0:0,0:0:0:0:
33,171,56670,2,0,P|87:201|142:180,1,113.399996539307,10|0,3:2|0:0,0:0:0:0:
315,76,56970,1,2,3:2:0:0:
157,274,57120,1,2,3:2:0:0:
110,63,57270,1,8,3:2:0:0:
362,287,57420,1,2,3:2:0:0:
362,287,57495,1,8,3:2:0:0:
362,287,57570,5,6,3:2:0:0:
237,3,57720,1,2,3:2:0:0:
447,123,57870,1,8,3:2:0:0:
449,104,58170,5,6,3:2:0:0:
140,192,58320,1,2,3:2:0:0:
349,306,58470,2,0,P|339:250|330:194,1,113.399996539307,8|0,3:2|3:2,0:0:0:0:
110,51,58770,5,6,3:2:0:0:
192,101,58920,1,0,0:0:0:0:
147,187,59070,1,10,3:2:0:0:
290,122,59220,1,2,0:0:0:0:
147,187,59370,1,2,3:2:0:0:
270,14,59520,1,0,3:2:0:0:
354,248,59670,1,10,3:2:0:0:
142,312,59820,1,2,3:2:0:0:
142,312,59895,1,0,3:2:0:0:
142,312,59970,6,0,L|270:274,1,113.399996539307,0|0,3:2|0:0,0:0:0:0:
490,169,60270,2,0,P|451:233|461:287,1,113.399996539307,10|0,3:2|0:0,0:0:0:0:
286,123,60570,1,2,3:2:0:0:
511,26,60720,1,0,3:2:0:0:
286,123,60870,2,0,L|157:85,1,113.399996539307,10|0,3:2|0:0,0:0:0:0:
49,187,61170,5,2,3:2:0:0:
121,253,61320,1,2,0:0:0:0:
201,204,61470,1,8,3:2:0:0:
303,368,61620,1,2,0:0:0:0:
236,295,61770,1,2,3:2:0:0:
313,227,61920,1,0,3:2:0:0:
427,342,62070,1,10,3:2:0:0:
512,166,62220,1,0,3:2:0:0:
512,166,62295,1,0,3:2:0:0:
512,166,62370,6,0,P|446:145|385:100,1,113.399996539307,0|0,3:2|0:0,0:0:0:0:
222,288,62670,2,0,P|270:259|325:243,1,113.399996539307,10|0,3:2|0:0,0:0:0:0:
171,70,62970,1,2,3:2:0:0:
107,248,63120,1,0,3:2:0:0:
288,152,63270,2,0,P|267:85|252:21,1,113.399996539307,10|0,3:2|0:0,0:0:0:0:
33,159,63570,5,2,3:2:0:0:
206,227,63720,1,0,0:0:0:0:
132,86,63870,1,8,3:2:0:0:
105,271,64020,2,0,L|89:384,1,113.399996539307,0|0,3:2|0:0,0:0:0:0:
210,131,64320,1,0,3:2:0:0:
321,319,64470,2,0,L|305:207,1,113.399996539307,8|0,3:2|0:0,0:0:0:0:
506,31,64770,5,0,3:2:0:0:
402,132,64920,1,0,3:2:0:0:
281,28,65070,2,0,P|229:2|147:31,1,113.399996539307,10|0,3:2|3:2,0:0:0:0:
407,145,65370,2,0,P|462:152|511:126,1,113.399996539307,2|0,0:2|3:2,0:0:0:0:
285,221,65670,2,0,P|271:275|256:330,1,113.399996539307,10|0,3:2|0:0,0:0:0:0:
475,222,65970,5,2,3:2:0:0:
264,134,66120,1,0,0:0:0:0:
350,302,66270,1,8,3:2:0:0:
449,84,66420,2,0,P|459:139|468:195,1,113.399996539307,0|0,3:2|0:0,0:0:0:0:
336,9,66720,1,0,3:2:0:0:
256,151,66870,2,0,P|245:206|236:262,1,113.399996539307,8|0,3:2|0:0,0:0:0:0:
70,79,67170,5,0,3:2:0:0:
129,263,67320,1,0,3:2:0:0:
170,119,67470,1,10,3:2:0:0:
39,262,67620,1,0,3:2:0:0:
284,180,67770,1,2,0:2:0:0:
56,102,67920,5,8,3:2:0:0:
231,300,68070,1,10,3:2:0:0:
155,21,68220,1,8,3:2:0:0:
26,288,68370,6,0,B|144:255|114:362|247:325,2,226.799993078614,6|8|0,3:2|3:2|3:2,0:0:0:0:
197,242,69120,1,0,3:2:0:0:
28,93,69270,2,0,P|55:153|67:206,1,113.399996539307,8|0,3:2|0:0,0:0:0:0:
100,21,69570,6,0,P|165:5|235:105,1,170.09999480896,0|0,3:2|0:0,0:0:0:0:
241,64,69870,2,0,P|292:102|366:76,1,113.399996539307,10|0,3:2|0:0,0:0:0:0:
476,174,70170,1,2,3:2:0:0:
416,0,70320,1,0,3:2:0:0:
484,186,70470,2,0,P|468:246|455:311,1,113.399996539307,10|0,3:2|0:0,0:0:0:0:
170,207,70770,5,14,3:2:0:0:
492,38,70920,1,0,3:2:0:0:
111,111,71070,5,10,3:2:0:0:
381,332,71220,1,0,3:2:0:0:
330,15,71370,5,14,3:2:0:0:
202,332,71520,1,0,3:2:0:0:
90,17,71670,5,10,3:2:0:0:
292,356,71820,1,0,3:2:0:0:
67,210,71970,5,14,3:2:0:0:
411,92,72120,1,0,3:2:0:0:
115,348,72270,5,10,3:2:0:0:
223,0,72420,1,0,3:2:0:0:
348,353,72570,5,14,3:2:0:0:
98,22,72720,1,0,3:2:0:0:
47,383,72870,5,14,3:2:0:0:
307,26,73020,1,0,3:2:0:0:
161,72,73170,6,0,P|201:76|241:81,1,72,2|2,0:0|0:0,0:0:0:0:
288,125,73620,2,0,P|328:120|368:116,1,72,2|0,0:0|0:0,0:0:0:0:
411,70,74070,1,2,0:0:0:0:
410,65,75570,6,0,P|414:105|419:145,1,72,2|2,0:0|0:0,0:0:0:0:
463,189,76020,2,0,P|458:229|454:269,1,72,2|0,0:0|0:0,0:0:0:0:
410,311,76470,1,2,0:0:0:0:
410,311,77970,5,0,3:2:0:0:
350,349,78120,1,0,0:0:0:0:
287,307,78270,1,8,3:1:0:0:
285,235,78420,1,0,0:0:0:0:
173,130,78570,5,2,3:2:0:0:
236,168,78720,1,0,0:0:0:0:
297,129,78870,1,8,3:1:0:0:
279,60,79020,2,0,P|265:64|258:70,1,18,0|0,0:0|0:0,0:0:0:0:
91,274,79170,6,0,P|78:211|68:162,1,102.599998747559,4|0,3:2|0:0,0:0:0:0:
273,384,79470,2,0,P|283:333|305:224,1,153.899998121338,10|0,3:2|0:0,0:0:0:0:
307,240,79770,1,0,3:2:0:0:
399,75,79920,2,0,P|433:118|413:198,1,102.599998747559,2|8,0:0|3:2,0:0:0:0:
504,45,80220,1,0,0:0:0:0:
132,3,80370,2,0,B|247:16|192:87|297:112,1,205.199997495117,6|8,3:2|3:2,0:0:0:0:
124,196,80820,2,0,B|149:150|149:150|130:70,1,102.599998747559,6|0,0:0|3:2,0:0:0:0:
35,237,81120,2,0,B|23:285|23:285|48:331,1,102.599998747559,6|8,0:0|3:2,0:0:0:0:
114,375,81420,1,0,0:0:0:0:
304,246,81570,5,0,3:2:0:0:
223,213,81720,1,0,0:0:0:0:
276,338,81870,2,0,L|385:312,1,102.599998747559,10|2,3:2|0:0,0:0:0:0:
428,106,82170,1,0,3:2:0:0:
501,262,82320,2,0,P|494:197|488:144,1,102.599998747559,2|8,0:0|3:2,0:0:0:0:
265,58,82620,1,0,0:0:0:0:
218,241,82770,2,0,P|253:150|350:140,1,205.199997495117,6|8,3:2|3:2,0:0:0:0:
188,95,83220,2,0,P|186:27|226:-17,1,102.599998747559,6|0,0:0|3:2,0:0:0:0:
104,130,83520,2,0,P|126:175|120:225,1,102.599998747559,6|8,0:0|3:2,0:0:0:0:
64,274,83820,1,0,0:0:0:0:
250,363,83970,5,0,3:2:0:0:
297,288,84120,1,0,0:0:0:0:
400,333,84270,2,0,P|350:318|300:306,1,102.599998747559,10|2,3:2|0:0,0:0:0:0:
512,223,84570,1,0,3:2:0:0:
353,194,84720,2,0,P|402:179|452:167,1,102.599998747559,2|8,0:0|3:2,0:0:0:0:
233,31,85020,1,0,0:0:0:0:
201,306,85170,6,0,P|178:118|172:66,1,205.199997495117,6|8,3:2|3:2,0:0:0:0:
355,171,85620,2,0,P|298:244|247:246,1,102.599998747559,6|0,0:0|3:2,0:0:0:0:
484,357,85920,2,0,P|427:284|376:282,1,102.599998747559,6|8,0:0|3:2,0:0:0:0:
480,89,86220,1,0,3:2:0:0:
480,89,86295,1,0,3:2:0:0:
480,89,86370,5,0,3:2:0:0:
402,298,86520,1,0,3:2:0:0:
208,45,86670,1,2,3:2:0:0:
417,180,86820,1,8,3:2:0:0:
178,265,86970,1,0,3:2:0:0:
294,46,87120,1,2,3:2:0:0:
337,326,87270,1,8,3:2:0:0:
186,70,87420,1,0,3:2:0:0:
108,349,87570,5,6,3:2:0:0:
211,286,87720,1,0,3:2:0:0:
211,286,87795,1,0,3:2:0:0:
211,286,87870,1,0,3:2:0:0:
21,165,88020,2,0,P|4:261|-5:301,1,102.599998747559,14|0,3:2|3:2,0:0:0:0:
164,101,88320,2,0,P|154:50|145:0,1,102.599998747559,6|8,3:2|3:2,0:0:0:0:
237,176,88620,1,2,3:2:0:0:
302,132,88770,6,0,P|359:141|394:147,1,72,2|0,3:2|0:0,0:0:0:0:
440,196,89070,2,0,P|401:229|391:274,1,72,2|2,3:2|0:0,0:0:0:0:
421,329,89370,1,8,3:2:0:0:
421,329,89520,1,2,2:2:0:0:
345,372,89670,2,0,P|277:361|244:356,1,72,2|0,2:2|3:2,0:0:0:0:
140,205,89970,6,0,P|202:242|200:322,1,144,2|2,2:2|3:2,0:0:0:0:
68,267,90420,2,0,P|48:192|35:104,1,144,2|2,2:2|3:2,0:0:0:0:
82,55,90870,1,0,3:2:0:0:
232,205,91020,1,2,2:2:0:0:
294,135,91170,6,0,P|209:118|128:92,2,144,2|2|10,3:2|3:2|3:2,0:0:0:0:
430,188,91920,1,2,2:2:0:0:
430,188,92070,2,0,P|418:225|415:261,1,72,2|2,2:2|3:2,0:0:0:0:
350,322,92370,5,2,2:2:0:0:
350,322,92520,2,0,P|262:298|247:294,1,72,2|0,3:2|3:2,0:0:0:0:
195,285,92820,2,0,P|174:231|196:191,1,72,2|8,2:2|3:2,0:0:0:0:
195,131,93120,2,0,P|242:120|319:100,1,108,10|0,3:2|0:0,0:0:0:0:
294,101,93420,1,10,3:2:0:0:
395,41,93570,6,0,P|348:30|271:10,1,108,2|0,3:2|0:0,0:0:0:0:
296,10,93870,2,0,P|255:11|214:37,1,72,2|2,3:2|2:2,0:0:0:0:
149,63,94170,2,0,P|107:62|66:36,1,72,10|2,3:2|2:2,0:0:0:0:
7,105,94470,1,2,2:2:0:0:
7,105,94620,1,2,3:2:0:0:
62,173,94770,6,0,P|53:255|41:329,1,144,2|2,2:2|3:2,0:0:0:0:
106,373,95220,2,0,P|166:361|202:367,1,72,2|8,2:2|3:2,0:0:0:0:
233,299,95520,2,0,P|220:260|204:204,2,72,2|0|0,3:2|3:2|0:0,0:0:0:0:
452,334,95970,6,0,P|438:294|516:205,1,135,2|0,3:2|0:0,0:0:0:0:
481,224,96270,2,0,P|508:178|484:122,1,90,8|0,3:2|0:0,0:0:0:0:
400,22,96570,1,0,3:2:0:0:
343,144,96720,1,0,3:2:0:0:
400,22,96870,1,8,3:2:0:0:
473,136,97020,1,0,0:0:0:0:
269,52,97170,6,0,P|212:53|161:141,1,135,2|0,3:2|0:0,0:0:0:0:
170,106,97470,1,8,3:2:0:0:
343,144,97620,1,0,3:2:0:0:
216,277,97770,2,0,P|225:256|226:219,1,45,8|8,3:2|3:2,0:0:0:0:
86,73,97920,1,8,3:2:0:0:
32,103,97995,1,8,3:2:0:0:
17,162,98070,1,8,3:2:0:0:
44,210,98145,1,8,3:2:0:0:
70,265,98220,1,10,3:2:0:0:
54,326,98295,1,8,3:2:0:0:
4,354,98370,6,0,B|67:344|168:330,1,153.000002918243,2|10,3:2|3:2,0:0:0:0:
271,366,98820,2,0,P|245:320|231:262,1,76.5000014591217,2|0,0:2|3:2,0:0:0:0:
363,201,99120,1,2,3:2:0:0:
314,269,99270,1,10,3:2:0:0:
195,184,99420,1,2,0:2:0:0:
313,121,99570,6,0,P|253:109|196:96,1,114.750002188683,2|0,3:2|0:0,0:0:0:0:
208,94,99870,1,10,3:2:0:0:
133,244,100020,2,0,P|115:216|115:160,1,76.5000014591217,2|0,0:2|3:2,0:0:0:0:
44,83,100320,2,0,P|41:120|22:153,1,76.5000014591217,2|8,3:2|3:2,0:0:0:0:
107,14,100620,1,2,0:2:0:0:
315,146,100770,6,0,B|407:151|378:93|465:100,1,153.000002918243,2|10,3:2|3:2,0:0:0:0:
493,249,101220,2,0,P|464:215|448:174,1,76.5000014591217,2|0,0:2|3:2,0:0:0:0:
336,340,101520,1,2,3:2:0:0:
414,289,101670,1,10,3:2:0:0:
227,209,101820,1,2,0:2:0:0:
247,365,101970,5,2,3:2:0:0:
187,323,102120,2,0,P|110:305|76:298,1,76.5000014591217,2|8,0:2|3:2,0:0:0:0:
291,208,102420,2,0,P|214:225|180:232,1,76.5000014591217,2|0,0:2|3:2,0:0:0:0:
92,83,102720,2,0,P|93:120|115:152,1,76.5000014591217,2|8,3:2|3:2,0:0:0:0:
190,17,103020,1,2,0:2:0:0:
290,122,103170,6,0,P|226:106|141:91,1,114.750002188683,2|0,3:2|0:0,0:0:0:0:
184,94,103470,1,10,3:2:0:0:
134,170,103620,1,2,0:2:0:0:
15,229,103770,1,2,3:2:0:0:
41,309,103920,1,2,3:2:0:0:
199,281,104070,1,10,3:2:0:0:
126,249,104220,1,2,0:2:0:0:
192,381,104370,5,2,3:2:0:0:
256,349,104520,2,0,P|294:354|333:361,1,76.5000014591217,0|10,0:0|3:2,0:0:0:0:
398,213,104820,2,0,P|365:246|353:281,1,76.5000014591217,2|0,0:2|3:2,0:0:0:0:
296,178,105120,2,0,P|280:143|252:117,1,76.5000014591217,2|8,3:2|3:2,0:0:0:0:
264,37,105420,1,0,0:0:0:0:
124,200,105570,6,0,P|75:136|116:57,1,153.000002918243,2|8,3:2|3:2,0:0:0:0:
204,248,106020,2,0,P|180:307|170:334,1,76.5000014591217,0|0,3:2|0:0,0:0:0:0:
282,191,106320,2,0,P|296:226|310:261,1,76.5000014591217,0|8,3:2|3:2,0:0:0:0:
351,125,106620,2,0,P|369:119|388:120,1,38.2500007295609,2|0,0:0|0:0,0:0:0:0:
439,220,106770,5,2,3:2:0:0:
439,220,106845,1,0,3:2:0:0:
439,220,106920,1,0,3:2:0:0:
439,220,106995,1,0,3:2:0:0:
439,220,107070,1,8,3:2:0:0:
465,69,107220,2,0,P|480:126|487:161,1,76.5000014591217,0|0,3:2|3:2,0:0:0:0:
376,370,107520,2,0,P|384:332|394:295,1,76.5000014591217,0|8,3:2|3:2,0:0:0:0:
449,235,107820,1,0,3:2:0:0:
242,106,107970,5,2,3:2:0:0:
242,106,108120,2,0,P|286:94|318:72,1,62.9999980773926,2|0,0:0|3:2,0:0:0:0:
173,179,108420,1,2,3:2:0:0:
173,179,108570,2,0,P|217:191|249:213,1,62.9999980773926,2|0,3:2|3:2,0:0:0:0:
120,103,108870,1,2,3:2:0:0:
120,103,109020,2,0,P|106:114|105:234,1,125.999996154785,2|2,3:2|3:2,0:0:0:0:
152,265,109470,2,0,P|168:299|162:338,1,62.9999980773926,2|0,3:2|3:2,0:0:0:0:
235,377,109770,1,2,3:2:0:0:
235,377,109920,1,2,3:2:0:0:
235,377,110070,2,0,L|307:368,1,62.9999980773926,2|8,3:2|0:2,0:0:0:0:
409,244,110370,6,0,P|334:254|298:318,1,125.999996154785,2|2,3:2|3:2,0:0:0:0:
446,374,110820,2,0,P|451:332|457:303,1,62.9999980773926,2|0,3:2|3:2,0:0:0:0:
512,254,111120,2,0,P|507:212|501:183,1,62.9999980773926,2|0,3:2|3:2,0:0:0:0:
335,136,111420,2,0,P|400:124|476:113,2,125.999996154785,2|2|2,3:2|3:2|3:2,0:0:0:0:
268,84,112170,1,0,3:2:0:0:
209,136,112320,1,0,3:2:0:0:
99,16,112470,1,0,3:2:0:0:
192,43,112620,1,8,3:2:0:0:
103,267,112770,5,10,3:2:0:0:
65,135,112920,2,0,L|49:222,1,80.9999975280763,2|8,3:2|3:2,0:0:0:0:
173,363,113220,1,2,3:2:0:0:
211,231,113370,2,0,L|227:318,1,80.9999975280763,10|0,3:2|3:2,0:0:0:0:
408,266,113670,1,10,3:2:0:0:
297,189,113820,2,0,P|364:194|394:223,1,80.9999975280763,2|8,3:2|3:2,0:0:0:0:
499,97,114120,1,2,3:2:0:0:
436,50,114270,2,0,B|358:37|388:106|280:89,1,161.999995056153,10|10,3:2|3:2,0:0:0:0:
178,0,114720,1,2,3:2:0:0:
178,0,114870,2,0,P|195:57|200:97,1,80.9999975280763,10|8,3:2|3:2,0:0:0:0:
136,236,115170,5,8,3:2:0:0:
136,236,115245,1,8,3:2:0:0:
136,236,115320,1,0,3:2:0:0:
9,96,115470,1,8,3:2:0:0:
127,347,115620,1,8,3:2:0:0:
276,119,115770,1,8,3:2:0:0:
0,231,115920,1,8,3:2:0:0:
265,343,116070,1,8,3:2:0:0:
154,0,116220,1,10,3:2:0:0:
467,131,116970,5,2,0:0:0:0:
447,118,117045,1,2,0:0:0:0:
416,110,117120,1,2,0:0:0:0:
384,123,117195,1,2,0:0:0:0:
345,131,117270,2,0,P|315:125|290:103,1,40.4999987640381,10|2,0:0|0:0,0:0:0:0:
254,0,117420,6,0,P|271:120|290:238,1,232.200003543091,6|0,3:2|3:2,0:0:0:0:
168,69,117870,2,0,P|102:74|66:117,1,116.100001771545,10|0,3:2|0:0,0:0:0:0:
237,331,118170,1,2,3:2:0:0:
148,152,118320,1,0,0:0:0:0:
54,334,118470,1,10,3:2:0:0:
288,229,118620,1,2,3:2:0:0:
288,229,118695,1,0,3:2:0:0:
288,229,118770,6,0,P|353:245|407:259,1,116.100001771545,0|0,3:2|0:0,0:0:0:0:
468,11,119070,2,0,P|403:27|349:41,1,116.100001771545,10|0,3:2|0:0,0:0:0:0:
57,126,119370,1,2,3:2:0:0:
260,222,119520,1,0,3:2:0:0:
215,0,119670,2,0,P|200:61|182:131,1,116.100001771545,10|0,3:2|0:0,0:0:0:0:
75,384,119970,6,0,P|50:289|27:194,1,174.150002657318,2|0,3:2|0:0,0:0:0:0:
29,224,120270,2,0,P|98:214|138:248,1,116.100001771545,10|0,3:2|0:0,0:0:0:0:
280,384,120570,1,2,3:2:0:0:
356,161,120720,2,0,P|337:104|323:26,1,116.100001771545,2|8,3:2|3:2,0:0:0:0:
505,232,121020,1,2,3:2:0:0:
505,232,121095,1,0,3:2:0:0:
505,232,121170,6,0,P|493:288|474:343,1,116.100001771545,0|0,3:2|0:0,0:0:0:0:
216,209,121470,2,0,B|319:196|281:272|384:250,1,174.150002657318,8|0,3:2|0:0,0:0:0:0:
372,258,121770,1,0,3:2:0:0:
256,129,121920,1,0,3:2:0:0:
166,370,122070,2,0,P|153:313|141:256,1,116.100001771545,8|0,3:2|0:0,0:0:0:0:
321,66,122370,6,0,P|250:37|170:130,1,174.150002657318,2|0,3:2|0:0,0:0:0:0:
185,91,122670,2,0,P|140:129|61:110,1,116.100001771545,10|0,3:2|0:0,0:0:0:0:
238,298,122970,1,2,3:2:0:0:
356,161,123120,1,0,3:2:0:0:
117,239,123270,1,10,3:2:0:0:
379,365,123420,1,2,3:2:0:0:
379,365,123495,1,0,3:2:0:0:
379,365,123570,6,0,P|358:310|338:256,1,116.100001771545,0|0,3:2|0:0,0:0:0:0:
493,66,123870,2,0,P|472:120|452:174,1,116.100001771545,10|0,3:2|0:0,0:0:0:0:
176,89,124170,1,2,3:2:0:0:
356,161,124320,1,0,3:2:0:0:
161,319,124470,2,0,P|130:259|142:207,1,116.100001771545,10|0,3:2|0:0,0:0:0:0:
347,36,124770,6,0,B|249:47|302:109|199:120,1,174.150002657318,2|0,3:2|0:0,0:0:0:0:
210,115,125070,2,0,P|130:93|52:75,1,116.100001771545,10|0,3:2|0:0,0:0:0:0:
251,297,125370,1,2,3:2:0:0:
353,119,125520,2,0,P|334:178|319:252,1,116.100001771545,2|8,3:2|3:2,0:0:0:0:
52,172,125820,1,2,3:2:0:0:
52,172,125895,1,0,3:2:0:0:
52,172,125970,5,6,3:2:0:0:
225,382,126120,1,2,0:0:0:0:
280,68,126270,1,8,3:2:0:0:
280,68,126570,5,6,3:2:0:0:
155,201,126720,1,10,3:2:0:0:
429,355,126870,2,0,P|442:276|448:235,1,116.100001771545,8|0,3:2|3:2,0:0:0:0:
235,366,127170,5,2,3:2:0:0:
341,288,127320,1,0,0:0:0:0:
255,196,127470,1,10,3:2:0:0:
114,318,127620,1,2,0:0:0:0:
20,168,127770,1,2,3:2:0:0:
90,228,127920,1,2,3:2:0:0:
150,1,128070,1,8,3:2:0:0:
90,90,128220,1,2,3:2:0:0:
90,90,128295,1,0,3:2:0:0:
90,90,128370,6,0,P|173:81|287:68,1,174.150002657318,0|0,3:2|0:0,0:0:0:0:
259,80,128670,2,0,P|282:133|262:190,1,116.100001771545,10|0,3:2|0:0,0:0:0:0:
29,177,128970,1,2,3:2:0:0:
221,279,129120,1,0,3:2:0:0:
29,381,129270,2,0,P|110:370|174:362,1,116.100001771545,10|0,3:2|0:0,0:0:0:0:
441,294,129570,5,2,3:2:0:0:
312,252,129720,1,2,0:0:0:0:
414,177,129870,1,10,3:2:0:0:
325,350,130020,1,2,0:0:0:0:
201,124,130170,1,2,3:2:0:0:
281,154,130320,1,0,3:2:0:0:
141,265,130470,1,10,3:2:0:0:
60,60,130620,1,2,3:2:0:0:
60,60,130695,1,0,3:2:0:0:
60,60,130770,6,0,P|145:46|212:36,1,116.100001771545,0|0,3:2|0:0,0:0:0:0:
307,235,131070,2,0,P|367:170|319:83,1,174.150002657318,10|0,3:2|0:0,0:0:0:0:
339,105,131370,1,2,3:2:0:0:
442,233,131520,1,0,3:2:0:0:
512,36,131670,2,0,P|427:22|360:12,1,116.100001771545,10|0,3:2|0:0,0:0:0:0:
126,237,131970,5,2,3:2:0:0:
149,76,132120,1,0,0:0:0:0:
281,154,132270,1,8,3:2:0:0:
114,325,132420,2,0,L|-11:296,1,116.100001771545,0|0,3:2|0:0,0:0:0:0:
185,160,132720,1,0,3:2:0:0:
281,375,132870,2,0,L|406:346,1,116.100001771545,8|0,3:2|0:0,0:0:0:0:
491,192,133170,5,0,3:2:0:0:
287,140,133320,1,0,3:2:0:0:
402,357,133470,2,0,P|382:312|363:244,1,116.100001771545,10|0,3:2|3:2,0:0:0:0:
512,66,133770,2,0,P|496:121|473:175,1,116.100001771545,0|0,0:0|3:2,0:0:0:0:
205,100,134070,2,0,P|244:59|301:53,1,116.100001771545,10|0,3:2|0:0,0:0:0:0:
375,255,134370,5,2,3:2:0:0:
180,197,134520,1,0,0:0:0:0:
246,357,134670,1,8,3:2:0:0:
341,154,134820,2,0,P|320:74|309:35,1,116.100001771545,0|0,3:2|0:0,0:0:0:0:
163,180,135120,1,0,3:2:0:0:
341,345,135270,2,0,P|397:352|445:319,1,116.100001771545,8|0,3:2|0:0,0:0:0:0:
404,63,135570,5,0,3:2:0:0:
318,213,135720,1,0,3:2:0:0:
292,39,135870,1,10,3:2:0:0:
422,162,136020,1,0,3:2:0:0:
217,112,136170,1,0,0:0:0:0:
424,29,136320,5,8,3:2:0:0:
168,0,136470,1,10,3:2:0:0:
440,194,136620,1,8,3:2:0:0:
123,313,136770,6,0,B|136:229|136:229|106:190|106:190|120:90,1,232.200003543091,6|8,3:2|3:2,0:0:0:0:
43,260,137220,1,0,0:0:0:0:
197,162,137370,1,0,3:2:0:0:
31,70,137520,1,0,3:2:0:0:
197,162,137670,2,0,P|284:148|315:142,1,116.100001771545,8|0,3:2|0:0,0:0:0:0:
390,333,137970,6,0,P|449:273|392:164,1,174.150002657318,0|0,3:2|0:0,0:0:0:0:
428,200,138270,2,0,P|399:144|423:81,1,116.100001771545,10|0,3:2|0:0,0:0:0:0:
355,245,138570,1,2,3:2:0:0:
485,137,138720,1,0,3:2:0:0:
242,64,138870,2,0,P|315:47|384:20,1,116.100001771545,10|0,3:2|0:0,0:0:0:0:
174,294,139170,5,14,3:2:0:0:
76,42,139320,1,0,3:2:0:0:
56,340,139470,5,10,3:2:0:0:
228,48,139620,1,0,3:2:0:0:
324,343,139770,5,14,3:2:0:0:
62,152,139920,1,0,3:2:0:0:
391,223,140070,5,10,3:2:0:0:
44,357,140220,1,0,3:2:0:0:
454,331,140370,5,14,3:2:0:0:
152,147,140520,1,0,3:2:0:0:
512,142,140670,5,10,3:2:0:0:
198,343,140820,1,0,3:2:0:0:
267,29,140970,5,14,3:2:0:0:
400,347,141120,1,0,3:2:0:0:
361,0,141270,5,14,3:2:0:0:
278,384,141420,1,0,3:2:0:0:
69,27,143970,5,2,3:2:0:0:
150,0,144120,1,0,0:0:0:0:
176,78,144270,1,2,0:0:0:0:
60,133,144420,1,0,0:0:0:0:
112,199,144570,1,2,0:0:0:0:
72,282,144720,1,0,0:0:0:0:
131,342,144870,1,2,0:0:0:0:
165,268,145020,1,0,0:0:0:0:
131,342,145170,5,2,3:2:0:0:
199,382,145320,1,2,0:0:0:0:
254,325,145470,1,2,0:0:0:0:
329,370,145620,2,0,L|389:365,1,54,2|0,3:2|3:2,0:0:0:0:
432,312,146220,6,0,B|424:297|425:290,1,18,0|2,0:0|3:2,0:0:0:0:
464,230,146520,1,0,0:0:0:0:
406,172,146670,1,2,0:0:0:0:
464,230,146820,1,0,0:0:0:0:
510,164,146970,1,2,0:0:0:0:
457,107,147120,1,0,0:0:0:0:
488,45,147270,1,2,0:0:0:0:
424,3,147420,1,0,0:0:0:0:
357,54,147570,5,2,3:2:0:0:
283,16,147720,1,2,0:0:0:0:
226,75,147870,1,2,0:0:0:0:
263,142,148020,2,0,P|257:179|252:202,1,54,2|0,3:2|3:2,0:0:0:0:
201,253,148620,6,0,L|180:246,1,18,0|2,0:0|3:2,0:0:0:0:
116,289,148920,1,0,0:0:0:0:
52,236,149070,1,2,0:0:0:0:
116,289,149220,1,0,0:0:0:0:
131,364,149370,1,2,0:0:0:0:
203,345,149520,1,0,0:0:0:0:
269,380,149670,1,2,0:0:0:0:
341,339,149820,1,0,0:0:0:0:
302,268,149970,5,2,3:2:0:0:
359,210,150120,1,2,0:0:0:0:
428,262,150270,1,2,0:0:0:0:
359,210,150420,2,0,L|368:152,1,54,2|0,3:2|3:2,0:0:0:0:
418,98,151020,6,0,P|405:90|399:85,1,18,0|2,0:0|3:2,0:0:0:0:
354,25,151320,1,0,0:0:0:0:
294,75,151470,1,2,0:0:0:0:
232,30,151620,1,0,0:0:0:0:
170,79,151770,1,2,0:0:0:0:
218,142,151920,1,0,0:0:0:0:
169,206,152070,1,2,0:0:0:0:
92,171,152220,1,0,0:0:0:0:
25,219,152370,5,2,3:2:0:0:
68,286,152520,1,2,0:0:0:0:
49,361,152670,1,2,0:0:0:0:
122,381,152820,1,2,3:2:0:0:
122,381,153270,2,0,L|153:371,1,27,0|0,3:2|0:0,0:0:0:0:
198,316,153570,6,0,P|186:273|174:206,1,99.0000030212403,2|2,3:2|3:2,0:0:0:0:
216,154,154020,1,0,3:2:0:0:
275,205,154170,2,0,P|316:215|373:172,1,99.0000030212403,2|2,3:2|0:0,0:0:0:0:
431,258,154620,1,0,3:2:0:0:
431,258,154695,1,0,3:2:0:0:
431,258,154770,6,0,P|449:198|458:174,2,74.2500022659302,0|0|2,3:2|3:2|3:2,0:0:0:0:
485,331,155370,2,0,P|438:337|399:388,1,99.0000030212403,0|0,0:0|3:2,0:0:0:0:
264,384,155970,6,0,B|283:339|283:339|271:281,1,99.0000030212403,2|2,3:2|3:2,0:0:0:0:
209,241,156420,1,0,3:2:0:0:
269,191,156570,2,0,P|242:150|248:86,1,99.0000030212403,2|2,3:2|0:0,0:0:0:0:
203,40,157020,1,0,3:2:0:0:
203,40,157095,1,0,3:2:0:0:
203,40,157170,5,0,3:2:0:0:
123,99,157395,5,0,3:2:0:0:
120,199,157620,5,2,3:2:0:0:
120,199,157770,2,0,L|94:303,1,99.0000030212403,0|0,0:0|3:2,0:0:0:0:
147,361,158220,1,0,0:0:0:0:
214,311,158370,6,0,P|242:314|258:329,1,49.5000015106202,2|0,3:2|0:0,0:0:0:0:
315,382,158670,1,2,3:2:0:0:
315,382,158820,1,0,3:2:0:0:
373,328,158970,2,0,P|364:295|351:222,1,99.0000030212403,2|2,3:2|0:0,0:0:0:0:
399,165,159420,1,0,3:2:0:0:
399,165,159495,1,0,3:2:0:0:
399,165,159570,6,0,P|440:171|461:212,2,74.2500022659302,0|0|2,3:2|3:2|3:2,0:0:0:0:
335,121,160170,2,0,L|347:10,1,99.0000030212403,0|0,0:0|3:2,0:0:0:0:
260,72,160620,1,0,0:0:0:0:
260,72,160695,1,0,0:0:0:0:
260,72,160770,6,0,P|213:60|160:52,1,99.0000030212403,2|2,3:2|3:2,0:0:0:0:
101,96,161220,1,0,3:2:0:0:
147,159,161370,2,0,P|160:191|131:261,1,99.0000030212403,2|2,3:2|0:0,0:0:0:0:
81,293,161820,1,0,3:2:0:0:
103,372,161970,6,0,L|15:358,2,74.2500022659302,0|0|2,3:2|3:2|3:2,0:0:0:0:
170,330,162570,2,0,L|277:310,1,99.0000030212403,0|0,0:0|3:2,0:0:0:0:
315,254,163020,1,0,0:0:0:0:
385,297,163170,5,2,3:2:0:0:
385,297,163470,1,2,3:2:0:0:
445,227,163620,1,0,3:2:0:0:
373,152,163770,1,2,3:2:0:0:
506,24,164220,1,0,3:2:0:0:
506,24,164295,1,0,3:2:0:0:
506,24,164370,5,0,3:2:0:0:
419,78,164595,5,0,3:2:0:0:
312,36,164820,5,2,3:2:0:0:
247,72,164970,1,0,0:0:0:0:
247,72,165270,1,0,3:2:0:0:
188,15,165420,1,0,0:0:0:0:
129,122,165570,6,0,P|146:173|150:189,1,58.4999973220826,2|0,3:2|0:0,0:0:0:0:
125,260,165870,1,2,3:2:0:0:
200,238,166020,1,0,3:2:0:0:
229,308,166170,1,2,3:2:0:0:
229,308,166470,1,2,0:0:0:0:
289,357,166620,1,0,3:2:0:0:
289,357,166695,1,0,3:2:0:0:
289,357,166770,5,0,3:2:0:0:
357,304,166995,5,0,3:2:0:0:
447,313,167220,5,2,3:2:0:0:
505,263,167370,1,0,0:0:0:0:
505,263,167670,1,0,3:2:0:0:
449,201,167820,1,0,0:0:0:0:
508,141,167970,5,2,3:2:0:0:
508,141,168270,1,2,3:2:0:0:
423,68,168420,1,0,3:2:0:0:
349,132,168570,1,2,3:2:0:0:
170,38,169020,1,0,3:2:0:0:
238,99,169170,5,0,3:2:0:0:
156,184,169395,5,0,3:2:0:0:
244,276,169620,5,2,3:2:0:0:
213,341,169770,1,0,0:0:0:0:
213,341,170070,1,0,3:2:0:0:
305,378,170220,1,0,0:0:0:0:
365,289,170370,5,2,3:2:0:0:
365,289,170670,1,2,3:2:0:0:
433,228,170820,1,0,3:2:0:0:
385,143,170970,1,2,3:2:0:0:
206,38,171420,1,0,3:2:0:0:
283,95,171570,5,0,3:2:0:0:
388,16,171795,5,0,3:2:0:0:
482,95,172020,5,2,3:2:0:0:
511,167,172170,2,0,P|496:208|488:232,1,58.4999973220826,0|0,0:0|0:0,0:0:0:0:
419,255,172470,2,0,P|434:296|442:320,1,58.4999973220826,0|0,3:2|0:0,0:0:0:0:
391,377,172770,5,2,2:3:0:0:
123,42,173370,6,0,P|128:20|128:19,14,14.6249993305207,2|0|0|0|0|0|0|0|0|0|0|0|0|0|0,0:0|0:0|0:0|0:0|0:0|0:0|0:0|0:0|0:0|0:0|0:0|0:0|0:0|0:0|0:0,0:0:0:0:
159,125,173970,6,0,L|43:101,1,107.999996704102,6|0,3:2|0:0,0:0:0:0:
296,210,174270,5,10,3:2:0:0:
70,307,174420,1,0,3:2:0:0:
290,103,174570,5,10,3:2:0:0:
340,355,174720,1,0,3:2:0:0:
188,110,174870,5,10,3:2:0:0:
132,379,175020,1,0,3:2:0:0:
376,168,175170,5,10,3:2:0:0:
81,295,175320,1,2,3:2:0:0:
426,358,175470,1,10,3:2:0:0:
127,155,175620,1,0,3:2:0:0:
441,99,175770,1,10,3:2:0:0:
228,334,175920,1,0,3:2:0:0:
123,42,176070,1,10,3:2:0:0:
327,316,176220,1,0,3:2:0:0:
404,12,176370,6,0,P|456:26|508:38,1,107.999996704102,6|0,3:2|0:0,0:0:0:0:
178,211,176670,5,10,3:2:0:0:
441,99,176820,1,0,3:2:0:0:
144,59,176970,5,10,3:2:0:0:
401,277,177120,1,0,3:2:0:0:
262,10,177270,5,10,3:2:0:0:
182,360,177420,1,0,3:2:0:0:
389,152,177570,5,10,3:2:0:0:
84,98,177720,1,10,3:2:0:0:
289,346,177870,1,10,3:2:0:0:
236,42,178020,1,0,3:2:0:0:
95,300,178170,1,10,3:2:0:0:
95,300,178245,1,8,3:2:0:0:
95,300,178320,1,0,3:2:0:0:
368,135,178470,1,10,3:2:0:0:
67,72,178620,1,0,3:2:0:0:
269,363,178770,6,0,P|279:294|305:183,1,161.999995056153,6|0,3:2|0:0,0:0:0:0:
306,212,179070,5,10,3:2:0:0:
84,307,179220,1,0,3:2:0:0:
382,327,179370,5,10,3:2:0:0:
114,166,179520,1,0,3:2:0:0:
376,124,179670,5,10,3:2:0:0:
180,364,179820,1,0,3:2:0:0:
95,60,179970,5,10,3:2:0:0:
95,60,180045,1,0,3:2:0:0:
95,60,180120,1,2,3:2:0:0:
359,228,180270,1,10,3:2:0:0:
103,252,180420,1,0,3:2:0:0:
264,43,180570,1,10,3:2:0:0:
210,324,180720,1,0,3:2:0:0:
70,68,180870,1,10,3:2:0:0:
341,188,181020,1,0,3:2:0:0:
7,280,181170,6,0,P|61:271|141:261,1,107.999996704102,6|0,3:2|0:0,0:0:0:0:
353,66,181470,5,10,3:2:0:0:
218,336,181620,1,0,3:2:0:0:
184,71,181770,5,10,3:2:0:0:
330,330,181920,1,0,3:2:0:0:
427,106,182070,5,10,3:2:0:0:
144,275,182220,1,0,3:2:0:0:
282,26,182370,5,10,3:2:0:0:
282,26,182445,1,8,3:2:0:0:
282,26,182520,1,10,3:2:0:0:
354,292,182670,1,10,3:2:0:0:
198,84,182820,1,0,3:2:0:0:
150,355,182970,1,10,3:2:0:0:
352,81,183120,1,8,3:2:0:0:
77,205,183270,1,10,3:2:0:0:
375,298,183420,1,8,3:2:0:0:
118,37,183570,5,0,3:2:0:0:
179,88,183720,1,2,0:0:0:0:
111,129,183870,2,0,P|86:200|77:239,1,90,12|2,3:2|0:0,0:0:0:0:
169,320,184170,1,0,3:2:0:0:
229,275,184320,2,0,P|279:289|300:333,1,90,6|8,0:0|3:2,0:0:0:0:
486,221,184620,1,2,0:0:0:0:
482,136,184770,6,0,B|382:153|446:203|329:226,1,180,4|8,3:2|3:2,0:0:0:0:
200,98,185220,1,6,0:0:0:0:
323,138,185370,1,0,3:2:0:0:
384,70,185520,1,2,0:0:0:0:
278,11,185670,2,0,P|195:21|105:31,1,135,12|0,3:2|0:0,0:0:0:0:
148,33,185970,6,0,P|118:75|119:119,1,90,0|2,3:2|0:0,0:0:0:0:
198,235,186270,2,0,L|94:213,1,90,12|2,3:2|0:0,0:0:0:0:
258,370,186570,1,0,3:2:0:0:
322,312,186720,2,0,L|426:290,1,90,6|8,0:0|3:2,0:0:0:0:
470,140,187020,1,2,0:0:0:0:
511,209,187170,6,0,P|457:220|404:105,1,180,4|8,3:2|3:2,0:0:0:0:
245,101,187620,2,0,P|289:93|341:52,1,90,6|0,0:0|3:2,0:0:0:0:
190,213,187920,1,2,0:0:0:0:
127,164,188070,2,0,L|152:20,1,135,12|0,3:2|0:0,0:0:0:0:
154,37,188370,5,0,3:2:0:0:
79,0,188520,1,2,0:0:0:0:
26,60,188670,2,0,L|37:163,1,90,12|2,3:2|0:0,0:0:0:0:
164,323,188970,1,0,3:2:0:0:
188,244,189120,2,0,P|143:242|107:267,1,90,6|8,0:0|3:2,0:0:0:0:
327,366,189420,1,2,0:0:0:0:
377,303,189570,6,0,P|371:246|357:103,1,180,4|8,3:2|3:2,0:0:0:0:
459,233,190020,2,0,P|496:208|503:125,1,90,6|0,0:0|3:2,0:0:0:0:
295,55,190320,1,2,0:0:0:0:
266,138,190470,2,0,P|229:113|222:30,1,90,12|2,3:2|0:0,0:0:0:0:
82,285,190770,5,0,3:2:0:0:
21,134,190920,1,2,3:2:0:0:
178,176,191070,1,4,3:2:0:0:
1,335,191220,1,10,3:2:0:0:
86,202,191370,1,0,3:2:0:0:
201,372,191520,1,6,3:2:0:0:
1,250,191670,1,8,3:2:0:0:
186,200,191820,1,2,0:0:0:0:
95,381,191970,5,4,3:2:0:0:
263,254,192120,1,2,3:2:0:0:
99,153,192270,1,0,3:2:0:0:
208,361,192420,1,14,3:2:0:0:
319,171,192570,1,0,3:2:0:0:
144,276,192720,1,2,3:2:0:0:
442,381,192870,1,12,3:2:0:0:
186,200,193020,1,2,0:0:0:0:
512,102,193170,5,10,3:2:0:0:
289,372,193320,1,8,3:2:0:0:
284,384,193620,5,10,3:2:0:0:
508,92,193770,1,8,3:2:0:0:
164,54,194070,5,10,3:2:0:0:
386,326,194220,1,8,3:2:0:0:
382,340,194520,5,10,3:2:0:0:
171,42,194670,1,8,3:2:0:0:
35,259,195570,5,10,3:2:0:0:
348,159,195720,1,8,3:2:0:0:
343,145,196020,5,10,3:2:0:0:
28,278,196170,1,8,3:2:0:0:
119,29,196470,5,10,3:2:0:0:
274,360,196620,1,8,3:2:0:0:
266,378,196920,5,10,3:2:0:0:
133,18,197070,1,8,3:2:0:0:
470,215,197820,6,0,P|475:190|480:161,2,45,2|2|2,0:0|0:0|0:0,0:0:0:0:
392,275,200370,5,2,0:0:0:0:
307,232,202770,5,2,0:0:0:0:
228,256,203970,5,2,0:0:0:0:
173,197,205095,5,2,0:0:0:0:
173,197,205170,1,2,0:0:0:0:
121,127,206370,6,0,L|130:99,14,22.5,2|0|0|0|0|0|0|0|0|0|0|0|0|0|0,0:0|0:0|0:0|0:0|0:0|0:0|0:0|0:0|0:0|0:0|0:0|0:0|0:0|0:0|0:0,0:0:0:0:
59,194,206970,2,0,L|50:166,14,22.5,2|0|0|0|0|0|0|0|0|0|0|0|0|0|0,0:0|0:0|0:0|0:0|0:0|0:0|0:0|0:0|0:0|0:0|0:0|0:0|0:0|0:0|0:0,0:0:0:0:
114,263,207570,5,6,3:2:0:0:
265,121,207720,1,2,0:0:0:0:
45,60,207870,1,10,3:2:0:0:
248,290,208020,1,0,0:0:0:0:
361,19,208170,1,2,3:2:0:0:
122,127,208320,1,0,3:2:0:0:
346,276,208470,1,10,3:2:0:0:
465,0,208620,1,2,3:2:0:0:
465,0,208695,1,0,3:2:0:0:
465,0,208770,6,0,L|487:133,1,120.599994295349,0|0,3:2|0:0,0:0:0:0:
279,344,209070,2,0,P|245:292|264:208,1,120.599994295349,10|0,3:2|0:0,0:0:0:0:
139,110,209370,1,2,3:2:0:0:
336,269,209520,1,0,3:2:0:0:
93,373,209670,2,0,L|112:254,1,120.599994295349,10|0,3:2|0:0,0:0:0:0:
20,24,209970,5,6,3:2:0:0:
119,261,210120,1,0,0:0:0:0:
269,31,210270,1,10,3:2:0:0:
48,139,210420,1,2,0:0:0:0:
309,258,210570,1,2,3:2:0:0:
149,103,210720,1,0,3:2:0:0:
107,380,210870,1,10,3:2:0:0:
409,237,211020,1,0,3:2:0:0:
409,237,211095,1,0,3:2:0:0:
409,237,211170,6,0,P|313:221|213:200,1,180.899991443024,0|0,3:2|0:0,0:0:0:0:
237,212,211470,2,0,P|221:150|255:96,1,120.599994295349,10|0,3:2|0:0,0:0:0:0:
302,313,211770,1,2,3:2:0:0:
408,136,211920,1,0,3:2:0:0:
512,357,212070,2,0,L|391:334,1,120.599994295349,10|0,3:2|0:0,0:0:0:0:
85,198,212370,5,2,3:2:0:0:
163,144,212520,1,0,0:0:0:0:
217,216,212670,1,8,3:2:0:0:
48,369,212820,2,0,P|30:290|17:240,1,120.599994295349,0|0,3:2|0:0,0:0:0:0:
84,100,213120,1,0,3:2:0:0:
177,352,213270,2,0,P|195:273|208:223,1,120.599994295349,8|0,3:2|0:0,0:0:0:0:
349,65,213570,5,0,3:2:0:0:
418,143,213720,1,0,3:2:0:0:
366,239,213870,1,8,3:2:0:0:
229,86,214020,2,0,P|304:61|378:23,1,120.599994295349,0|0,3:2|0:0,0:0:0:0:
153,163,214320,1,0,3:2:0:0:
370,217,214470,2,0,P|445:242|519:280,1,120.599994295349,8|0,3:2|0:0,0:0:0:0:
140,335,214770,5,2,3:2:0:0:
239,224,214920,1,0,0:0:0:0:
347,344,215070,1,8,3:2:0:0:
126,181,215220,2,0,P|109:124|141:56,1,120.599994295349,0|0,3:2|0:0,0:0:0:0:
250,324,215520,1,0,3:2:0:0:
367,133,215670,2,0,P|384:76|352:8,1,120.599994295349,8|0,3:2|0:0,0:0:0:0:
156,254,215970,5,2,3:2:0:0:
294,75,216120,1,0,3:2:0:0:
374,330,216270,1,8,3:2:0:0:
101,167,216420,2,0,P|171:154|229:129,1,120.599994295349,0|2,0:0|3:2,0:0:0:0:
456,235,216720,1,10,3:2:0:0:
271,380,216870,1,8,3:2:0:0:
293,229,217020,6,0,L|298:254,1,22.5,2|0,0:0|0:0,0:0:0:0:
375,258,217470,6,0,B|233:274|330:359|182:376,1,236.250002253056,14|0,3:2|0:0,0:0:0:0:
192,381,217770,2,0,P|167:346|169:314,1,60.7500002317429,2|0,3:2|0:0,0:0:0:0:
293,134,217920,2,0,P|275:173|246:187,1,60.7500002317429,0|0,3:2|0:0,0:0:0:0:
29,171,218070,2,0,P|71:166|98:184,1,60.7500002317429,10|0,3:2|0:0,0:0:0:0:
177,239,218220,1,2,0:0:0:0:
177,239,218295,1,2,0:0:0:0:
177,239,218370,6,0,P|166:148|156:66,1,121.500000463486,0|0,3:2|0:0,0:0:0:0:
398,0,218670,2,0,P|390:60|383:120,1,121.500000463486,10|0,3:2|0:0,0:0:0:0:
356,344,218970,1,2,3:2:0:0:
278,119,219120,1,0,3:2:0:0:
496,299,219270,2,0,P|520:244|500:181,1,121.500000463486,10|0,3:2|0:0,0:0:0:0:
335,359,219570,6,0,B|241:347|130:330,1,182.250000695229,2|0,3:2|0:0,0:0:0:0:
160,340,219870,2,0,P|140:292|177:216,1,121.500000463486,10|0,3:2|0:0,0:0:0:0:
400,121,220170,1,2,3:2:0:0:
219,0,220320,1,2,3:2:0:0:
303,257,220470,1,8,3:2:0:0:
122,136,220620,1,2,3:2:0:0:
122,136,220695,1,0,3:2:0:0:
122,136,220770,6,0,P|196:127|257:117,1,121.500000463486,0|0,3:2|0:0,0:0:0:0:
479,176,221070,2,0,B|501:122|501:122|474:65,1,121.500000463486,8|0,3:2|0:0,0:0:0:0:
281,241,221370,1,0,3:2:0:0:
440,299,221520,1,0,3:2:0:0:
230,111,221670,2,0,B|209:57|209:57|236:0,1,121.500000463486,8|0,3:2|0:0,0:0:0:0:
345,308,221970,6,0,P|253:325|194:261,1,182.250000695229,2|0,3:2|0:0,0:0:0:0:
192,277,222270,2,0,P|134:246|76:263,1,121.500000463486,10|0,3:2|0:0,0:0:0:0:
0,133,222570,1,2,3:2:0:0:
129,335,222720,1,0,3:2:0:0:
259,128,222870,1,10,3:2:0:0:
25,51,223020,1,2,3:2:0:0:
25,51,223095,1,0,3:2:0:0:
25,51,223170,6,0,P|86:40|158:25,1,121.500000463486,2|0,3:2|0:0,0:0:0:0:
330,184,223470,2,0,P|352:124|320:63,1,121.500000463486,10|0,3:2|0:0,0:0:0:0:
150,199,223770,1,2,3:2:0:0:
382,292,223920,1,0,3:2:0:0:
242,119,224070,1,10,3:2:0:0:
203,384,224220,1,0,3:2:0:0:
203,384,224295,1,0,3:2:0:0:
203,384,224370,6,0,P|212:324|221:262,1,121.500000463486,2|0,3:2|0:0,0:0:0:0:
461,165,224670,2,0,P|451:104|443:44,1,121.500000463486,10|0,3:2|0:0,0:0:0:0:
367,282,224970,1,2,3:2:0:0:
171,93,225120,2,0,P|229:72|295:31,1,121.500000463486,2|8,3:2|3:2,0:0:0:0:
10,179,225420,1,2,3:2:0:0:
10,179,225495,1,0,3:2:0:0:
10,179,225570,5,6,3:2:0:0:
220,263,225720,1,2,3:2:0:0:
168,1,225870,1,8,3:2:0:0:
168,1,226170,5,6,3:2:0:0:
57,285,226320,1,2,3:2:0:0:
0,66,226470,2,0,P|98:92|152:106,1,121.500000463486,8|0,3:2|3:2,3:2:0:0:
264,310,226770,5,6,3:2:0:0:
182,253,226920,1,2,0:0:0:0:
242,173,227070,1,10,3:2:0:0:
360,245,227220,1,2,0:0:0:0:
411,160,227370,1,2,3:2:0:0:
503,196,227520,1,0,3:2:0:0:
453,0,227670,1,10,3:2:0:0:
403,72,227820,1,2,3:2:0:0:
403,72,227895,1,0,3:2:0:0:
403,72,227970,6,0,B|308:56|329:136|226:119,1,182.250000695229,0|0,3:2|0:0,0:0:0:0:
242,129,228270,2,0,P|222:77|254:16,1,121.500000463486,10|0,3:2|0:0,0:0:0:0:
387,165,228570,1,2,3:2:0:0:
213,269,228720,1,0,3:2:0:0:
385,384,228870,2,0,P|397:318|408:250,1,121.500000463486,10|0,3:2|0:0,0:0:0:0:
169,198,229170,5,2,3:2:0:0:
222,284,229320,1,2,0:0:0:0:
150,346,229470,1,10,3:2:0:0:
80,132,229620,1,2,0:0:0:0:
4,206,229770,1,2,3:2:0:0:
63,278,229920,1,0,3:2:0:0:
287,151,230070,1,10,3:2:0:0:
247,369,230220,1,0,3:2:0:0:
247,369,230295,1,0,3:2:0:0:
247,369,230370,6,0,P|285:315|213:207,1,182.250000695229,0|0,3:2|0:0,0:0:0:0:
241,226,230670,2,0,P|202:172|210:119,1,121.500000463486,10|0,3:2|0:0,0:0:0:0:
381,0,230970,1,2,3:2:0:0:
294,160,231120,1,0,3:2:0:0:
111,15,231270,2,0,L|264:4,1,121.500000463486,10|0,3:2|0:0,0:0:0:0:
473,186,231570,5,2,3:2:0:0:
369,112,231720,1,0,0:0:0:0:
324,241,231870,1,8,3:2:0:0:
464,314,232020,2,0,P|478:239|489:167,1,121.500000463486,0|0,3:2|0:0,0:0:0:0:
342,375,232320,1,0,3:2:0:0:
287,149,232470,2,0,P|272:74|261:2,1,121.500000463486,8|0,3:2|0:0,0:0:0:0:
56,245,232770,5,0,3:2:0:0:
131,93,232920,1,0,3:2:0:0:
205,265,233070,2,0,P|188:333|176:395,1,121.500000463486,10|0,3:2|3:2,0:0:0:0:
303,147,233370,2,0,P|290:87|275:28,1,121.500000463486,2|0,0:2|3:2,0:0:0:0:
388,261,233670,2,0,P|451:240|521:217,1,121.500000463486,10|0,3:2|0:0,0:0:0:0:
283,135,233970,5,2,3:2:0:0:
373,22,234120,1,0,0:0:0:0:
460,117,234270,1,8,3:2:0:0:
209,186,234420,2,0,P|132:169|49:149,1,121.500000463486,0|0,3:2|0:0,0:0:0:0:
268,34,234720,1,0,3:2:0:0:
360,244,234870,2,0,P|383:298|371:358,1,121.500000463486,8|0,3:2|0:0,0:0:0:0:
449,179,235170,5,0,3:2:0:0:
507,312,235320,1,0,3:2:0:0:
367,157,235470,1,10,3:2:0:0:
290,311,235620,1,0,3:2:0:0:
500,238,235770,1,2,0:2:0:0:
200,156,235920,5,8,3:2:0:0:
512,111,236070,1,10,3:2:0:0:
277,323,236220,1,8,3:2:0:0:
434,42,236370,6,0,B|343:26|343:26|302:52|302:52|178:27,2,243.000000926971,6|8|0,3:2|3:2|3:2,0:0:0:0:
271,144,237120,1,0,3:2:0:0:
469,240,237270,2,0,P|493:187|472:132,1,121.500000463486,8|0,3:2|0:0,0:0:0:0:
267,341,237570,6,0,B|161:322|229:272|115:249,1,182.250000695229,0|0,3:2|0:0,0:0:0:0:
124,254,237870,2,0,P|114:183|104:125,1,121.500000463486,10|0,3:2|0:0,0:0:0:0:
43,316,238170,1,2,3:2:0:0:
197,186,238320,1,0,3:2:0:0:
32,84,238470,2,0,P|90:45|161:68,1,121.500000463486,10|0,3:2|0:0,0:0:0:0:
313,277,238770,5,14,3:2:0:0:
381,37,238920,1,0,3:2:0:0:
395,336,239070,5,10,3:2:0:0:
291,0,239220,1,0,3:2:0:0:
218,325,239370,5,14,3:2:0:0:
512,118,239520,1,0,3:2:0:0:
127,56,239670,5,10,3:2:0:0:
497,266,239820,1,0,3:2:0:0:
212,41,239970,5,14,3:2:0:0:
133,361,240120,1,0,3:2:0:0:
303,14,240270,5,10,3:2:0:0:
395,384,240420,1,0,3:2:0:0:
395,384,240495,1,0,3:2:0:0:
395,384,240570,5,14,3:2:0:0:
91,105,240720,1,0,3:2:0:0:
507,110,240870,5,14,3:2:0:0:
120,344,241020,1,0,3:2:0:0:
194,384,241170,6,0,P|203:354|191:297,1,80.9999975280763,2|2,0:0|0:0,0:0:0:0:
126,266,241620,2,0,P|117:236|129:179,1,80.9999975280763,2|0,0:0|0:0,0:0:0:0:
171,126,242070,1,2,0:0:0:0:
268,30,243570,6,0,P|313:25|351:55,1,80.9999975280763,2|2,0:0|0:0,0:0:0:0:
397,96,244020,2,0,P|442:101|480:71,1,80.9999975280763,2|0,0:0|0:0,0:0:0:0:
510,20,244470,1,2,0:0:0:0:
94,240,245970,5,0,3:2:0:0:
172,189,246120,1,0,0:0:0:0:
242,260,246270,1,8,3:1:0:0:
321,191,246420,1,0,0:0:0:0:
233,273,246570,5,2,3:2:0:0:
166,176,246720,1,0,0:0:0:0:
330,184,246870,1,8,3:1:0:0:
84,264,247020,2,0,P|103:269|112:276,1,20.2499993820191,0|0,0:0|0:0,0:0:0:0:
331,376,247170,6,0,P|386:364|459:347,1,103.500001974106,4|0,3:2|0:0,0:0:0:0:
311,106,247470,2,0,P|251:169|271:235,1,155.250002961159,10|0,3:2|0:0,0:0:0:0:
269,222,247770,1,0,3:2:0:0:
408,99,247920,2,0,P|389:41|377:-13,1,103.500001974106,2|8,0:0|3:2,0:0:0:0:
331,184,248220,1,0,0:0:0:0:
202,34,248370,6,0,B|114:20|114:20|83:39|83:39|-4:24,1,207.000003948212,6|8,3:2|3:2,0:0:0:0:
131,203,248820,2,0,P|148:138|125:82,1,103.500001974106,6|0,0:0|3:2,0:0:0:0:
47,247,249120,2,0,P|37:296|56:344,1,103.500001974106,6|8,0:0|3:2,0:0:0:0:
130,384,249420,1,0,0:0:0:0:
245,169,249570,5,0,3:2:0:0:
309,233,249720,1,0,0:0:0:0:
233,310,249870,2,0,P|290:313|334:361,1,103.500001974106,10|2,3:2|0:0,0:0:0:0:
416,176,250170,1,0,3:2:0:0:
481,355,250320,2,0,L|501:241,1,103.500001974106,2|8,0:0|3:2,0:0:0:0:
325,100,250620,1,0,0:0:0:0:
512,104,250770,6,0,L|279:74,1,207.000003948212,6|8,3:2|3:2,0:0:0:0:
192,216,251220,2,0,P|251:184|305:171,1,103.500001974106,6|0,0:0|3:2,0:0:0:0:
150,304,251520,2,0,P|100:288|56:262,1,103.500001974106,6|8,0:0|3:2,0:0:0:0:
14,192,251820,1,0,0:0:0:0:
216,52,251970,5,0,3:2:0:0:
143,0,252120,1,0,0:0:0:0:
73,57,252270,2,0,P|104:125|121:181,1,103.500001974106,10|2,3:2|0:0,0:0:0:0:
264,309,252570,1,0,3:2:0:0:
321,250,252720,2,0,P|371:241|422:232,1,103.500001974106,2|8,0:0|3:2,0:0:0:0:
325,54,253020,1,0,0:0:0:0:
504,104,253170,6,0,P|418:135|317:50,1,207.000003948212,6|8,3:2|3:2,0:0:0:0:
431,250,253620,2,0,L|405:371,1,103.500001974106,6|0,0:0|3:2,0:0:0:0:
237,153,253920,2,0,L|215:51,1,103.500001974106,6|8,0:0|3:2,0:0:0:0:
144,11,254220,1,0,0:0:0:0:
3,263,254370,5,0,3:2:0:0:
165,184,254520,1,0,3:2:0:0:
30,118,254670,1,2,3:2:0:0:
123,330,254820,1,8,3:2:0:0:
268,130,254970,1,0,3:2:0:0:
338,362,255120,1,2,3:2:0:0:
82,204,255270,1,8,3:2:0:0:
400,118,255420,1,0,3:2:0:0:
215,383,255570,5,6,3:2:0:0:
118,112,255720,1,0,3:2:0:0:
346,344,255870,1,0,3:2:0:0:
408,100,256020,1,14,3:2:0:0:
171,201,256170,1,0,3:2:0:0:
437,290,256320,1,6,3:2:0:0:
243,81,256470,1,8,3:2:0:0:
338,357,256620,1,2,3:2:0:0:
483,17,256770,5,10,3:2:0:0:
230,261,256920,1,8,3:2:0:0:
227,276,257220,5,10,3:2:0:0:
479,4,257370,1,8,3:2:0:0:
142,61,257670,5,10,3:2:0:0:
478,219,257820,1,8,3:2:0:0:
493,214,258120,5,10,3:2:0:0:
131,71,258270,1,8,3:2:0:0:
152,364,259170,5,10,3:2:0:0:
362,101,259320,1,8,3:2:0:0:
369,111,259620,5,10,3:2:0:0:
153,351,259770,1,8,3:2:0:0:
14,112,260070,5,10,3:2:0:0:
368,239,260220,1,8,3:2:0:0:
382,227,260520,5,10,3:2:0:0:
0,124,260670,1,8,3:2:0:0:
