osu file format v14

[General]
AudioFilename: audio.mp3
AudioLeadIn: 0
PreviewTime: 47820
Countdown: 0
SampleSet: Soft
StackLeniency: 0.2
Mode: 0
LetterboxInBreaks: 0
WidescreenStoryboard: 1

[Editor]
Bookmarks: 106,9706,19306,26506,28906,36106,38506,47956,69706,72106,78106
DistanceSpacing: 0.2
BeatDivisor: 4
GridSize: 32
TimelineZoom: 3.899998

[Metadata]
Title:Gravitation (TV Size)
TitleUnicode:Gravitation (TV Size)
Artist:Kurosaki Maon
ArtistUnicode:黒崎真音
Creator:Aakki
Version:Shizuku's Expert
Source:とある魔術の禁書目録Ⅲ
Tags:japanese rock jrock j-rock xiced door weapon dog food op anime toaru majutsu no mokuroku index scientific railgun kagaku season three opening kowari shizuku- kazato asa shikibe mayu kirishima- a certain magical iii 3
BeatmapID:2270769
BeatmapSetID:1063169

[Difficulty]
HPDrainRate:6
CircleSize:4
OverallDifficulty:8.5
ApproachRate:9
SliderMultiplier:1.8
SliderTickRate:1

[Events]
//Background and Video events
0,0,"bg.jpg",0,0
Video,-370,"vid.mp4"
//Break Periods
2,74895,77295
//Storyboard Layer 0 (Background)
//Storyboard Layer 1 (Fail)
//Storyboard Layer 2 (Pass)
//Storyboard Layer 3 (Foreground)
//Storyboard Layer 4 (Overlay)
//Storyboard Sound Samples

[TimingPoints]
495,300,4,2,1,60,1,0
495,-111.111111111111,4,2,1,60,0,0
9495,-200,4,2,1,30,0,0
10095,-100,4,2,1,70,0,0
19695,-105.263157894737,4,2,1,50,0,0
26895,-105.263157894737,4,2,1,50,0,0
29295,-105.263157894737,4,2,1,60,0,0
36495,-105.263157894737,4,2,1,60,0,0
38895,-133.333333333334,4,2,1,40,0,0
43695,-95.2380952380952,4,2,1,60,0,0
47895,-117.647058823529,4,2,1,60,0,0
48345,-90.9090909090909,4,2,1,80,0,1
62895,-90.9090909090909,4,2,1,70,0,1
67695,-90.9090909090909,4,2,1,80,0,1
69945,-90.9090909090909,4,2,1,80,0,0
70095,-80,4,2,1,85,0,1
72495,-133.333333333333,4,2,1,45,0,0
77895,-133.333333333333,4,2,1,30,0,0
78495,-100,4,2,1,70,0,0
86895,-200,4,2,1,50,0,0
87945,-200,4,2,1,50,0,0
88095,-200,4,2,1,5,0,0

[Colours]
Combo1 : 151,0,151
Combo2 : 255,47,255
Combo3 : 223,223,0
Combo4 : 0,223,223

[HitObjects]
219,75,495,5,6,1:2:0:0:
49,32,645,1,2,1:2:0:0:
131,185,795,2,0,P|123:145|118:104,1,80.9999975280763,10|2,0:0|0:0,0:0:0:0:
260,222,1095,1,10,0:0:0:0:
86,316,1245,1,2,0:0:0:0:
131,185,1395,1,10,0:0:0:0:
226,365,1545,6,0,P|284:312|362:320,1,161.999995056153,2|2,1:2|1:2,0:0:0:0:
273,142,1995,2,0,P|265:181|259:221,1,80.9999975280763,10|2,0:0|0:0,0:0:0:0:
407,41,2295,1,8,0:0:0:0:
407,41,2370,1,8,0:0:0:0:
407,41,2445,2,0,P|367:48|327:54,1,80.9999975280763,0|8,1:0|0:0,0:0:0:0:
259,221,2745,6,0,B|354:206|318:265|411:250,1,161.999995056153,2|2,1:2|1:2,0:0:0:0:
491,107,3195,2,0,P|486:147|482:187,1,80.9999975280763,10|2,0:0|0:0,0:0:0:0:
348,332,3495,2,0,P|343:291|339:251,1,80.9999975280763,10|2,0:0|0:0,0:0:0:0:
448,366,3795,1,10,0:0:0:0:
259,221,3945,6,0,P|200:273|121:265,1,161.999995056153,2|10,1:2|0:0,0:0:0:0:
216,47,4395,2,0,P|210:87|203:126,1,80.9999975280763,10|2,0:0|1:2,0:0:0:0:
400,175,4695,1,8,0:0:0:0:
400,175,4770,1,8,0:0:0:0:
399,174,4845,2,0,P|363:155|323:154,1,80.9999975280763,0|8,1:0|0:0,0:0:0:0:
486,0,5145,6,0,P|495:80|503:161,1,161.999995056153,2|2,1:2|1:2,0:0:0:0:
348,332,5595,2,0,P|343:291|339:251,1,80.9999975280763,10|2,0:0|0:0,0:0:0:0:
460,238,5895,1,10,0:0:0:0:
323,154,6045,1,2,0:0:0:0:
271,359,6195,2,0,P|308:344|347:331,1,80.9999975280763,10|2,0:0|1:2,0:0:0:0:
205,186,6495,5,2,0:0:0:0:
173,373,6645,1,2,1:2:0:0:
32,305,6795,2,0,P|69:290|108:277,1,80.9999975280763,10|2,0:0|0:0,0:0:0:0:
129,64,7095,1,8,0:0:0:0:
129,64,7170,1,8,0:0:0:0:
129,64,7245,2,0,P|121:103|115:143,1,80.9999975280763,0|8,1:0|0:0,0:0:0:0:
374,42,7545,6,0,P|295:53|232:6,1,161.999995056153,2|2,1:2|1:2,0:0:0:0:
463,75,7995,2,0,P|455:114|448:154,1,80.9999975280763,10|2,0:0|0:0,0:0:0:0:
477,308,8295,5,10,0:0:0:0:
297,187,8445,1,2,0:0:0:0:
448,154,8595,1,10,0:0:0:0:
366,377,8745,1,2,1:2:0:0:
366,377,9495,6,0,L|350:373,14,11.25,0|0|0|0|0|0|0|0|0|0|0|0|0|0|0,3:0|3:0|3:0|3:0|3:0|3:0|3:0|3:0|3:0|3:0|3:0|3:0|3:0|3:0|3:0,0:0:0:0:
328,344,10095,6,0,P|284:355|240:365,1,90,4|0,1:2|0:0,0:0:0:0:
11,224,10395,2,0,P|97:215|160:275,1,180,10|2,0:0|1:2,0:0:0:0:
304,183,10845,1,2,0:0:0:0:
218,68,10995,2,0,P|210:112|204:157,1,90,10|2,0:0|0:0,0:0:0:0:
484,57,11295,6,0,P|397:72|324:24,1,180,6|8,1:2|0:0,0:0:0:0:
434,243,11745,2,0,P|440:198|447:153,1,90,6|0,0:0|1:0,0:0:0:0:
316,257,12045,1,6,0:0:0:0:
503,377,12195,2,0,P|458:329|392:329,1,135,8|0,0:0|0:0,0:0:0:0:
329,374,12495,6,0,P|285:364|241:354,1,90,2|0,1:2|0:0,0:0:0:0:
11,224,12795,2,0,P|74:283|70:370,1,180,10|2,0:0|1:2,0:0:0:0:
234,262,13245,1,2,0:0:0:0:
165,111,13395,2,0,P|157:155|150:199,1,90,10|2,0:0|0:0,0:0:0:0:
363,16,13695,6,0,B|331:19|293:28|293:28|263:6|263:6|232:14|192:15,1,180,6|8,1:2|0:0,0:0:0:0:
407,191,14145,2,0,P|413:146|420:101,1,90,6|0,0:0|1:0,0:0:0:0:
512,222,14445,1,6,0:0:0:0:
325,258,14595,2,0,P|331:302|338:347,1,90,8|0,0:0|0:0,0:0:0:0:
203,192,14895,6,0,P|148:230|83:223,1,135,2|0,1:2|0:0,0:0:0:0:
64,243,15195,2,0,P|53:194|42:154,1,90,10|0,0:0|0:0,0:0:0:0:
220,74,15495,1,2,1:2:0:0:
87,34,15645,1,2,0:0:0:0:
203,192,15795,2,0,P|246:180|289:168,1,90,10|2,0:0|0:0,0:0:0:0:
496,33,16095,6,0,B|459:73|459:73|397:63|334:54,1,180,6|8,1:2|0:0,0:0:0:0:
474,249,16545,2,0,P|484:206|490:161,1,90,6|0,0:0|1:0,0:0:0:0:
351,306,16845,1,6,0:0:0:0:
289,168,16995,2,0,P|246:180|203:192,1,90,8|0,0:0|0:0,0:0:0:0:
179,220,17220,1,0,0:0:0:0:
178,220,17295,6,0,P|165:262|173:306,1,90,6|0,1:2|1:0,0:0:0:0:
289,168,17595,1,2,1:2:0:0:
101,55,17745,1,8,0:0:0:0:
174,214,17895,1,2,1:2:0:0:
341,8,18045,2,0,P|345:53|349:98,1,90,2|8,1:2|0:0,0:0:0:0:
317,250,18345,1,2,1:2:0:0:
476,213,18495,6,0,P|404:263|317:250,1,180,6|0,1:2|1:0,0:0:0:0:
230,367,18945,2,0,P|222:323|213:279,1,90,14|0,0:0|1:0,0:0:0:0:
180,127,19245,1,6,1:2:0:0:
38,300,19395,2,0,P|82:306|127:312,1,90,8|2,0:0|1:2,0:0:0:0:
343,101,19695,6,0,B|248:80|274:143|179:126,1,170.999995433807,4|10,1:2|0:0,0:0:0:0:
298,279,20145,2,0,P|302:236|307:194,1,85.4999977169037,2|0,0:0|0:0,0:0:0:0:
386,337,20445,2,0,P|390:294|395:252,1,85.4999977169037,2|8,1:2|0:0,0:0:0:0:
407,158,20745,1,2,0:0:0:0:
298,279,20895,6,0,P|216:297|147:250,1,170.999995433807,2|10,1:2|0:0,0:0:0:0:
30,378,21345,2,0,P|34:335|39:293,1,85.4999977169037,2|0,0:0|0:0,0:0:0:0:
238,199,21645,1,2,1:2:0:0:
145,78,21795,2,0,P|149:120|154:162,1,85.4999977169037,8|2,0:0|0:0,0:0:0:0:
36,32,22095,6,0,B|137:45|137:45|195:7,1,170.999995433807,2|10,1:2|0:0,0:0:0:0:
330,120,22545,2,0,P|289:106|248:94,1,85.4999977169037,2|0,0:0|0:0,0:0:0:0:
410,36,22845,1,2,1:2:0:0:
450,175,22995,2,0,P|440:216|432:258,1,85.4999977169037,10|2,0:0|0:0,0:0:0:0:
301,320,23295,5,2,1:2:0:0:
348,213,23445,1,2,0:0:0:0:
392,382,23595,1,8,0:0:0:0:
201,338,23745,2,0,P|159:349|118:360,1,85.4999977169037,2|0,1:2|0:0,0:0:0:0:
254,238,24045,1,2,1:2:0:0:
421,282,24195,2,0,P|432:240|443:199,1,85.4999977169037,8|0,0:0|1:0,0:0:0:0:
330,11,24495,6,0,P|259:55|176:42,1,170.999995433807,2|10,1:2|0:0,0:0:0:0:
30,153,24945,1,2,0:0:0:0:
73,13,25095,2,0,P|85:53|97:94,1,85.4999977169037,2|0,0:0|1:0,0:0:0:0:
254,238,25395,1,10,0:0:0:0:
137,303,25545,1,2,0:0:0:0:
184,129,25695,6,0,P|266:150|349:172,1,170.999995433807,2|10,1:2|0:0,0:0:0:0:
501,16,26145,2,0,P|419:10|375:79,1,170.999995433807,2|2,0:0|1:2,0:0:0:0:
433,212,26595,2,0,P|425:254|419:296,1,85.4999977169037,8|0,0:0|0:0,0:0:0:0:
323,374,26895,6,0,P|255:324|173:339,1,170.999995433807,0|8,1:0|0:0,0:0:0:0:
45,201,27345,2,0,P|67:283|73:368,1,170.999995433807,0|0,1:0|1:0,0:0:0:0:
234,234,27795,2,0,P|191:227|149:221,1,85.4999977169037,8|0,0:0|0:0,0:0:0:0:
228,20,28095,6,0,P|294:69|376:54,1,170.999995433807,0|8,1:0|0:0,0:0:0:0:
228,20,28545,1,0,1:0:0:0:
362,137,28695,2,0,P|370:95|376:52,1,85.4999977169037,0|0,1:0|1:0,0:0:0:0:
475,202,28995,1,8,0:0:0:0:
304,281,29145,1,2,0:0:0:0:
439,336,29295,6,0,P|385:273|303:280,1,170.999995433807,6|10,1:2|0:0,0:0:0:0:
235,361,29745,1,2,0:0:0:0:
149,221,29895,2,0,P|140:262|134:305,1,85.4999977169037,2|2,1:2|1:2,0:0:0:0:
229,152,30195,1,10,0:0:0:0:
52,199,30345,1,2,0:0:0:0:
180,48,30495,6,0,P|252:90|335:81,1,170.999995433807,2|10,1:2|0:0,0:0:0:0:
444,5,30945,2,0,P|435:47|429:90,1,85.4999977169037,2|0,0:0|1:0,0:0:0:0:
511,155,31245,1,2,1:2:0:0:
335,81,31395,2,0,P|343:122|349:165,1,85.4999977169037,8|2,0:0|0:0,0:0:0:0:
476,318,31695,6,0,P|425:255|344:266,2,170.999995433807,2|10|2,1:2|0:0|1:2,0:0:0:0:
316,358,32445,1,2,1:2:0:0:
252,194,32595,2,0,P|241:235|231:277,1,85.4999977169037,10|2,0:0|0:0,0:0:0:0:
26,240,32895,5,2,1:2:0:0:
86,376,33045,2,0,P|103:337|98:295,1,85.4999977169037,2|8,0:0|0:0,0:0:0:0:
162,124,33345,2,0,P|80:138|20:83,1,170.999995433807,2|2,1:2|1:2,0:0:0:0:
255,18,33795,2,0,P|264:59|273:101,1,85.4999977169037,8|2,0:0|0:0,0:0:0:0:
434,147,34095,6,0,P|491:89|473:9,2,170.999995433807,2|10|2,1:2|0:0|1:2,0:0:0:0:
273,101,34845,1,2,1:2:0:0:
327,249,34995,2,0,P|335:207|344:165,1,85.4999977169037,10|2,0:0|0:0,0:0:0:0:
508,374,35295,6,0,P|451:315|368:324,1,170.999995433807,2|10,1:2|0:0,0:0:0:0:
238,240,35745,2,0,P|246:281|255:323,1,85.4999977169037,2|0,0:0|1:0,0:0:0:0:
137,245,36045,1,2,1:2:0:0:
269,128,36195,2,0,P|211:149|154:123,1,128.249996575356,8|0,0:0|0:0,0:0:0:0:
121,139,36495,6,0,P|112:97|103:55,1,85.4999977169037,0|0,1:0|0:0,0:0:0:0:
137,245,36795,1,8,0:0:0:0:
215,65,36945,2,0,P|298:82|382:100,1,170.999995433807,0|0,1:0|1:0,0:0:0:0:
253,320,37395,2,0,P|235:281|237:239,1,85.4999977169037,8|0,0:0|0:0,0:0:0:0:
467,213,37695,5,0,1:0:0:0:
321,268,37845,1,0,1:0:0:0:
321,268,37920,1,0,1:0:0:0:
321,268,37995,1,8,0:0:0:0:
215,65,38145,2,0,P|298:82|382:100,1,170.999995433807,0|0,1:0|1:0,0:0:0:0:
321,268,38595,2,0,P|279:277|237:286,1,85.4999977169037,8|2,0:0|0:0,0:0:0:0:
37,233,38895,5,6,1:2:0:0:
88,363,39045,2,0,P|91:329|95:295,1,67.5000025749208,2|0,0:0|1:0,0:0:0:0:
137,89,39345,1,2,0:0:0:0:
58,133,39495,2,0,P|109:173|175:167,1,135.000005149842,10|2,0:0|0:0,0:0:0:0:
232,15,39945,6,0,P|236:48|241:81,1,67.5000025749208,2|0,1:2|0:0,0:0:0:0:
326,160,40245,1,2,1:2:0:0:
446,38,40395,2,0,P|393:77|326:75,1,135.000005149842,2|10,1:2|0:0,0:0:0:0:
428,180,40845,1,2,0:0:0:0:
282,246,40995,2,0,P|288:296|295:346,1,101.250003862381,2|0,1:2|0:0,0:0:0:0:
309,381,41295,6,0,P|256:340|191:348,1,135.000005149842,2|2,1:2|1:2,0:0:0:0:
99,269,41745,2,0,P|93:302|89:335,1,67.5000025749208,2|8,0:0|0:0,0:0:0:0:
203,203,42045,2,0,P|197:169|193:136,1,67.5000025749208,2|0,0:0|0:0,0:0:0:0:
50,63,42345,6,0,B|133:79|133:79|151:62|178:57,1,135.000005149842,2|2,1:2|1:2,0:0:0:0:
203,203,42795,2,0,P|197:169|193:136,1,67.5000025749208,0|2,0:0|1:2,0:0:0:0:
275,24,43095,2,0,P|331:60|396:50,1,135.000005149842,8|8,0:0|0:0,0:0:0:0:
396,50,43545,1,8,0:0:0:0:
457,214,43695,6,0,P|464:168|471:121,1,94.499997116089,10|2,0:0|1:2,0:0:0:0:
216,296,43995,2,0,P|209:249|202:202,1,94.499997116089,8|2,0:0|1:2,0:0:0:0:
315,335,44295,5,10,0:0:0:0:
117,258,44445,1,0,1:0:0:0:
285,143,44595,2,0,P|291:189|298:236,1,94.499997116089,10|2,0:0|1:2,0:0:0:0:
209,67,44895,5,8,0:0:0:0:
382,118,45045,1,2,1:2:0:0:
209,67,45195,2,0,P|162:73|115:80,1,94.499997116089,8|0,0:0|1:0,0:0:0:0:
298,236,45495,5,10,0:0:0:0:
338,11,45645,1,2,1:2:0:0:
298,236,45795,2,0,P|291:282|284:329,1,94.499997116089,10|0,0:0|1:0,0:0:0:0:
382,118,46095,5,8,0:0:0:0:
382,118,46170,1,8,0:0:0:0:
382,118,46245,1,8,0:0:0:0:
183,213,46395,1,8,0:0:0:0:
409,295,46545,1,8,0:0:0:0:
282,127,46695,5,8,0:0:0:0:
185,353,46845,1,8,0:0:0:0:
129,113,46995,1,2,1:2:0:0:
390,207,47145,1,6,1:2:0:0:
390,206,47895,6,0,P|395:169|400:131,1,76.5000014591217,2|2,0:0|0:0,0:0:0:0:
412,44,48195,1,10,0:0:0:0:
470,300,48345,6,0,P|393:242|299:262,1,198.000006042481,6|0,1:2|1:0,0:0:0:0:
209,67,48795,2,0,P|202:116|196:165,1,99.0000030212403,10|0,0:0|0:0,0:0:0:0:
112,363,49095,2,0,P|86:321|84:272,1,99.0000030212403,2|0,1:2|1:0,0:0:0:0:
196,165,49395,1,10,0:0:0:0:
363,329,49545,6,0,P|265:310|167:294,1,198.000006042481,2|0,0:0|0:0,0:0:0:0:
322,129,49995,2,0,P|327:178|332:227,1,99.0000030212403,10|0,0:0|0:0,0:0:0:0:
437,75,50295,5,2,1:2:0:0:
332,227,50445,1,0,1:0:0:0:
179,59,50595,2,0,P|227:50|276:42,1,99.0000030212403,10|0,0:0|0:0,0:0:0:0:
462,259,50895,6,0,P|403:216|331:226,1,148.50000453186,2|0,1:2|0:0,0:0:0:0:
305,190,51195,2,0,P|293:238|283:286,1,99.0000030212403,10|0,0:0|0:0,0:0:0:0:
68,313,51495,5,2,1:2:0:0:
209,216,51645,1,2,1:2:0:0:
252,384,51795,1,8,0:0:0:0:
258,100,51945,6,0,P|196:171|103:154,1,198.000006042481,2|0,0:0|0:0,0:0:0:0:
283,286,52395,2,0,P|331:277|380:267,1,99.0000030212403,8|0,0:0|0:0,0:0:0:0:
501,108,52695,1,0,1:0:0:0:
449,302,52845,1,0,1:0:0:0:
258,100,52995,2,0,P|306:111|353:124,1,99.0000030212403,8|0,0:0|0:0,0:0:0:0:
260,367,53295,6,0,P|206:318|214:247,1,148.50000453186,6|0,1:2|0:0,0:0:0:0:
187,215,53595,2,0,P|138:226|91:239,1,99.0000030212403,10|0,0:0|0:0,0:0:0:0:
242,2,53895,2,0,P|250:50|257:99,1,99.0000030212403,2|0,1:2|1:0,0:0:0:0:
347,233,54195,1,10,0:0:0:0:
509,107,54345,6,0,B|462:80|414:106|414:106|389:153|331:144,1,198.000006042481,2|0,0:0|0:0,0:0:0:0:
448,281,54795,2,0,P|467:236|459:187,1,99.0000030212403,10|0,0:0|0:0,0:0:0:0:
331,144,55095,1,2,1:2:0:0:
278,351,55245,1,0,1:0:0:0:
191,294,55395,2,0,P|248:249|320:256,1,148.50000453186,10|0,0:0|0:0,0:0:0:0:
347,241,55695,6,0,P|337:192|330:143,1,99.0000030212403,2|0,1:2|0:0,0:0:0:0:
477,64,55995,2,0,P|470:113|460:161,1,99.0000030212403,10|0,0:0|0:0,0:0:0:0:
306,47,56295,1,2,1:2:0:0:
159,161,56445,1,2,1:2:0:0:
113,0,56595,1,8,0:0:0:0:
263,135,56745,6,0,P|247:232|231:330,1,198.000006042481,2|0,0:0|1:0,0:0:0:0:
444,256,57195,2,0,P|395:248|346:240,1,99.0000030212403,8|0,0:0|0:0,0:0:0:0:
146,250,57495,1,2,1:2:0:0:
364,140,57645,1,2,1:2:0:0:
195,10,57795,2,0,P|146:63|74:61,1,148.50000453186,10|0,0:2|0:0,0:0:0:0:
49,36,58095,5,6,1:2:0:0:
146,250,58245,1,2,0:0:0:0:
263,135,58395,2,0,P|215:147|167:159,1,99.0000030212403,10|2,0:0|0:0,0:0:0:0:
332,10,58695,2,0,P|408:68|503:51,1,198.000006042481,2|10,1:2|0:0,0:0:0:0:
374,257,59145,6,0,P|365:208|358:159,1,99.0000030212403,2|0,0:0|1:0,0:0:0:0:
461,340,59445,1,0,0:0:0:0:
249,286,59595,2,0,P|200:294|151:301,1,99.0000030212403,10|0,0:0|0:0,0:0:0:0:
139,333,59820,1,0,0:0:0:0:
138,332,59895,2,0,P|119:288|125:239,1,99.0000030212403,2|0,1:2|1:0,0:0:0:0:
27,76,60195,2,0,P|88:117|158:102,1,148.50000453186,10|0,0:0|0:0,0:0:0:0:
177,70,60495,5,2,1:2:0:0:
249,286,60645,2,0,P|258:237|266:188,1,99.0000030212403,2|8,0:0|0:0,0:0:0:0:
310,24,60945,1,2,0:0:0:0:
443,107,61095,2,0,B|410:99|372:90|372:90|317:115|317:115|286:108|253:100,1,198.000006042481,2|10,1:2|0:0,0:0:0:0:
249,286,61545,6,0,P|297:274|345:262,1,99.0000030212403,0|0,0:0|1:0,0:0:0:0:
294,380,61845,1,0,0:0:0:0:
196,188,61995,2,0,P|139:233|67:230,1,148.50000453186,10|0,0:0|0:0,0:0:0:0:
43,259,62295,2,0,P|36:210|28:162,1,99.0000030212403,2|0,1:2|1:0,0:0:0:0:
210,90,62595,2,0,P|202:138|195:187,1,99.0000030212403,10|0,0:0|0:0,0:0:0:0:
416,330,62895,6,0,P|342:268|248:285,1,198.000006042481,6|8,1:2|0:0,0:0:0:0:
445,195,63345,1,0,1:0:0:0:
391,44,63495,2,0,P|381:92|373:141,1,99.0000030212403,0|0,0:0|1:0,0:0:0:0:
248,284,63795,1,8,0:0:0:0:
111,156,63945,1,0,0:0:0:0:
50,353,64095,5,2,1:2:0:0:
178,217,64245,1,0,1:0:0:0:
275,373,64395,2,0,P|322:360|371:349,1,99.0000030212403,10|0,0:0|1:0,0:0:0:0:
303,151,64695,1,2,0:0:0:0:
248,284,64845,1,0,1:0:0:0:
256,66,64995,2,0,P|320:99|391:83,1,148.50000453186,10|0,0:0|0:0,0:0:0:0:
409,46,65295,6,0,P|415:96|422:145,1,99.0000030212403,2|0,1:2|0:0,0:0:0:0:
505,304,65595,2,0,P|434:240|341:260,1,198.000006042481,8|2,0:0|0:0,0:0:0:0:
275,373,66045,1,0,1:0:0:0:
178,217,66195,2,0,P|169:265|159:314,1,99.0000030212403,8|0,0:0|0:0,0:0:0:0:
86,153,66495,5,2,1:2:0:0:
286,213,66645,1,0,1:0:0:0:
302,11,66795,2,0,P|231:75|137:60,1,198.000006042481,10|2,0:0|1:2,0:0:0:0:
178,217,67245,5,8,0:0:0:0:
18,9,67395,2,0,P|12:58|6:109,1,99.0000030212403,10|8,0:0|0:0,0:0:0:0:
17,297,67695,6,0,B|61:262|111:274|111:274|146:317|198:305,1,198.000006042481,6|8,1:2|0:0,0:0:0:0:
237,74,68145,1,0,0:0:0:0:
178,217,68295,2,0,P|169:168|163:119,1,99.0000030212403,0|0,1:0|1:0,0:0:0:0:
328,21,68595,2,0,P|390:60|462:49,1,148.50000453186,8|0,0:0|0:0,0:0:0:0:
482,73,68895,6,0,P|475:122|467:170,1,99.0000030212403,0|0,1:0|0:0,0:0:0:0:
445,322,69195,1,10,0:0:0:0:
344,140,69345,1,0,0:0:0:0:
253,304,69495,2,0,P|301:295|350:285,1,99.0000030212403,2|0,1:2|1:0,0:0:0:0:
196,119,69795,2,0,P|187:167|177:216,1,99.0000030212403,8|0,0:0|0:0,0:0:0:0:
239,14,70095,5,14,0:0:0:0:
301,218,70245,1,0,1:0:0:0:
482,73,70395,2,0,P|427:58|372:47,1,112.5,8|0,0:0|1:0,0:0:0:0:
246,327,70695,2,0,P|300:312|355:301,1,112.5,8|0,0:0|1:0,0:0:0:0:
132,36,70995,2,0,P|117:90|106:145,1,112.5,8|0,0:0|1:0,0:0:0:0:
355,301,71295,5,8,0:0:0:0:
218,87,71445,1,0,1:0:0:0:
135,297,71595,5,8,0:0:0:0:
457,226,71745,1,0,1:0:0:0:
322,45,71895,5,8,0:0:0:0:
268,353,72045,1,0,1:0:0:0:
105,145,72195,5,8,0:0:0:0:
355,301,72345,1,0,1:0:0:0:
442,126,72495,5,2,0:0:0:0:
401,137,77895,6,0,P|398:121|397:110,14,16.8750006437302,0|0|0|0|0|0|0|0|0|0|0|0|0|0|0,3:0|3:0|3:0|3:0|3:0|3:0|3:0|3:0|3:0|3:0|3:0|3:0|3:0|3:0|3:0,0:0:0:0:
411,171,78495,6,0,P|367:160|323:150,1,90,4|0,1:2|0:0,0:0:0:0:
64,268,78795,2,0,B|157:252|135:329|232:306,1,180,10|2,0:0|1:2,0:0:0:0:
323,150,79245,1,2,0:0:0:0:
198,219,79395,2,0,P|190:174|184:130,1,90,10|2,0:0|0:0,0:0:0:0:
279,0,79695,6,0,P|353:48|440:33,1,180,6|8,1:2|0:0,0:0:0:0:
335,239,80145,2,0,P|329:194|322:149,1,90,6|0,0:0|1:0,0:0:0:0:
417,314,80445,1,6,0:0:0:0:
232,264,80595,2,0,P|168:286|104:309,1,135,8|0,0:0|0:0,0:0:0:0:
70,294,80895,6,0,P|58:250|66:207,1,90,2|0,1:2|0:0,0:0:0:0:
174,56,81195,2,0,P|88:73|20:18,1,180,10|2,0:0|1:2,0:0:0:0:
227,183,81645,1,2,0:0:0:0:
268,10,81795,2,0,P|274:54|280:99,1,90,10|2,0:0|0:0,0:0:0:0:
417,314,82095,6,0,P|352:254|265:263,1,180,6|8,1:2|0:0,0:0:0:0:
418,93,82545,2,0,P|411:137|405:182,1,90,6|0,0:0|1:0,0:0:0:0:
485,17,82845,1,6,0:0:0:0:
304,72,82995,2,0,P|259:65|214:59,1,90,8|0,0:0|0:0,0:0:0:0:
63,293,83295,6,0,P|25:238|32:173,1,135,2|0,1:2|0:0,0:0:0:0:
12,154,83595,2,0,P|61:143|101:132,1,90,10|0,0:0|0:0,0:0:0:0:
201,152,83895,1,2,1:2:0:0:
127,33,84045,1,2,0:0:0:0:
153,254,84195,2,0,P|202:243|242:232,1,90,10|2,0:0|0:0,0:0:0:0:
387,30,84495,6,0,B|335:44|318:83|318:83|284:54|234:55,1,180,6|8,1:2|0:0,0:0:0:0:
382,211,84945,2,0,P|392:168|398:123,1,90,6|0,0:0|1:0,0:0:0:0:
439,307,85245,1,6,0:0:0:0:
278,215,85395,2,0,P|235:227|192:239,1,90,8|0,0:0|0:0,0:0:0:0:
150,226,85620,1,0,0:0:0:0:
149,226,85695,6,0,P|136:268|144:312,1,90,6|0,1:2|1:0,0:0:0:0:
167,339,85920,1,0,1:0:0:0:
167,339,85995,1,2,1:2:0:0:
278,215,86145,2,0,P|270:170|264:126,1,90,8|2,0:0|1:2,0:0:0:0:
354,256,86445,1,2,1:2:0:0:
455,133,86595,2,0,P|410:138|366:146,1,90,8|2,0:0|1:2,0:0:0:0:
343,342,86895,6,0,P|360:300|354:256,1,90,0|0,1:0|0:0,0:0:0:0:
278,215,87345,1,2,0:1:0:0:
278,215,87645,2,0,P|269:281|260:348,1,135,2|0,0:1|0:0,0:0:0:0:
