osu file format v14

[General]
AudioFilename: audio.mp3
AudioLeadIn: 0
PreviewTime: 47820
Countdown: 0
SampleSet: Soft
StackLeniency: 0.5
Mode: 0
LetterboxInBreaks: 0
WidescreenStoryboard: 1

[Editor]
Bookmarks: 106,9706,19306,26506,28906,36106,38506,47956,69706,70606,72106,78106
DistanceSpacing: 0.7
BeatDivisor: 4
GridSize: 8
TimelineZoom: 2.6

[Metadata]
Title:Gravitation (TV Size)
TitleUnicode:Gravitation (TV Size)
Artist:Kurosaki Maon
ArtistUnicode:黒崎真音
Creator:Aakki
Version:Kowari's Extra
Source:とある魔術の禁書目録Ⅲ
Tags:japanese rock jrock j-rock xiced door weapon dog food op anime toaru majutsu no mokuroku index scientific railgun kagaku season three opening kowari shizuku- kazato asa shikibe mayu kirishima- a certain magical iii 3
BeatmapID:2228910
BeatmapSetID:1063169

[Difficulty]
HPDrainRate:6
CircleSize:4
OverallDifficulty:9
ApproachRate:9.3
SliderMultiplier:1.7
SliderTickRate:1

[Events]
//Background and Video events
0,0,"bg.jpg",0,0
Video,-370,"vid.mp4"
//Break Periods
2,74895,77341
//Storyboard Layer 0 (Background)
//Storyboard Layer 1 (Fail)
//Storyboard Layer 2 (Pass)
//Storyboard Layer 3 (Foreground)
//Storyboard Layer 4 (Overlay)
//Storyboard Sound Samples

[TimingPoints]
495,300,4,2,1,60,1,0
495,-125,4,2,1,60,0,0
9495,-200,4,2,1,30,0,0
10095,-100,4,2,1,70,0,0
19695,-125,4,2,1,50,0,0
26895,-125,4,2,1,50,0,0
29295,-125,4,2,1,60,0,0
36495,-125,4,2,1,60,0,0
38895,-133.333333333333,4,2,1,40,0,0
43695,-111.111111111111,4,2,1,60,0,0
46095,-76.9230769230769,4,2,1,60,0,0
48345,-90.9090909090909,4,2,1,80,0,1
62895,-90.9090909090909,4,2,1,70,0,1
67695,-90.9090909090909,4,2,1,80,0,1
69945,-90.9090909090909,4,2,1,80,0,0
70095,-80,4,2,1,85,0,1
72495,-80,4,2,1,45,0,0
77895,-133.333333333333,4,2,1,30,0,0
78495,-100,4,2,1,70,0,0
86895,-200,4,2,1,50,0,0

[Colours]
Combo1 : 151,0,151
Combo2 : 255,47,255
Combo3 : 223,223,0
Combo4 : 0,223,223

[HitObjects]
401,251,495,6,0,L|389:340,1,68,6|2,1:2|1:2,0:0:0:0:
272,198,795,2,0,P|309:181|348:194,1,68,10|2,0:0|0:0,0:0:0:0:
250,336,1095,2,0,B|199:327|199:327|182:308|182:308|111:297,1,136,10|10,0:0|0:0,0:0:0:0:
54,190,1545,6,0,P|90:150|176:168,1,136,2|2,1:2|1:2,0:0:0:0:
256,40,1995,2,0,L|181:47,1,68,10|2,0:0|0:0,0:0:0:0:
324,165,2295,1,8,0:0:0:0:
324,165,2370,1,8,0:0:0:0:
324,165,2445,2,0,L|333:89,1,68,0|8,1:0|0:0,0:0:0:0:
503,201,2745,6,0,P|465:233|381:215,1,136,2|2,1:2|1:2,0:0:0:0:
440,83,3195,2,0,L|437:158,1,68,10|2,0:0|0:0,0:0:0:0:
306,261,3495,2,0,L|303:193,1,68,10|2,0:0|0:0,0:0:0:0:
403,306,3795,1,10,0:0:0:0:
299,365,3945,6,0,B|217:362|261:322|157:328,1,136,2|10,1:2|0:0,0:0:0:0:
24,288,4395,2,0,L|32:363,1,68,10|2,0:0|1:2,0:0:0:0:
120,197,4695,1,8,0:0:0:0:
120,197,4770,1,8,0:0:0:0:
120,197,4845,2,0,L|110:274,1,68,0|8,1:0|0:0,0:0:0:0:
48,109,5145,6,0,B|136:87|136:87|187:118,1,136,2|2,1:2|1:2,0:0:0:0:
294,193,5595,2,0,L|309:46,2,136,10|10|10,0:0|0:0|0:0,0:0:0:0:
369,281,6345,2,0,L|439:268,1,68,2|2,1:2|0:0,0:0:0:0:
509,176,6645,5,2,1:2:0:0:
414,112,6795,2,0,P|398:150|409:190,1,68,10|2,0:0|0:0,0:0:0:0:
512,66,7095,1,8,0:0:0:0:
512,66,7170,1,8,0:0:0:0:
512,66,7245,1,0,1:0:0:0:
411,189,7395,1,8,0:0:0:0:
335,29,7545,6,0,B|280:26|280:26|256:42|256:42|194:40,1,136,2|2,1:2|1:2,0:0:0:0:
108,99,7995,2,0,P|96:134|106:173,1,68,10|2,0:0|0:0,0:0:0:0:
265,231,8295,5,10,0:0:0:0:
191,135,8445,1,2,0:0:0:0:
155,303,8595,1,10,0:0:0:0:
194,117,8745,1,2,1:2:0:0:
428,316,9495,6,0,P|472:308|431:311,1,148.75,0|0,3:0|3:0,0:0:0:0:
453,328,10095,6,0,L|360:341,1,85,4|0,1:2|0:0,0:0:0:0:
305,142,10395,2,0,P|346:168|354:211,1,85,10|0,0:0|0:0,0:0:0:0:
231,270,10695,1,2,1:2:0:0:
161,152,10845,2,0,L|173:63,1,85,2|10,0:0|0:0,0:0:0:0:
53,221,11145,1,2,0:0:0:0:
159,347,11295,6,0,P|234:307|311:351,1,170,6|8,1:2|0:0,0:0:0:0:
410,169,11745,2,0,L|399:264,1,85,6|0,0:0|1:0,0:0:0:0:
322,69,12045,1,6,0:0:0:0:
504,120,12195,2,0,L|493:215,1,85,8|0,0:0|0:0,0:0:0:0:
332,320,12495,6,0,P|286:331|250:316,1,85,2|0,1:2|0:0,0:0:0:0:
285,152,12795,2,0,L|296:247,1,85,10|0,0:0|0:0,0:0:0:0:
147,336,13095,1,2,1:2:0:0:
191,113,13245,2,0,L|202:208,1,85,2|10,0:0|0:0,0:0:0:0:
56,258,13545,1,2,0:0:0:0:
0,93,13695,6,0,P|28:52|145:52,1,170,6|8,1:2|0:0,0:0:0:0:
283,175,14145,2,0,L|297:89,1,85,6|0,0:0|1:0,0:0:0:0:
145,208,14445,1,6,0:0:0:0:
271,308,14595,2,0,L|364:293,1,85,8|0,0:0|0:0,0:0:0:0:
474,131,14895,6,0,B|395:116|395:116|377:130|372:162,1,127.5,2|0,1:2|0:0,0:0:0:0:
407,224,15195,2,0,P|451:229|494:201,1,85,10|0,0:0|0:0,0:0:0:0:
339,65,15495,1,2,1:2:0:0:
278,272,15645,2,0,L|182:256,1,85,2|10,0:0|0:0,0:0:0:0:
90,136,15945,1,2,0:0:0:0:
202,25,16095,6,0,B|247:71|247:71|205:175,1,170,6|8,1:2|0:0,0:0:0:0:
11,190,16545,2,0,P|-8:141|9:97,1,85,6|0,0:0|1:0,0:0:0:0:
156,251,16845,1,6,0:0:0:0:
84,367,16995,2,0,L|-6:360,1,85,8|0,0:0|0:0,0:0:0:0:
156,251,17295,5,6,1:2:0:0:
262,384,17445,1,0,1:0:0:0:
262,384,17520,1,0,1:0:0:0:
262,384,17595,2,0,L|276:280,1,85,2|8,1:2|0:0,0:0:0:0:
328,105,17895,1,2,1:2:0:0:
172,172,18045,2,0,L|264:167,1,85,2|8,1:2|0:0,0:0:0:0:
443,232,18345,1,2,1:2:0:0:
381,39,18495,5,6,1:2:0:0:
302,228,18645,2,0,L|355:215,1,42.5,0|0,1:0|1:0,0:0:0:0:
496,163,18795,1,0,1:0:0:0:
295,36,18945,2,0,P|245:25|206:37,1,85,14|0,0:0|1:0,0:0:0:0:
343,217,19245,1,6,1:2:0:0:
453,84,19395,2,0,L|461:-6,1,85,8|2,0:0|1:2,0:0:0:0:
302,228,19695,6,0,B|323:312|323:312|291:381,1,136,4|10,1:2|0:0,0:0:0:0:
126,328,20145,2,0,P|169:281|242:297,1,136,2|2,0:0|1:2,0:0:0:0:
231,173,20595,1,8,0:0:0:0:
159,238,20745,1,2,0:0:0:0:
73,172,20895,6,0,L|61:23,1,136,2|10,1:2|0:0,0:0:0:0:
182,5,21345,2,0,B|271:6|231:52|326:43,1,136,2|2,0:0|1:2,0:0:0:0:
201,168,21795,2,0,L|191:92,1,68,8|2,0:0|0:0,0:0:0:0:
268,235,22095,6,0,P|312:194|393:224,1,136,2|10,1:2|0:0,0:0:0:0:
471,324,22545,2,0,L|487:181,1,136,2|2,0:0|1:2,0:0:0:0:
402,98,22995,1,10,0:0:0:0:
482,45,23145,1,2,0:0:0:0:
334,31,23295,5,2,1:2:0:0:
344,175,23445,2,0,L|267:163,1,68,2|8,0:0|0:0,0:0:0:0:
150,65,23745,2,0,B|184:102|184:102|167:191,1,136,2|2,1:2|1:2,0:0:0:0:
34,248,24195,1,8,0:0:0:0:
77,163,24345,1,0,1:0:0:0:
101,318,24495,6,0,B|154:318|154:318|179:304|179:304|251:303,1,136,2|10,1:2|0:0,0:0:0:0:
313,250,24945,1,2,0:0:0:0:
380,384,25095,2,0,L|389:306,1,68,2|0,0:0|1:0,0:0:0:0:
363,169,25395,1,10,0:0:0:0:
434,233,25545,1,2,0:0:0:0:
489,113,25695,6,0,B|417:116|449:70|348:74,1,136,2|10,1:2|0:0,0:0:0:0:
234,144,26145,2,0,P|270:98|232:14,1,136,2|2,0:0|1:2,0:0:0:0:
120,66,26595,2,0,L|193:79,1,68,8|0,0:0|0:0,0:0:0:0:
178,294,26895,6,0,L|151:151,1,136,0|8,1:0|0:0,0:0:0:0:
260,363,27345,2,0,L|287:220,1,136,0|0,1:0|1:0,0:0:0:0:
378,246,27795,1,8,0:0:0:0:
346,157,27945,1,0,0:0:0:0:
449,53,28095,6,0,P|472:115|441:174,1,136,0|8,1:0|0:0,0:0:0:0:
291,38,28545,2,0,L|365:30,1,68,0|0,1:0|1:0,0:0:0:0:
257,136,28845,1,0,1:0:0:0:
153,66,28995,2,0,L|165:-4,1,68,8|2,0:0|0:0,0:0:0:0:
55,198,29295,6,0,L|75:362,1,136,6|10,1:2|0:0,0:0:0:0:
218,280,29745,1,2,0:0:0:0:
144,221,29895,1,2,1:2:0:0:
173,366,30045,1,2,1:2:0:0:
290,218,30195,1,10,0:0:0:0:
275,359,30345,1,2,0:0:0:0:
334,140,30495,6,0,P|276:124|206:189,1,136,2|10,1:2|0:0,0:0:0:0:
299,285,30945,2,0,L|287:202,1,68,2|0,0:0|1:0,0:0:0:0:
374,344,31245,1,2,1:2:0:0:
406,254,31395,1,8,0:0:0:0:
467,328,31545,1,2,0:0:0:0:
445,167,31695,6,0,L|521:154,1,68,2|0,1:2|0:0,0:0:0:0:
354,78,31995,2,0,L|278:65,1,68,10|0,0:0|0:0,0:0:0:0:
172,156,32295,1,2,1:2:0:0:
134,71,32445,1,2,1:2:0:0:
170,171,32595,1,10,0:0:0:0:
213,3,32745,1,2,0:0:0:0:
255,216,32895,5,2,1:2:0:0:
69,162,33045,2,0,L|86:245,1,68,2|8,0:0|0:0,0:0:0:0:
230,372,33345,2,0,P|198:330|109:349,1,136,2|2,1:2|1:2,0:0:0:0:
302,311,33795,2,0,L|378:302,1,68,8|2,0:0|0:0,0:0:0:0:
500,263,34095,6,0,B|428:261|462:221|366:221,2,136,2|10|2,1:2|0:0|1:2,0:0:0:0:
422,129,34845,1,2,1:2:0:0:
512,104,34995,2,0,L|500:185,1,68,10|2,0:0|0:0,0:0:0:0:
415,36,35295,6,0,B|337:63|337:63|281:43,1,136,2|10,1:2|0:0,0:0:0:0:
234,139,35745,2,0,L|248:211,1,68,2|0,0:0|1:0,0:0:0:0:
148,100,36045,1,2,1:2:0:0:
116,266,36195,2,0,P|155:276|188:264,1,68,8|0,0:0|0:0,0:0:0:0:
65,186,36495,5,0,1:0:0:0:
37,369,36645,2,0,L|28:293,1,68,0|8,0:0|0:0,0:0:0:0:
181,268,36945,2,0,B|270:266|229:313|319:302,1,136,0|0,1:0|1:0,0:0:0:0:
384,246,37395,1,8,0:0:0:0:
358,384,37545,1,0,0:0:0:0:
296,208,37695,6,0,L|303:168,3,34,0|0|0|0,1:0|1:0|1:0|1:0,0:0:0:0:
303,223,37995,1,8,0:0:0:0:
470,294,38145,2,0,L|491:150,1,136,0|0,1:0|1:0,0:0:0:0:
408,38,38595,2,0,L|420:106,1,68,8|2,0:0|0:0,0:0:0:0:
318,202,38895,5,6,1:2:0:0:
318,202,39045,2,0,L|182:186,1,127.500004863739,2|2,0:0|0:0,0:0:0:0:
305,114,39495,2,0,L|169:98,1,127.500004863739,10|2,0:0|0:0,0:0:0:0:
90,0,39945,2,0,L|101:68,1,63.7500024318696,2|0,1:2|0:0,0:0:0:0:
30,185,40245,1,2,1:2:0:0:
30,185,40395,2,0,L|40:122,1,63.7500024318696,2|0,1:2|1:0,0:0:0:0:
79,266,40695,1,10,0:0:0:0:
146,199,40845,1,2,0:0:0:0:
141,336,40995,2,0,P|196:300|241:321,1,95.6250036478044,2|0,1:2|0:0,0:0:0:0:
244,330,41295,6,0,L|234:196,1,127.500004863739,2|2,1:2|1:2,0:0:0:0:
320,85,41745,2,0,L|311:148,1,63.7500024318696,2|8,0:0|0:0,0:0:0:0:
371,221,42045,2,0,P|415:229|442:214,1,63.7500024318696,2|0,0:0|0:0,0:0:0:0:
511,119,42345,2,0,B|433:99|433:99|400:132,2,127.500004863739,2|2|2,1:2|1:2|1:2,0:0:0:0:
443,284,43095,2,0,L|428:204,1,63.7500024318696,8|0,0:0|0:0,0:0:0:0:
336,86,43395,1,8,0:0:0:0:
277,249,43545,1,8,0:0:0:0:
241,38,43695,6,0,L|255:133,1,76.4999976654053,10|2,0:0|1:2,0:0:0:0:
154,277,43995,2,0,L|165:201,1,76.4999976654053,8|2,0:0|1:2,0:0:0:0:
336,86,44295,5,10,0:0:0:0:
157,7,44445,1,0,1:0:0:0:
303,189,44595,1,10,0:0:0:0:
261,12,44745,1,2,1:2:0:0:
165,201,44895,6,0,P|118:219|72:208,1,76.4999976654053,8|2,0:0|1:2,0:0:0:0:
44,51,45195,1,8,0:0:0:0:
7,257,45345,1,0,1:0:0:0:
121,105,45495,5,10,0:0:0:0:
78,320,45645,1,2,1:2:0:0:
36,146,45795,1,10,0:0:0:0:
167,288,45945,1,0,1:0:0:0:
206,40,46095,6,0,L|198:108,1,55.2499974708558,8|8,0:0|0:0,0:0:0:0:
337,335,46245,1,8,0:0:0:0:
289,109,46395,1,8,0:0:0:0:
154,309,46545,1,8,0:0:0:0:
444,69,46695,5,8,0:0:0:0:
107,180,46845,1,8,0:0:0:0:
344,355,46995,1,2,1:2:0:0:
285,18,47145,1,6,1:2:0:0:
483,351,48195,5,10,0:0:0:0:
382,138,48345,2,0,B|428:187|428:187|409:308,1,187.000005706787,6|0,1:2|1:0,0:0:0:0:
232,236,48795,2,0,L|330:217,1,93.5000028533936,10|0,0:0|0:0,0:0:0:0:
183,348,49095,1,2,1:2:0:0:
108,173,49245,1,0,1:0:0:0:
72,293,49395,1,10,0:0:0:0:
212,114,49545,6,0,P|168:60|49:69,1,187.000005706787,2|0,0:0|0:0,0:0:0:0:
232,236,49995,2,0,L|330:217,1,93.5000028533936,10|0,0:0|0:0,0:0:0:0:
395,32,50295,1,2,1:2:0:0:
477,167,50445,1,0,1:0:0:0:
254,131,50595,2,0,P|245:84|278:26,1,93.5000028533936,10|0,0:0|0:0,0:0:0:0:
415,238,50895,6,0,L|395:382,1,140.25000428009,2|0,1:2|0:0,0:0:0:0:
395,376,51195,2,0,P|336:377|302:345,1,93.5000028533936,10|0,0:0|0:0,0:0:0:0:
266,162,51495,1,2,1:2:0:0:
172,382,51645,2,0,L|181:266,1,93.5000028533936,2|8,1:2|0:0,0:0:0:0:
336,213,51945,1,2,0:0:0:0:
140,103,52095,5,0,1:0:0:0:
259,252,52245,1,0,0:0:0:0:
75,327,52395,2,0,L|86:223,1,93.5000028533936,8|0,0:0|0:0,0:0:0:0:
243,63,52695,5,0,1:0:0:0:
179,237,52845,1,0,1:0:0:0:
65,40,52995,2,0,P|118:12|156:13,1,93.5000028533936,8|0,0:0|0:0,0:0:0:0:
341,139,53295,6,0,L|358:39,1,93.5000028533936,6|0,1:2|0:0,0:0:0:0:
262,289,53595,2,0,L|277:381,1,93.5000028533936,10|0,0:0|0:0,0:0:0:0:
464,302,53895,1,2,1:2:0:0:
331,230,54045,1,0,1:0:0:0:
396,384,54195,1,10,0:0:0:0:
424,177,54345,6,0,P|371:134|251:163,1,187.000005706787,2|0,0:0|0:0,0:0:0:0:
316,322,54795,2,0,L|332:222,1,93.5000028533936,10|0,0:0|0:0,0:0:0:0:
160,122,55095,1,2,1:2:0:0:
228,266,55245,1,0,1:0:0:0:
349,87,55395,2,0,L|258:64,1,93.5000028533936,10|0,0:0|0:0,0:0:0:0:
10,209,55695,6,0,B|104:185|104:185|156:213,1,140.25000428009,2|0,1:2|0:0,0:0:0:0:
142,205,55995,2,0,L|131:305,1,93.5000028533936,10|0,0:0|0:0,0:0:0:0:
324,218,56295,1,2,1:2:0:0:
225,372,56445,1,2,1:2:0:0:
228,156,56595,1,8,0:0:0:0:
411,280,56745,1,2,0:0:0:0:
228,266,56895,5,0,1:0:0:0:
418,160,57045,1,0,1:0:0:0:
309,42,57195,2,0,L|305:146,1,93.5000028533936,8|0,0:0|0:0,0:0:0:0:
411,280,57495,5,2,1:2:0:0:
476,65,57645,1,2,1:2:0:0:
305,135,57795,1,10,0:2:0:0:
500,226,57945,1,2,1:2:0:0:
362,356,58095,6,0,P|328:313|327:263,1,93.5000028533936,6|2,1:2|0:0,0:0:0:0:
476,65,58395,2,0,P|468:110|438:145,1,93.5000028533936,10|2,0:0|0:0,0:0:0:0:
214,159,58695,1,2,1:2:0:0:
381,64,58845,1,0,1:0:0:0:
324,275,58995,1,10,0:0:0:0:
261,55,59145,6,0,B|194:49|194:49|156:20|156:20|75:14,1,187.000005706787,2|0,0:0|0:0,0:0:0:0:
105,216,59595,2,0,L|125:107,1,93.5000028533936,10|0,0:0|0:0,0:0:0:0:
267,240,59895,1,2,1:2:0:0:
141,322,60045,1,0,1:0:0:0:
211,150,60195,2,0,P|275:134|310:149,1,93.5000028533936,10|0,0:0|0:0,0:0:0:0:
280,332,60495,6,0,L|264:219,1,93.5000028533936,2|2,1:2|0:0,0:0:0:0:
413,98,60795,2,0,L|399:190,1,93.5000028533936,8|2,0:0|0:0,0:0:0:0:
188,77,61095,1,2,1:2:0:0:
367,15,61245,1,0,1:0:0:0:
266,239,61395,1,10,0:0:0:0:
142,4,61545,6,0,B|91:50|91:50|128:168,1,187.000005706787,2|0,0:0|0:0,0:0:0:0:
323,128,61995,2,0,L|222:106,1,93.5000028533936,10|0,0:0|0:0,0:0:0:0:
112,280,62295,1,2,1:2:0:0:
244,217,62445,1,0,1:0:0:0:
51,102,62595,2,0,P|28:153|38:196,1,93.5000028533936,10|0,0:0|0:0,0:0:0:0:
181,358,62895,5,6,1:2:0:0:
160,164,63045,1,0,0:0:0:0:
32,314,63195,1,8,0:0:0:0:
225,239,63345,2,0,B|337:226|299:295|419:273,1,187.000005706787,0|0,1:0|1:0,0:0:0:0:
396,78,63795,2,0,L|375:175,1,93.5000028533936,8|0,0:0|0:0,0:0:0:0:
497,308,64095,5,2,1:2:0:0:
317,250,64245,1,0,1:0:0:0:
480,168,64395,1,10,0:0:0:0:
369,347,64545,2,0,P|301:362|219:251,1,187.000005706787,0|0,1:0|1:0,0:0:0:0:
284,105,64995,1,10,0:0:0:0:
317,250,65145,1,0,0:0:0:0:
388,32,65295,6,0,L|189:11,1,187.000005706787,2|8,1:2|0:0,0:0:0:0:
28,95,65745,2,0,L|135:79,1,93.5000028533936,0|2,1:0|0:0,0:0:0:0:
216,236,66045,1,0,1:0:0:0:
283,104,66195,1,8,0:0:0:0:
106,188,66345,1,0,0:0:0:0:
287,347,66495,6,0,B|337:294|337:294|311:171,1,187.000005706787,2|10,1:2|0:0,0:0:0:0:
452,73,66945,1,0,1:0:0:0:
405,218,67095,1,2,1:2:0:0:
259,45,67245,5,8,0:0:0:0:
502,177,67395,1,10,0:0:0:0:
244,273,67545,1,8,0:0:0:0:
360,0,67695,6,0,L|339:192,1,187.000005706787,6|8,1:2|0:0,0:0:0:0:
129,140,68145,2,0,L|228:118,1,93.5000028533936,0|0,0:0|1:0,0:0:0:0:
365,314,68445,1,0,1:0:0:0:
216,231,68595,1,8,0:0:0:0:
440,186,68745,1,0,0:0:0:0:
300,384,68895,6,0,P|268:323|276:285,1,93.5000028533936,0|0,1:0|0:0,0:0:0:0:
369,99,69195,2,0,P|366:145|339:182,1,93.5000028533936,10|0,0:0|0:0,0:0:0:0:
170,70,69495,1,2,1:2:0:0:
334,10,69645,1,0,1:0:0:0:
198,188,69795,2,0,L|96:166,1,93.5000028533936,8|0,0:0|0:0,0:0:0:0:
324,288,70095,5,14,0:0:0:0:
245,43,70245,1,0,1:0:0:0:
117,262,70395,1,8,0:0:0:0:
387,166,70545,1,0,1:0:0:0:
162,117,70695,6,0,L|49:129,1,106.25,8|0,0:0|1:0,0:0:0:0:
324,288,70995,2,0,L|437:300,1,106.25,8|0,0:0|1:0,0:0:0:0:
256,42,71295,5,8,0:0:0:0:
159,322,71445,1,0,1:0:0:0:
386,186,71595,1,8,0:0:0:0:
116,119,71745,1,0,1:0:0:0:
323,318,71895,5,8,0:0:0:0:
134,129,72045,1,0,1:0:0:0:
388,86,72195,1,8,0:0:0:0:
177,310,72345,1,0,1:0:0:0:
276,154,72495,5,2,0:0:0:0:
352,252,77895,6,0,P|313:227|326:325,1,223.125008511544,0|0,3:0|3:0,0:0:0:0:
437,251,78495,6,0,L|446:155,1,85,4|0,1:2|0:0,0:0:0:0:
366,22,78795,2,0,L|373:106,1,85,10|0,0:0|0:0,0:0:0:0:
274,193,79095,1,2,1:2:0:0:
193,87,79245,2,0,L|281:70,1,85,2|10,0:0|0:0,0:0:0:0:
271,220,79545,1,2,0:0:0:0:
119,188,79695,6,0,B|79:148|79:148|99:30,1,170,6|8,1:2|0:0,0:0:0:0:
184,260,80145,2,0,P|130:286|91:281,1,85,6|0,0:0|1:0,0:0:0:0:
191,135,80445,1,6,0:0:0:0:
281,270,80595,2,0,P|261:326|230:350,1,85,8|0,0:0|0:0,0:0:0:0:
191,135,80895,6,0,L|288:118,1,85,2|0,1:2|0:0,0:0:0:0:
428,209,81195,2,0,L|331:192,1,85,10|0,0:0|0:0,0:0:0:0:
330,52,81495,1,2,1:2:0:0:
478,52,81645,2,0,P|495:103|481:141,1,85,2|10,0:0|0:0,0:0:0:0:
344,194,81945,1,2,0:0:0:0:
462,307,82095,6,0,B|396:308|396:308|368:332|368:332|293:337,1,170,6|8,1:2|0:0,0:0:0:0:
185,217,82545,2,0,L|203:304,1,85,6|0,0:0|1:0,0:0:0:0:
256,117,82845,1,6,0:0:0:0:
77,183,82995,2,0,L|95:270,1,85,8|0,0:0|0:0,0:0:0:0:
163,67,83295,5,2,1:2:0:0:
288,220,83445,1,0,0:0:0:0:
342,59,83595,2,0,P|384:36|424:44,1,85,10|0,0:0|0:0,0:0:0:0:
501,133,83895,1,2,1:2:0:0:
398,217,84045,2,0,L|402:128,1,85,2|10,0:0|0:0,0:0:0:0:
512,260,84345,1,2,0:0:0:0:
394,334,84495,6,0,B|293:333|347:286|226:286,1,170,6|8,1:2|0:0,0:0:0:0:
80,372,84945,2,0,B|128:335|128:335|113:209,1,170,6|6,0:0|0:0,0:0:0:0:
7,157,85395,2,0,L|20:253,1,85,8|0,0:0|0:0,0:0:0:0:
90,72,85695,5,6,1:2:0:0:
209,215,85845,1,0,1:0:0:0:
209,215,85920,1,0,1:0:0:0:
209,215,85995,2,0,L|297:195,1,85,2|8,1:2|0:0,0:0:0:0:
361,72,86295,1,2,1:2:0:0:
218,25,86445,2,0,L|246:115,1,85,2|8,1:2|0:0,0:0:0:0:
310,283,86745,1,2,1:2:0:0:
467,170,86895,6,0,P|423:142|377:151,1,85,0|0,1:0|0:0,0:0:0:0:
406,225,87345,2,0,P|387:238|371:262,1,42.5,2|0,0:1|0:0,0:0:0:0:
443,295,87645,2,0,P|438:317|444:345,1,42.5,2|0,0:1|0:0,0:0:0:0:
