osu file format v14

[General]
AudioFilename: audio.mp3
AudioLeadIn: 0
PreviewTime: 47820
Countdown: 0
SampleSet: Soft
StackLeniency: 0.4
Mode: 0
LetterboxInBreaks: 0
WidescreenStoryboard: 1

[Editor]
Bookmarks: 495,10095,19695,29295,38895,48345,72495,78495,88395
DistanceSpacing: 1
BeatDivisor: 4
GridSize: 32
TimelineZoom: 1.5

[Metadata]
Title:Gravitation (TV Size)
TitleUnicode:Gravitation (TV Size)
Artist:Kurosaki Maon
ArtistUnicode:黒崎真音
Creator:Aakki
Version:Kirishima-'s Normal
Source:とある魔術の禁書目録Ⅲ
Tags:japanese rock jrock j-rock xiced door weapon dog food op anime toaru majutsu no mokuroku index scientific railgun kagaku season three opening kowari shizuku- kazato asa shikibe mayu kirishima- a certain magical iii 3
BeatmapID:3388576
BeatmapSetID:1063169

[Difficulty]
HPDrainRate:3
CircleSize:3
OverallDifficulty:4
ApproachRate:5.5
SliderMultiplier:0.999999999999999
SliderTickRate:1

[Events]
//Background and Video events
0,0,"bg.jpg",0,0
Video,-370,"vid.mp4"
//Break Periods
2,72695,75706
//Storyboard Layer 0 (Background)
//Storyboard Layer 1 (Fail)
//Storyboard Layer 2 (Pass)
//Storyboard Layer 3 (Foreground)
//Storyboard Layer 4 (Overlay)
//Storyboard Sound Samples

[TimingPoints]
495,300,4,2,1,60,1,0
495,-100,4,2,1,60,0,0
9495,-100,4,2,1,30,0,0
10095,-100,4,2,1,70,0,0
19695,-100,4,2,1,50,0,0
29295,-100,4,2,1,60,0,0
38895,-100,4,2,1,40,0,0
43695,-100,4,2,1,60,0,0
48345,-100,4,2,1,80,0,1
62895,-100,4,2,1,70,0,1
67695,-100,4,2,1,80,0,1
70095,-100,4,2,1,85,0,1
72495,-100,4,2,1,45,0,0
77895,-100,4,2,1,30,0,0
78495,-100,4,2,1,70,0,0
86895,-100,4,2,1,50,0,0
88395,-100,4,2,1,5,0,0

[Colours]
Combo1 : 151,0,151
Combo2 : 255,47,255
Combo3 : 223,223,0
Combo4 : 0,223,223

[HitObjects]
18,48,495,6,0,P|60:24|109:33,1,99.9999999999999,6|10,1:2|0:0,0:0:0:0:
197,79,1095,2,0,L|188:128,1,50,10|2,0:0|0:0,0:0:0:0:
183,181,1395,1,10,0:0:0:0:
183,181,1545,2,0,P|225:204|274:195,1,99.9999999999999,2|2,1:2|1:2,0:0:0:0:
316,167,1995,1,10,0:0:0:0:
392,103,2295,1,8,0:0:0:0:
477,164,2595,1,8,0:0:0:0:
477,164,2745,6,0,L|494:262,1,99.9999999999999,2|2,1:2|1:2,0:0:0:0:
503,311,3195,1,10,0:0:0:0:
425,374,3495,2,0,L|376:366,1,50,10|2,0:0|0:0,0:0:0:0:
351,328,3795,1,10,0:0:0:0:
351,328,3945,2,0,L|253:345,1,99.9999999999999,2|10,1:2|0:0,0:0:0:0:
203,353,4395,1,10,0:0:0:0:
133,281,4695,1,8,0:0:0:0:
41,313,4995,1,8,0:0:0:0:
41,313,5145,6,0,P|17:270|26:222,1,99.9999999999999,2|2,1:2|1:2,0:0:0:0:
52,179,5595,1,10,0:0:0:0:
131,118,5895,2,0,L|180:126,1,50,10|2,0:0|0:0,0:0:0:0:
233,137,6195,1,10,0:0:0:0:
233,137,6345,2,0,P|241:185|217:227,1,99.9999999999999,2|2,1:2|1:2,0:0:0:0:
176,256,6795,1,10,0:0:0:0:
190,354,7095,1,8,0:0:0:0:
290,383,7395,1,8,0:0:0:0:
290,383,7545,6,0,L|388:366,1,99.9999999999999,2|2,1:2|1:2,0:0:0:0:
437,357,7995,1,10,0:0:0:0:
394,266,8295,2,0,L|402:217,1,50,10|2,0:0|0:0,0:0:0:0:
414,171,8595,1,10,0:0:0:0:
414,171,8745,1,2,1:2:0:0:
414,171,10095,6,0,L|406:122,1,50,4|0,1:2|0:0,0:0:0:0:
398,72,10395,2,0,P|349:63|307:87,1,99.9999999999999,10|2,0:0|1:2,0:0:0:0:
279,130,10845,1,2,0:0:0:0:
279,130,10995,1,10,0:0:0:0:
222,47,11295,2,0,P|179:23|131:32,1,99.9999999999999,6|8,1:2|0:0,0:0:0:0:
87,55,11745,1,6,0:0:0:0:
25,134,12045,1,6,0:0:0:0:
25,134,12195,1,8,0:0:0:0:
109,187,12495,6,0,L|117:236,1,50,2|0,1:2|0:0,0:0:0:0:
127,285,12795,2,0,L|225:302,1,99.9999999999999,10|2,0:0|1:2,0:0:0:0:
278,313,13245,1,2,0:0:0:0:
278,313,13395,1,10,0:0:0:0:
324,224,13695,2,0,L|307:126,1,99.9999999999999,6|8,1:2|0:0,0:0:0:0:
298,76,14145,1,6,0:0:0:0:
217,26,14445,1,6,0:0:0:0:
217,26,14595,1,8,0:0:0:0:
152,102,14895,6,0,L|103:94,1,50,2|0,1:2|0:0,0:0:0:0:
53,83,15195,2,0,P|29:125|37:173,1,99.9999999999999,10|2,0:0|1:2,0:0:0:0:
67,220,15645,1,2,0:0:0:0:
67,220,15795,1,10,0:0:0:0:
163,246,16095,2,0,P|139:288|147:336,1,99.9999999999999,6|8,1:2|0:0,0:0:0:0:
170,381,16545,1,6,0:0:0:0:
242,311,16845,1,6,0:0:0:0:
242,311,16995,1,8,0:0:0:0:
325,365,17295,6,0,L|374:357,1,50,6|0,1:2|1:0,0:0:0:0:
424,351,17595,2,0,L|441:253,1,99.9999999999999,2|2,1:2|1:2,0:0:0:0:
450,206,18045,1,2,1:2:0:0:
450,206,18195,1,8,0:0:0:0:
362,156,18495,2,0,L|264:173,1,99.9999999999999,6|0,1:2|1:0,0:0:0:0:
214,183,18945,1,14,0:0:0:0:
151,112,19245,1,6,1:2:0:0:
151,112,19395,2,0,L|159:63,1,50,8|2,0:0|1:2,0:0:0:0:
172,14,19695,6,0,P|220:5|262:29,1,99.9999999999999,4|10,1:2|0:0,0:0:0:0:
294,68,20145,1,2,0:0:0:0:
384,21,20445,1,2,1:2:0:0:
384,21,20595,1,8,0:0:0:0:
460,85,20895,2,0,P|484:128|475:176,1,99.9999999999999,2|10,1:2|0:0,0:0:0:0:
454,222,21345,1,2,0:0:0:0:
502,309,21645,1,2,1:2:0:0:
428,375,21945,1,2,0:0:0:0:
428,375,22095,6,0,L|330:358,1,99.9999999999999,2|10,1:2|0:0,0:0:0:0:
280,348,22545,1,2,0:0:0:0:
218,275,22845,1,2,1:2:0:0:
218,275,22995,2,0,L|226:226,2,50,10|2|2,0:0|0:0|1:2,0:0:0:0:
173,297,23445,2,0,L|75:314,1,99.9999999999999,2|2,0:0|1:2,0:0:0:0:
0,245,24045,1,2,1:2:0:0:
69,173,24345,1,0,1:0:0:0:
69,173,24495,6,0,P|77:124|53:82,1,99.9999999999999,2|10,1:2|0:0,0:0:0:0:
117,4,25095,1,2,0:0:0:0:
216,15,25395,1,10,0:0:0:0:
230,114,25695,2,0,P|273:138|321:129,1,99.9999999999999,2|10,1:2|0:0,0:0:0:0:
365,106,26145,1,2,0:0:0:0:
456,61,26445,1,2,1:2:0:0:
456,61,26595,1,8,0:0:0:0:
510,144,26895,6,0,L|493:242,1,99.9999999999999,0|8,1:0|0:0,0:0:0:0:
482,291,27345,1,0,1:0:0:0:
415,366,27645,1,0,1:0:0:0:
415,366,27795,1,8,0:0:0:0:
336,303,28095,2,0,L|238:320,2,99.9999999999999,0|8|0,1:0|0:0|1:0,0:0:0:0:
394,222,28995,2,0,L|402:173,1,50,8|2,0:0|0:0,0:0:0:0:
412,123,29295,6,0,P|363:131|321:107,1,99.9999999999999,6|10,1:2|0:0,0:0:0:0:
269,21,29895,1,2,1:2:0:0:
169,24,30195,1,10,0:0:0:0:
128,115,30495,2,0,P|79:106|37:130,1,99.9999999999999,2|10,1:2|0:0,0:0:0:0:
8,171,30945,1,2,0:0:0:0:
72,247,31245,1,2,1:2:0:0:
30,339,31545,1,2,0:0:0:0:
30,339,31695,6,0,L|128:356,1,99.9999999999999,2|10,1:2|0:0,0:0:0:0:
208,295,32295,1,2,1:2:0:0:
277,367,32595,1,10,0:0:0:0:
356,305,32895,1,2,1:2:0:0:
356,305,33045,2,0,L|454:288,1,99.9999999999999,2|2,0:0|1:2,0:0:0:0:
510,204,33645,1,2,1:2:0:0:
433,148,33945,1,2,0:0:0:0:
433,148,34095,6,0,P|409:105|418:57,1,99.9999999999999,2|10,1:2|0:0,0:0:0:0:
333,3,34695,1,2,1:2:0:0:
270,81,34995,2,0,L|221:73,1,50,10|2,0:0|0:0,0:0:0:0:
171,64,35295,2,0,P|147:106|155:154,1,99.9999999999999,2|10,1:2|0:0,0:0:0:0:
183,196,35745,1,2,0:0:0:0:
266,260,36045,1,2,1:2:0:0:
266,260,36195,1,8,0:0:0:0:
216,346,36495,6,0,L|118:363,1,99.9999999999999,0|8,1:0|0:0,0:0:0:0:
68,373,36945,1,0,1:0:0:0:
5,302,37245,1,0,1:0:0:0:
5,302,37395,1,8,0:0:0:0:
73,228,37695,2,0,L|171:245,2,99.9999999999999,0|8|0,1:0|0:0|1:0,0:0:0:0:
53,129,38595,2,0,L|45:80,1,50,8|2,0:0|0:0,0:0:0:0:
37,30,38895,6,0,P|80:6|128:15,1,99.9999999999999,6|0,1:2|1:0,0:0:0:0:
177,102,39495,2,0,P|225:110|267:86,1,99.9999999999999,10|2,0:0|0:0,0:0:0:0:
300,48,39945,1,2,1:2:0:0:
402,67,40245,1,2,1:2:0:0:
402,67,40395,2,0,L|410:116,1,50,2|0,1:2|1:0,0:0:0:0:
417,165,40695,1,10,0:0:0:0:
497,224,40995,1,2,1:2:0:0:
437,304,41295,6,0,L|339:287,1,99.9999999999999,2|2,1:2|1:2,0:0:0:0:
289,277,41745,1,2,0:0:0:0:
218,348,42045,1,2,0:0:0:0:
137,288,42345,2,0,L|120:190,1,99.9999999999999,2|2,1:2|1:2,0:0:0:0:
109,94,42945,1,2,1:2:0:0:
109,94,43095,1,8,0:0:0:0:
194,42,43395,2,0,L|243:50,1,50,8|8,0:0|0:0,0:0:0:0:
292,60,43695,6,0,P|268:102|276:150,1,99.9999999999999,10|8,0:0|0:0,0:0:0:0:
362,204,44295,2,0,L|370:253,1,50,10|0,0:0|1:0,0:0:0:0:
416,272,44595,2,0,L|408:321,1,50,10|2,0:0|1:2,0:0:0:0:
397,370,44895,2,0,P|348:378|306:354,1,99.9999999999999,8|8,0:0|0:0,0:0:0:0:
235,283,45495,2,0,L|186:291,1,50,10|2,0:0|1:2,0:0:0:0:
137,303,45795,1,10,0:0:0:0:
69,229,46095,6,0,L|86:131,1,99.9999999999999,8|8,0:0|0:0,0:0:0:0:
106,32,46695,2,0,L|155:23,1,50,8|8,0:0|0:0,0:0:0:0:
208,18,46995,1,2,1:2:0:0:
208,18,47145,1,6,1:2:0:0:
208,18,48345,6,0,P|232:61|223:109,1,99.9999999999999,6|0,1:2|1:0,0:0:0:0:
194,150,48795,1,10,0:0:0:0:
270,214,49095,2,0,L|278:263,1,50,2|0,1:2|1:0,0:0:0:0:
290,316,49395,1,10,0:0:0:0:
290,316,49545,2,0,P|338:324|380:300,1,99.9999999999999,2|0,0:0|0:0,0:0:0:0:
411,261,49995,1,10,0:0:0:0:
506,231,50295,2,0,L|498:182,1,50,2|0,1:2|1:0,0:0:0:0:
489,132,50595,1,10,0:0:0:0:
416,63,50895,6,0,L|318:46,1,99.9999999999999,2|10,1:2|0:0,0:0:0:0:
246,116,51495,1,2,1:2:0:0:
246,116,51645,1,2,1:2:0:0:
170,58,51945,1,2,0:0:0:0:
170,58,52095,2,0,L|72:75,1,99.9999999999999,0|8,1:0|0:0,0:0:0:0:
54,173,52695,2,0,L|46:222,1,50,0|0,1:0|1:0,0:0:0:0:
38,271,52995,1,8,0:0:0:0:
103,346,53295,6,0,P|146:370|194:361,1,99.9999999999999,6|10,1:2|0:0,0:0:0:0:
270,296,53895,2,0,L|319:304,1,50,2|0,1:2|1:0,0:0:0:0:
372,314,54195,1,10,0:0:0:0:
372,314,54345,2,0,P|396:271|387:223,1,99.9999999999999,2|0,0:0|0:0,0:0:0:0:
365,177,54795,1,10,0:0:0:0:
266,157,55095,2,0,L|258:108,1,50,2|0,1:2|1:0,0:0:0:0:
251,58,55395,1,10,0:0:0:0:
332,0,55695,6,0,L|430:17,1,99.9999999999999,2|10,1:2|0:0,0:0:0:0:
503,92,56295,1,2,1:2:0:0:
503,92,56445,2,0,L|511:141,1,50,2|8,1:2|0:0,0:0:0:0:
481,182,56745,1,2,0:0:0:0:
481,182,56895,2,0,L|464:280,1,99.9999999999999,0|8,1:0|0:0,0:0:0:0:
396,354,57495,2,0,L|347:362,1,50,2|2,1:2|1:2,0:0:0:0:
297,369,57795,1,10,0:2:0:0:
209,321,58095,6,0,P|217:272|193:230,1,99.9999999999999,6|10,1:2|0:0,0:0:0:0:
98,199,58695,2,0,P|74:156|82:108,1,99.9999999999999,2|10,1:2|0:0,0:0:0:0:
111,68,59145,1,2,0:0:0:0:
111,68,59295,1,0,1:0:0:0:
197,17,59595,1,10,0:0:0:0:
248,102,59895,2,0,L|297:110,1,50,2|0,1:2|1:0,0:0:0:0:
346,116,60195,1,10,0:0:0:0:
444,132,60495,6,0,L|461:230,1,99.9999999999999,2|8,1:2|0:0,0:0:0:0:
510,255,60945,1,2,0:0:0:0:
510,255,61095,2,0,L|502:304,1,50,2|0,1:2|1:0,0:0:0:0:
491,353,61395,2,0,L|393:370,1,99.9999999999999,10|0,0:0|1:0,0:0:0:0:
319,302,61995,1,10,0:0:0:0:
244,368,62295,2,0,L|195:360,1,50,2|0,1:2|1:0,0:0:0:0:
145,350,62595,1,10,0:0:0:0:
93,264,62895,6,0,P|84:215|108:173,1,99.9999999999999,6|8,1:2|0:0,0:0:0:0:
149,143,63345,1,0,1:0:0:0:
149,143,63495,2,0,L|198:151,1,50,0|0,0:0|1:0,0:0:0:0:
247,157,63795,1,8,0:0:0:0:
292,246,64095,2,0,L|341:238,1,50,2|0,1:2|1:0,0:0:0:0:
390,231,64395,1,10,0:0:0:0:
463,162,64695,1,2,0:0:0:0:
427,68,64995,1,10,0:0:0:0:
327,60,65295,6,0,L|229:43,1,99.9999999999999,2|8,1:2|0:0,0:0:0:0:
206,4,65745,1,0,1:0:0:0:
206,4,65895,2,0,L|108:21,1,99.9999999999999,2|8,0:0|0:0,0:0:0:0:
23,74,66495,2,0,L|15:123,1,50,2|0,1:2|1:0,0:0:0:0:
6,171,66795,1,10,0:0:0:0:
103,191,67095,2,0,L|111:240,1,50,2|8,1:2|0:0,0:0:0:0:
157,260,67395,2,0,L|149:309,1,50,10|8,0:0|0:0,0:0:0:0:
137,358,67695,6,0,P|180:382|228:373,1,99.9999999999999,6|8,1:2|0:0,0:0:0:0:
273,352,68145,1,0,0:0:0:0:
341,279,68445,1,0,1:0:0:0:
341,279,68595,1,8,0:0:0:0:
436,308,68895,2,0,P|460:265|451:217,1,99.9999999999999,0|10,1:0|0:0,0:0:0:0:
510,136,69495,1,2,1:2:0:0:
482,39,69795,1,8,0:0:0:0:
382,29,70095,6,0,L|284:12,1,99.9999999999999,14|8,0:0|0:0,0:0:0:0:
237,8,70545,1,0,1:0:0:0:
237,8,70695,1,8,0:0:0:0:
139,31,70995,1,8,0:0:0:0:
130,130,71295,1,8,0:0:0:0:
223,165,71595,2,0,L|231:214,1,50,8|0,0:0|1:0,0:0:0:0:
276,235,71895,2,0,L|268:284,1,50,8|0,0:0|1:0,0:0:0:0:
258,333,72195,2,0,L|160:350,1,99.9999999999999,8|2,0:0|0:0,0:0:0:0:
159,350,77295,6,0,P|135:307|144:259,2,99.9999999999999,0|0|0,1:0|1:0|3:0,0:0:0:0:
239,300,78195,1,0,3:0:0:0:
301,377,78495,6,0,L|350:369,1,50,4|0,1:2|0:0,0:0:0:0:
399,362,78795,2,0,L|416:264,1,99.9999999999999,10|2,0:0|1:2,0:0:0:0:
427,217,79245,1,2,0:0:0:0:
427,217,79395,1,10,0:0:0:0:
336,174,79695,2,0,L|319:76,1,99.9999999999999,6|8,1:2|0:0,0:0:0:0:
311,26,80145,1,6,0:0:0:0:
218,3,80445,1,6,0:0:0:0:
218,3,80595,1,8,0:0:0:0:
161,85,80895,6,0,L|112:77,1,50,2|0,1:2|0:0,0:0:0:0:
62,66,81195,2,0,P|38:109|47:157,1,99.9999999999999,10|2,0:0|1:2,0:0:0:0:
81,200,81645,1,2,0:0:0:0:
81,200,81795,1,10,0:0:0:0:
2,261,82095,2,0,P|-6:309|17:351,1,99.9999999999999,6|8,1:2|0:0,0:0:0:0:
56,383,82545,1,6,0:0:0:0:
135,321,82845,1,6,0:0:0:0:
135,321,82995,1,8,0:0:0:0:
233,339,83295,6,0,L|241:290,1,50,2|0,1:2|0:0,0:0:0:0:
286,269,83595,2,0,L|269:171,1,99.9999999999999,10|2,0:0|1:2,0:0:0:0:
263,125,84045,1,2,0:0:0:0:
263,125,84195,1,10,0:0:0:0:
340,61,84495,2,0,L|438:78,1,99.9999999999999,6|8,1:2|0:0,0:0:0:0:
487,86,84945,1,6,0:0:0:0:
511,187,85245,1,6,0:0:0:0:
511,187,85395,1,8,0:0:0:0:
435,253,85695,6,0,L|386:261,1,50,6|0,1:2|1:0,0:0:0:0:
336,266,85995,2,0,P|312:223|320:175,1,99.9999999999999,2|2,1:2|1:2,0:0:0:0:
347,133,86445,1,2,1:2:0:0:
347,133,86595,1,8,0:0:0:0:
425,71,86895,2,0,B|327:-55|80:9|231:209|14:180,1,499.999999999999,0|0,1:0|0:0,0:0:0:0:
