osu file format v14

[General]
AudioFilename: audio.mp3
AudioLeadIn: 0
PreviewTime: 47820
Countdown: 0
SampleSet: Soft
StackLeniency: 0.4
Mode: 0
LetterboxInBreaks: 0
WidescreenStoryboard: 1

[Editor]
Bookmarks: 106,9706,19306,26506,28906,36106,38506,47956,69706,72106,78106
DistanceSpacing: 0.2
BeatDivisor: 4
GridSize: 8
TimelineZoom: 2.6

[Metadata]
Title:Gravitation (TV Size)
TitleUnicode:Gravitation (TV Size)
Artist:Kurosaki Maon
ArtistUnicode:黒崎真音
Creator:Aakki
Version:Insane
Source:とある魔術の禁書目録Ⅲ
Tags:japanese rock jrock j-rock xiced door weapon dog food op anime toaru majutsu no mokuroku index scientific railgun kagaku season three opening kowari shizuku- kazato asa shikibe mayu kirishima- a certain magical iii 3
BeatmapID:2265088
BeatmapSetID:1063169

[Difficulty]
HPDrainRate:5
CircleSize:4
OverallDifficulty:7.5
ApproachRate:8.8
SliderMultiplier:1.65
SliderTickRate:1

[Events]
//Background and Video events
0,0,"bg.jpg",0,0
Video,-370,"vid.mp4"
//Break Periods
//Storyboard Layer 0 (Background)
//Storyboard Layer 1 (Fail)
//Storyboard Layer 2 (Pass)
//Storyboard Layer 3 (Foreground)
//Storyboard Layer 4 (Overlay)
//Storyboard Sound Samples

[TimingPoints]
495,300,4,2,1,60,1,0
495,-100,4,2,1,60,0,0
9495,-100,4,2,1,30,0,0
10095,-100,4,2,1,70,0,0
19695,-125,4,2,1,50,0,0
29295,-111.111111111111,4,2,1,60,0,0
38895,-133.333333333333,4,2,1,40,0,0
43695,-105.263157894737,4,2,1,60,0,0
48270,-105.263157894737,4,2,1,5,0,0
48345,-95.2380952380952,4,2,1,80,0,1
62895,-95.2380952380952,4,2,1,70,0,1
67695,-95.2380952380952,4,2,1,80,0,1
70095,-95.2380952380952,4,2,1,85,0,1
72495,-95.2380952380952,4,2,1,45,0,0
77895,-95.2380952380952,4,2,1,30,0,0
78495,-100,4,2,1,70,0,0
86895,-133.333333333333,4,2,1,50,0,0

[Colours]
Combo1 : 151,0,151
Combo2 : 255,47,255
Combo3 : 223,223,0
Combo4 : 0,223,223

[HitObjects]
390,368,495,6,0,P|396:316|408:270,1,82.5,6|2,1:2|1:2,0:0:0:0:
460,225,795,1,10,0:0:0:0:
427,148,945,1,2,0:0:0:0:
313,187,1095,2,0,P|270:194|140:226,1,165,10|10,0:0|0:0,0:0:0:0:
92,295,1545,2,0,P|64:262|68:213,1,82.5,2|2,1:2|0:0,0:0:0:0:
123,140,1845,1,2,1:2:0:0:
61,75,1995,1,10,0:0:0:0:
61,75,2295,6,0,P|73:34|75:22,1,41.25,8|8,0:0|0:0,0:0:0:0:
146,20,2445,1,0,1:0:0:0:
216,55,2595,1,8,0:0:0:0:
234,138,2745,6,0,B|323:121|309:200|405:193,1,165,2|2,1:2|1:2,0:0:0:0:
462,127,3195,2,0,P|421:116|379:99,1,82.5,10|2,0:0|0:0,0:0:0:0:
413,288,3495,2,0,P|443:257|478:230,1,82.5,10|2,0:0|0:0,0:0:0:0:
383,193,3795,1,10,0:0:0:0:
226,286,3945,6,0,P|144:263|53:246,1,165,2|10,1:2|0:0,0:0:0:0:
5,192,4395,2,0,P|41:166|85:169,1,82.5,10|2,0:0|1:2,0:0:0:0:
198,135,4695,2,0,L|186:83,1,41.25,8|8,0:0|0:0,0:0:0:0:
226,25,4845,1,0,1:0:0:0:
110,78,4995,1,8,0:0:0:0:
262,187,5145,6,0,P|322:191|438:250,1,165,2|2,1:2|1:2,0:0:0:0:
512,146,5595,2,0,P|452:142|336:83,2,165,10|10|10,0:0|0:0|0:0,0:0:0:0:
299,38,6345,6,0,P|238:46|122:63,1,165,2|2,1:2|1:2,0:0:0:0:
68,20,6795,2,0,P|46:63|64:101,1,82.5,10|2,0:0|0:0,0:0:0:0:
123,194,7095,2,0,L|115:237,1,41.25,8|8,0:0|0:0,0:0:0:0:
55,280,7245,1,0,1:0:0:0:
198,176,7395,1,8,0:0:0:0:
304,295,7545,6,0,P|346:303|480:346,1,165,2|2,1:2|1:2,0:0:0:0:
378,141,7995,2,0,P|361:160|298:217,1,82.5,10|2,0:0|0:0,0:0:0:0:
506,244,8295,2,0,P|497:219|479:137,1,82.5,10|2,0:0|0:0,0:0:0:0:
447,73,8595,1,10,0:0:0:0:
406,233,8745,1,2,1:2:0:0:
406,233,9495,6,0,L|380:240,14,20.625,0|0|0|0|0|0|0|0|0|0|0|0|0|0|0,3:0|3:0|3:0|3:0|3:0|3:0|3:0|3:0|3:0|3:0|3:0|3:0|3:0|3:0|3:0,0:0:0:0:
315,296,10095,6,0,P|311:258|299:212,1,82.5,4|0,1:2|0:0,0:0:0:0:
477,179,10395,2,0,P|481:217|493:263,1,82.5,10|0,0:0|0:0,0:0:0:0:
414,347,10695,1,2,1:2:0:0:
233,268,10845,2,0,P|176:277|53:296,1,165,2|2,0:0|0:0,0:0:0:0:
37,136,11295,6,0,P|83:149|131:156,1,82.5,6|0,1:2|0:0,0:0:0:0:
181,114,11595,1,8,0:0:0:0:
69,293,11745,2,0,P|115:280|163:273,1,82.5,6|0,0:0|1:0,0:0:0:0:
259,192,12045,2,0,P|299:199|339:210,1,82.5,6|8,0:0|0:0,0:0:0:0:
372,283,12345,1,0,0:0:0:0:
477,162,12495,6,0,B|501:74|430:95|450:-2,2,165,2|10|2,1:2|0:0|1:2,0:0:0:0:
419,212,13245,1,2,0:0:0:0:
304,136,13395,2,0,P|264:147|209:155,1,82.5,10|2,0:0|0:0,0:0:0:0:
57,121,13695,6,0,B|142:99|121:184|222:165,1,165,6|8,1:2|0:0,0:0:0:0:
281,43,14145,2,0,P|239:55|194:59,1,82.5,6|0,0:0|1:0,0:0:0:0:
311,222,14445,2,0,P|353:210|398:206,1,82.5,6|8,0:0|0:0,0:0:0:0:
437,148,14745,1,0,0:0:0:0:
277,326,14895,6,0,P|224:313|105:299,2,165,2|10|2,1:2|0:0|1:2,0:0:0:0:
344,289,15645,1,2,0:0:0:0:
280,214,15795,2,0,P|273:170|271:131,1,82.5,10|2,0:0|0:0,0:0:0:0:
414,23,16095,6,0,P|462:28|489:74,1,82.5,6|0,1:2|0:0,0:0:0:0:
412,117,16395,1,8,0:0:0:0:
246,54,16545,2,0,P|199:46|68:34,1,165,6|6,0:0|0:0,0:0:0:0:
111,137,16995,2,0,P|139:141|217:149,1,82.5,8|0,0:0|0:0,0:0:0:0:
238,209,17295,5,6,1:2:0:0:
74,302,17445,2,0,L|19:313,2,41.25,0|0|2,1:0|1:0|1:2,0:0:0:0:
115,238,17745,1,8,0:0:0:0:
182,339,17895,1,2,1:2:0:0:
199,332,18045,2,0,P|245:342|288:356,1,82.5,2|8,1:2|0:0,0:0:0:0:
354,326,18345,1,2,1:2:0:0:
463,206,18495,5,6,1:2:0:0:
364,236,18645,1,0,1:0:0:0:
351,233,18720,1,0,1:0:0:0:
338,231,18795,1,0,1:0:0:0:
453,182,18945,6,0,P|459:141|476:99,1,82.5,14|0,0:0|1:0,0:0:0:0:
319,67,19245,2,0,P|313:108|296:150,1,82.5,6|8,1:2|0:0,0:0:0:0:
221,193,19545,1,2,1:2:0:0:
151,76,19695,6,0,B|90:73|87:118|17:125,1,132,4|10,1:2|0:0,0:0:0:0:
26,211,20145,2,0,P|70:216|101:232,1,66,2|0,0:0|0:0,0:0:0:0:
152,319,20445,2,0,P|229:308|296:292,1,132,2|2,1:2|0:0,0:0:0:0:
396,211,20895,6,0,P|405:169|457:87,1,132,2|10,1:2|0:0,0:0:0:0:
354,43,21345,2,0,P|345:85|293:167,1,132,2|2,0:0|1:2,0:0:0:0:
212,208,21795,2,0,P|202:161|202:125,1,66,8|2,0:0|0:0,0:0:0:0:
126,82,22095,5,2,1:2:0:0:
55,247,22395,1,10,0:0:0:0:
13,174,22545,2,0,P|58:172|140:229,1,132,2|2,0:0|1:2,0:0:0:0:
176,301,22995,1,10,0:0:0:0:
166,321,23145,1,2,0:0:0:0:
271,291,23295,5,2,1:2:0:0:
298,200,23445,2,0,P|307:165|316:133,1,66,2|8,0:0|0:0,0:0:0:0:
391,74,23745,2,0,P|396:112|411:217,1,132,2|2,1:2|1:2,0:0:0:0:
450,285,24195,2,0,P|486:291|521:261,1,66,8|0,0:0|1:0,0:0:0:0:
410,354,24495,6,0,B|353:317|335:366|273:353,1,132,2|10,1:2|0:0,0:0:0:0:
206,321,24945,1,2,0:0:0:0:
45,349,25095,2,0,P|81:338|105:242,1,132,2|10,0:0|0:0,0:0:0:0:
49,202,25545,1,2,0:0:0:0:
161,64,25695,6,0,P|153:100|147:138,1,66,2|0,1:2|0:0,0:0:0:0:
80,82,25995,1,10,0:0:0:0:
233,23,26145,2,0,P|273:28|381:42,1,132,2|2,0:0|1:2,0:0:0:0:
435,14,26595,1,8,0:0:0:0:
483,187,26895,6,0,P|445:186|382:253,1,132,0|8,1:0|0:0,0:0:0:0:
311,160,27345,2,0,P|283:186|286:278,1,132,0|0,1:0|1:0,0:0:0:0:
171,259,27795,2,0,P|170:297|236:360,1,132,8|0,0:0|1:0,0:0:0:0:
171,259,28395,5,8,0:0:0:0:
79,280,28545,1,0,1:0:0:0:
24,207,28695,1,0,1:0:0:0:
24,207,28845,1,0,1:0:0:0:
59,122,28995,2,0,P|66:89|77:52,1,66,8|2,0:0|0:0,0:0:0:0:
224,0,29295,6,0,P|233:31|258:168,1,148.49999546814,6|10,1:2|0:0,0:0:0:0:
216,214,29745,1,2,0:0:0:0:
331,116,29895,2,0,P|372:110|415:98,1,74.2499977340699,2|2,1:2|1:2,0:0:0:0:
428,203,30195,2,0,P|387:209|344:221,1,74.2499977340699,10|2,0:0|0:0,0:0:0:0:
259,323,30495,6,0,B|186:311|188:359|102:373,1,148.49999546814,2|10,1:2|0:0,0:0:0:0:
25,339,30945,2,0,P|37:291|37:259,1,74.2499977340699,2|0,0:0|1:0,0:0:0:0:
129,129,31245,2,0,B|173:125|173:125|224:179|158:220,1,148.49999546814,2|2,1:2|0:0,0:0:0:0:
59,171,31695,6,0,P|53:130|43:93,1,74.2499977340699,2|0,1:2|0:0,0:0:0:0:
235,6,31995,2,0,P|241:47|251:84,1,74.2499977340699,10|0,0:0|0:0,0:0:0:0:
312,132,32295,1,2,1:2:0:0:
312,132,32445,1,2,1:2:0:0:
400,147,32595,1,10,0:0:0:0:
471,96,32745,1,2,0:0:0:0:
393,162,32895,5,2,1:2:0:0:
441,233,33045,2,0,P|445:271|453:308,1,74.2499977340699,2|8,0:0|0:0,0:0:0:0:
331,368,33345,2,0,P|324:322|300:214,1,148.49999546814,2|2,1:2|1:2,0:0:0:0:
238,173,33795,1,8,0:0:0:0:
281,110,33945,1,2,0:0:0:0:
202,248,34095,6,0,P|153:258|115:263,1,74.2499977340699,2|0,1:2|0:0,0:0:0:0:
28,358,34395,2,0,P|77:348|115:343,1,74.2499977340699,10|2,0:0|0:0,0:0:0:0:
43,269,34695,1,2,1:2:0:0:
43,269,34845,1,2,1:2:0:0:
181,348,34995,2,0,P|217:355|253:361,1,74.2499977340699,10|2,0:0|0:0,0:0:0:0:
361,293,35295,6,0,P|379:255|383:139,1,148.49999546814,2|10,1:2|0:0,0:0:0:0:
286,39,35745,2,0,P|268:77|264:193,1,148.49999546814,2|2,0:0|1:2,0:0:0:0:
195,238,36195,1,8,0:0:0:0:
195,238,36345,1,0,0:0:0:0:
136,138,36495,6,0,B|172:101|142:42|142:42|72:77,1,148.49999546814,0|8,1:0|0:0,0:0:0:0:
34,153,36945,2,0,B|-2:190|28:249|28:249|98:214,1,148.49999546814,0|0,1:0|1:0,0:0:0:0:
216,156,37395,2,0,P|266:162|291:173,1,74.2499977340699,8|0,0:0|0:0,0:0:0:0:
387,297,37695,5,0,1:0:0:0:
387,297,37770,1,0,1:0:0:0:
387,297,37845,2,0,L|340:304,1,37.1249988670349,0|0,1:0|1:0,0:0:0:0:
267,362,37995,1,8,0:0:0:0:
267,362,38145,1,0,1:0:0:0:
167,218,38295,2,0,P|178:259|187:315,1,74.2499977340699,0|0,1:0|1:0,0:0:0:0:
132,353,38595,1,8,0:0:0:0:
55,340,38745,1,2,0:0:0:0:
51,242,38895,6,0,P|84:221|173:220,2,123.750004720688,6|0|10,1:2|1:0|0:0,0:0:0:0:
109,86,39795,1,2,0:0:0:0:
109,86,39945,2,0,P|148:98|231:106,1,123.750004720688,2|2,1:2|1:2,0:0:0:0:
305,74,40395,2,0,P|322:37|321:13,1,61.875002360344,2|0,1:2|1:0,0:0:0:0:
391,77,40695,1,10,0:0:0:0:
391,77,40845,1,2,0:0:0:0:
485,43,40995,6,0,P|465:101|458:162,1,123.750004720688,2|2,1:2|1:2,0:0:0:0:
491,283,41595,1,2,1:2:0:0:
430,343,41745,2,0,P|397:338|361:328,1,61.875002360344,2|8,0:0|0:0,0:0:0:0:
272,252,42045,2,0,P|305:257|341:267,1,61.875002360344,2|0,0:0|0:0,0:0:0:0:
181,362,42345,6,0,P|171:325|165:225,2,123.750004720688,2|2|2,1:2|1:2|1:2,0:0:0:0:
96,195,43095,2,0,P|105:154|117:115,1,61.875002360344,8|0,0:0|0:0,0:0:0:0:
69,68,43395,1,8,0:0:0:0:
69,68,43545,1,8,0:0:0:0:
197,169,43695,5,10,0:0:0:0:
219,163,43845,1,2,1:2:0:0:
322,67,43995,2,0,P|329:116|339:161,1,78.3749979071618,8|2,0:0|1:2,0:0:0:0:
464,238,44295,2,0,B|432:201|393:226|393:226|379:275|310:269,1,156.749995814324,10|10,0:0|0:0,0:0:0:0:
255,324,44745,1,2,1:2:0:0:
67,220,44895,6,0,P|118:228|152:232,1,78.3749979071618,8|2,0:0|1:2,0:0:0:0:
183,163,45195,1,8,0:0:0:0:
89,302,45345,1,0,1:0:0:0:
180,148,45495,2,0,P|176:128|173:109,2,39.1874989535809,10|0|2,0:0|0:0|1:2,0:0:0:0:
295,271,45795,2,0,P|328:276|393:215,1,117.562496860743,10|0,0:0|0:0,0:0:0:0:
386,215,46095,6,0,P|379:170|379:165,1,39.1874989535809,8|8,0:0|0:0,0:0:0:0:
408,108,46245,1,8,0:0:0:0:
350,47,46395,1,8,0:0:0:0:
235,76,46545,1,8,0:0:0:0:
187,207,46695,2,0,P|140:214|94:229,1,78.3749979071618,8|8,0:0|0:0,0:0:0:0:
58,163,46995,5,2,1:2:0:0:
221,278,47145,1,6,1:2:0:0:
221,278,47895,5,2,0:0:0:0:
232,293,48045,2,0,P|272:264|260:189,1,117.562496860743,2|2,0:0|0:0,0:0:0:0:
259,193,48345,6,0,P|252:137|228:15,1,173.24999471283,6|0,1:2|1:0,0:0:0:0:
405,0,48795,2,0,P|412:56|436:178,1,173.24999471283,10|2,0:0|1:2,0:0:0:0:
488,231,49245,1,0,1:0:0:0:
419,332,49395,2,0,P|371:338|319:354,1,86.6249973564149,10|2,0:0|0:0,0:0:0:0:
120,243,49695,6,0,B|192:203|206:288|299:264,2,173.24999471283,0|10|2,1:0|0:0|1:2,0:0:0:0:
168,328,50445,1,0,1:0:0:0:
260,192,50595,2,0,P|256:144|251:97,1,86.6249973564149,10|0,0:0|0:0,0:0:0:0:
68,22,50895,6,0,P|112:44|202:48,1,129.937496034622,2|0,1:2|0:0,0:0:0:0:
201,42,51195,2,0,P|268:25|295:27,1,86.6249973564149,10|0,0:0|0:0,0:0:0:0:
421,111,51495,1,2,1:2:0:0:
462,29,51645,2,0,P|404:35|322:110,1,173.24999471283,2|2,1:2|0:0,0:0:0:0:
435,338,52095,6,0,P|442:293|453:248,1,86.6249973564149,0|0,1:0|0:0,0:0:0:0:
321,216,52395,2,0,P|314:261|303:306,1,86.6249973564149,8|0,0:0|0:0,0:0:0:0:
237,355,52695,1,0,1:0:0:0:
154,329,52845,1,0,1:0:0:0:
131,249,52995,2,0,P|138:204|149:159,1,86.6249973564149,8|0,0:0|0:0,0:0:0:0:
20,65,53295,6,0,B|54:97|54:97|87:62|149:68,1,129.937496034622,6|0,1:2|0:0,0:0:0:0:
140,59,53595,2,0,P|192:67|225:78,1,86.6249973564149,10|0,0:0|0:0,0:0:0:0:
389,30,53895,2,0,P|337:22|304:11,1,86.6249973564149,2|0,1:2|1:0,0:0:0:0:
234,156,54195,1,10,0:0:0:0:
431,151,54345,6,0,B|331:150|376:218|264:235,1,173.24999471283,2|0,0:0|0:0,0:0:0:0:
265,327,54795,2,0,P|278:284|296:242,1,86.6249973564149,10|0,0:0|0:0,0:0:0:0:
109,278,55095,2,0,P|139:310|167:347,1,86.6249973564149,2|0,1:2|1:0,0:0:0:0:
234,156,55395,2,0,P|190:166|144:171,1,86.6249973564149,10|0,0:0|0:0,0:0:0:0:
309,38,55695,6,0,P|358:46|487:78,1,173.24999471283,2|10,1:2|0:0,0:0:0:0:
489,69,56295,1,2,1:2:0:0:
399,163,56445,2,0,P|405:208|422:265,1,86.6249973564149,2|8,1:2|0:0,0:0:0:0:
470,312,56745,1,2,0:0:0:0:
254,362,56895,5,0,1:0:0:0:
281,265,57045,1,0,1:0:0:0:
308,169,57195,1,8,0:0:0:0:
308,169,57495,5,2,1:2:0:0:
375,217,57645,1,2,1:2:0:0:
468,159,57795,1,10,0:2:0:0:
463,50,57945,1,2,1:2:0:0:
328,11,58095,6,0,P|272:18|190:39,1,129.937496034622,6|0,1:2|0:0,0:0:0:0:
189,42,58395,2,0,P|173:87|199:119,1,86.6249973564149,10|2,0:0|0:0,0:0:0:0:
64,246,58695,2,0,P|78:191|98:47,1,173.24999471283,2|10,1:2|0:0,0:0:0:0:
238,193,59145,6,0,P|224:248|204:392,1,173.24999471283,2|0,0:0|0:0,0:0:0:0:
318,180,59595,2,0,P|301:137|263:126,1,86.6249973564149,10|0,0:0|0:0,0:0:0:0:
381,253,59895,2,0,P|434:264|476:274,1,86.6249973564149,2|0,1:2|1:0,0:0:0:0:
502,112,60195,2,0,P|453:120|410:43,1,129.937496034622,10|0,0:0|0:0,0:0:0:0:
414,51,60495,5,2,1:2:0:0:
414,51,60645,1,2,0:0:0:0:
314,109,60795,1,8,0:0:0:0:
241,67,60945,1,2,0:0:0:0:
117,119,61095,2,0,P|128:161|133:212,1,86.6249973564149,2|0,1:2|1:0,0:0:0:0:
71,320,61395,6,0,B|143:290|147:363|253:363,1,173.24999471283,10|0,0:0|1:0,0:0:0:0:
427,222,61995,6,0,P|442:174|464:140,1,86.6249973564149,10|0,0:0|0:0,0:0:0:0:
365,295,62295,1,2,1:2:0:0:
470,366,62445,1,0,1:0:0:0:
344,286,62595,2,0,P|291:288|248:223,1,129.937496034622,10|0,0:0|0:0,0:0:0:0:
253,218,62895,6,0,P|270:170|283:123,1,86.6249973564149,6|0,1:2|0:0,0:0:0:0:
245,64,63195,1,8,0:0:0:0:
25,160,63345,2,0,P|70:147|197:127,1,173.24999471283,0|0,1:0|1:0,0:0:0:0:
316,22,63795,2,0,P|367:28|406:39,1,86.6249973564149,8|0,0:0|0:0,0:0:0:0:
468,129,64095,5,2,1:2:0:0:
468,129,64245,1,0,1:0:0:0:
347,246,64395,2,0,P|436:226|453:225,1,86.6249973564149,10|0,0:0|1:0,0:0:0:0:
297,104,64695,2,0,P|208:124|191:125,1,86.6249973564149,2|0,0:0|1:0,0:0:0:0:
37,245,64995,2,0,P|71:276|156:274,1,129.937496034622,10|0,0:0|0:0,0:0:0:0:
162,268,65295,6,0,B|117:237|117:237|156:187|119:108,1,173.24999471283,2|8,1:2|0:0,0:0:0:0:
66,82,65745,1,0,1:0:0:0:
229,203,65895,2,0,B|316:184|316:184|338:227|394:224,2,173.24999471283,2|8|2,0:0|0:0|1:2,0:0:0:0:
388,147,66645,5,0,1:0:0:0:
293,270,66795,2,0,P|292:315|314:355,1,86.6249973564149,10|0,0:0|1:0,0:0:0:0:
467,221,67095,5,2,1:2:0:0:
482,197,67245,1,8,0:0:0:0:
408,57,67395,1,10,0:0:0:0:
271,95,67545,1,8,0:0:0:0:
165,234,67695,6,0,B|121:215|90:258|90:258|96:313|21:317,1,173.24999471283,6|8,1:2|0:0,0:0:0:0:
87,158,68145,1,0,0:0:0:0:
232,290,68295,2,0,P|275:298|317:310,1,86.6249973564149,0|0,1:0|1:0,0:0:0:0:
426,233,68595,2,0,P|383:225|341:213,1,86.6249973564149,8|0,0:0|0:0,0:0:0:0:
213,124,68895,6,0,P|211:76|277:17,1,129.937496034622,0|0,1:0|0:0,0:0:0:0:
277,21,69195,2,0,P|345:38|364:46,1,86.6249973564149,10|0,0:0|0:0,0:0:0:0:
208,132,69495,2,0,P|140:115|121:107,1,86.6249973564149,2|0,1:2|1:0,0:0:0:0:
241,273,69795,2,0,P|309:290|328:298,1,86.6249973564149,8|0,0:0|0:0,0:0:0:0:
395,367,70095,5,14,0:0:0:0:
413,355,70245,1,0,1:0:0:0:
456,298,70395,1,8,0:0:0:0:
449,217,70545,1,0,1:0:0:0:
343,156,70695,6,0,P|346:110|358:63,1,86.6249973564149,8|0,0:0|1:0,0:0:0:0:
430,118,70995,1,8,0:0:0:0:
355,243,71145,1,0,1:0:0:0:
256,263,71295,6,0,P|206:270|157:282,1,86.6249973564149,8|0,0:0|1:0,0:0:0:0:
69,59,71595,2,0,P|119:52|168:40,1,86.6249973564149,8|0,0:0|1:0,0:0:0:0:
165,37,71820,1,0,1:0:0:0:
165,37,71895,5,8,0:0:0:0:
226,102,72045,1,0,1:0:0:0:
136,191,72195,1,8,0:0:0:0:
236,359,72345,1,0,1:0:0:0:
243,343,72495,5,2,0:0:0:0:
367,259,72945,5,2,0:0:0:0:
296,106,73395,5,2,0:0:0:0:
296,106,74895,5,2,0:0:0:0:
186,168,75195,5,2,0:0:0:0:
112,146,75345,1,2,0:0:0:0:
16,0,75795,5,2,0:0:0:0:
16,0,77295,5,0,1:0:0:0:
123,71,77595,1,0,1:0:0:0:
93,138,77745,1,0,1:0:0:0:
239,33,77895,6,0,L|267:41,14,21.6562493391037,0|0|0|0|0|0|0|0|0|0|0|0|0|0|0,3:0|3:0|3:0|3:0|3:0|3:0|3:0|3:0|3:0|3:0|3:0|3:0|3:0|3:0|3:0,0:0:0:0:
315,88,78495,6,0,P|311:126|299:172,1,82.5,4|0,1:2|0:0,0:0:0:0:
365,289,78795,2,0,P|369:251|381:205,1,82.5,10|0,0:0|0:0,0:0:0:0:
435,143,79095,1,2,1:2:0:0:
288,315,79245,2,0,P|231:306|108:287,1,165,2|2,0:0|0:0,0:0:0:0:
0,187,79695,6,0,P|46:174|94:167,1,82.5,6|0,1:2|0:0,0:0:0:0:
7,87,79995,1,8,0:0:0:0:
148,219,80145,2,0,P|194:232|242:239,1,82.5,6|0,0:0|1:0,0:0:0:0:
292,124,80445,2,0,P|332:117|372:106,1,82.5,6|8,0:0|0:0,0:0:0:0:
354,188,80745,1,0,0:0:0:0:
208,156,80895,6,0,B|184:68|255:89|235:-8,2,165,2|10|2,1:2|0:0|1:2,0:0:0:0:
124,88,81645,1,2,0:0:0:0:
304,248,81795,2,0,P|262:236|209:229,1,82.5,10|2,0:0|0:0,0:0:0:0:
46,279,82095,6,0,B|131:301|110:216|211:235,1,165,6|8,1:2|0:0,0:0:0:0:
281,341,82545,2,0,P|239:329|194:325,1,82.5,6|0,0:0|1:0,0:0:0:0:
311,162,82845,2,0,P|353:174|398:178,1,82.5,6|8,0:0|0:0,0:0:0:0:
437,236,83145,1,0,0:0:0:0:
215,212,83295,6,0,P|228:159|242:40,2,165,2|10|2,1:2|0:0|1:2,0:0:0:0:
140,130,84045,1,2,0:0:0:0:
225,219,84195,2,0,P|218:263|216:302,1,82.5,10|2,0:0|0:0,0:0:0:0:
288,384,84495,6,0,P|336:379|363:333,1,82.5,6|0,1:2|0:0,0:0:0:0:
386,281,84795,1,8,0:0:0:0:
185,382,84945,2,0,B|92:375|137:321|33:307,1,165,6|6,0:0|0:0,0:0:0:0:
167,209,85395,2,0,P|195:205|273:197,1,82.5,8|0,0:0|0:0,0:0:0:0:
56,203,85695,5,6,1:2:0:0:
197,120,85845,2,0,L|208:65,2,41.25,0|0|2,1:0|1:0|1:2,0:0:0:0:
165,11,86145,1,8,0:0:0:0:
278,125,86295,1,2,1:2:0:0:
116,89,86445,2,0,P|70:99|27:113,1,82.5,2|8,1:2|0:0,0:0:0:0:
97,172,86745,1,2,1:2:0:0:
87,185,86895,6,0,P|79:225|58:308,1,123.750004720688,0|0,1:0|0:0,0:0:0:0:
123,372,87345,2,0,P|127:348|140:298,1,61.875002360344,2|0,0:1|0:0,0:0:0:0:
225,274,87645,2,0,P|220:298|207:347,1,61.875002360344,2|0,0:1|0:0,0:0:0:0:
