osu file format v14

[General]
AudioFilename: audio.mp3
AudioLeadIn: 0
PreviewTime: 47820
Countdown: 0
SampleSet: Soft
StackLeniency: 0.3
Mode: 0
LetterboxInBreaks: 0
WidescreenStoryboard: 1

[Editor]
Bookmarks: 106,9706,19306,26506,28906,36106,38506,47956,69706,72106,78106
DistanceSpacing: 1.5
BeatDivisor: 4
GridSize: 8
TimelineZoom: 2.6

[Metadata]
Title:Gravitation (TV Size)
TitleUnicode:Gravitation (TV Size)
Artist:Kurosaki Maon
ArtistUnicode:黒崎真音
Creator:Aakki
Version:Hard
Source:とある魔術の禁書目録Ⅲ
Tags:japanese rock jrock j-rock xiced door weapon dog food op anime toaru majutsu no mokuroku index scientific railgun kagaku season three opening kowari shizuku- kazato asa shikibe mayu kirishima- a certain magical iii 3
BeatmapID:2270767
BeatmapSetID:1063169

[Difficulty]
HPDrainRate:4
CircleSize:3.7
OverallDifficulty:6
ApproachRate:8
SliderMultiplier:1.3
SliderTickRate:1

[Events]
//Background and Video events
0,0,"bg.jpg",0,0
Video,-370,"vid.mp4"
//Break Periods
2,74895,76545
//Storyboard Layer 0 (Background)
//Storyboard Layer 1 (Fail)
//Storyboard Layer 2 (Pass)
//Storyboard Layer 3 (Foreground)
//Storyboard Layer 4 (Overlay)
//Storyboard Sound Samples

[TimingPoints]
495,300,4,2,1,60,1,0
495,-111.111111111111,4,2,1,60,0,0
9495,-100,4,2,1,30,0,0
10095,-100,4,2,1,70,0,0
19695,-105.263157894737,4,2,1,50,0,0
26895,-105.263157894737,4,2,1,50,0,0
29295,-105.263157894737,4,2,1,60,0,0
36495,-105.263157894737,4,2,1,60,0,0
38895,-133.333333333334,4,2,1,40,0,0
43695,-95.2380952380952,4,2,1,60,0,0
48345,-100,4,2,1,80,0,1
62895,-100,4,2,1,70,0,1
67695,-100,4,2,1,80,0,1
70095,-86.9565217391304,4,2,1,85,0,1
72495,-133.333333333333,4,2,1,45,0,0
77895,-133.333333333333,4,2,1,30,0,0
78495,-100,4,2,1,70,0,0
86895,-142.857142857143,4,2,1,50,0,0

[Colours]
Combo1 : 151,0,151
Combo2 : 255,47,255
Combo3 : 223,223,0
Combo4 : 0,223,223

[HitObjects]
58,302,495,6,0,B|87:313|87:313|124:308,1,58.4999982147217,6|2,1:2|1:2,0:0:0:0:
165,231,795,2,0,B|136:220|136:220|99:225,1,58.4999982147217,10|2,0:0|0:0,0:0:0:0:
21,225,1095,2,0,B|7:186|7:186|16:95,1,116.999996429443,10|10,0:0|0:0,0:0:0:0:
67,40,1545,6,0,B|121:46|121:46|130:58|130:58|200:66,1,116.999996429443,2|2,1:2|1:2,0:0:0:0:
256,101,1995,2,0,B|238:128|238:128|241:171,1,58.4999982147217,10|2,0:0|0:0,0:0:0:0:
248,241,2295,2,0,L|287:239,2,29.2499991073609,8|8|0,0:0|0:0|1:0,0:0:0:0:
170,283,2595,1,8,0:0:0:0:
231,345,2745,6,0,B|263:353|285:334|285:334|307:314|348:323,1,116.999996429443,2|2,1:2|1:2,0:0:0:0:
426,344,3195,2,0,P|436:297|431:270,1,58.4999982147217,10|2,0:0|0:0,0:0:0:0:
377,219,3495,2,0,P|367:172|372:145,1,58.4999982147217,10|2,0:0|0:0,0:0:0:0:
414,86,3795,1,10,0:0:0:0:
339,40,3945,6,0,P|293:25|216:53,1,116.999996429443,2|10,1:2|0:0,0:0:0:0:
156,92,4395,1,10,0:0:0:0:
156,92,4545,1,2,1:2:0:0:
214,157,4695,2,0,P|222:181|223:192,2,29.2499991073609,8|8|0,0:0|0:0|1:0,0:0:0:0:
129,206,4995,1,8,0:0:0:0:
100,280,5145,6,0,B|115:321|115:321|208:336,1,116.999996429443,2|2,1:2|1:2,0:0:0:0:
279,296,5595,2,0,L|297:171,2,116.999996429443,10|10|10,0:0|0:0|0:0,0:0:0:0:
331,368,6345,6,0,B|373:357|373:357|396:363|396:363|457:350,1,116.999996429443,2|2,1:2|1:2,0:0:0:0:
480,280,6795,2,0,B|486:249|486:249|476:223,1,58.4999982147217,10|2,0:0|0:0,0:0:0:0:
383,209,7095,2,0,L|396:252,2,29.2499991073609,8|8|0,0:0|0:0|1:0,0:0:0:0:
352,126,7395,1,8,0:0:0:0:
272,162,7545,6,0,B|241:173|217:155|217:155|189:137|157:151,1,116.999996429443,2|2,1:2|1:2,0:0:0:0:
72,149,7995,2,0,P|55:116|55:82,1,58.4999982147217,10|2,0:0|0:0,0:0:0:0:
108,25,8295,2,0,P|125:58|125:92,1,58.4999982147217,10|2,0:0|0:0,0:0:0:0:
208,63,8595,1,10,0:0:0:0:
271,2,8745,1,2,1:2:0:0:
290,36,10095,6,0,B|323:19|358:33|358:33|397:48|435:33,2,130,4|10|2,1:2|0:0|1:2,0:0:0:0:
202,90,10845,1,2,0:0:0:0:
281,141,10995,2,0,P|291:197|284:222,1,65,10|2,0:0|0:0,0:0:0:0:
224,272,11295,6,0,B|191:291|191:291|86:263,1,130,6|8,1:2|0:0,0:0:0:0:
31,204,11745,2,0,B|28:168|28:168|41:139,1,65,6|0,0:0|1:0,0:0:0:0:
90,63,12045,2,0,B|135:72|135:72|156:91|156:91|236:103,1,130,6|0,0:0|0:0,0:0:0:0:
306,121,12495,6,0,P|285:161|301:268,2,130,2|10|2,1:2|0:0|1:2,0:0:0:0:
377,54,13245,1,2,0:0:0:0:
450,117,13395,2,0,P|470:152|468:193,1,65,10|2,0:0|0:0,0:0:0:0:
434,266,13695,6,0,B|404:255|404:255|298:281,1,130,6|8,1:2|0:0,0:0:0:0:
214,305,14145,2,0,L|195:231,1,65,6|0,0:0|1:0,0:0:0:0:
174,154,14445,2,0,B|222:140|222:140|245:150|245:150|309:136,1,130,6|0,0:0|0:0,0:0:0:0:
349,61,14895,6,0,B|311:61|292:36|292:36|266:61|222:53,2,130,2|10|2,1:2|0:0|1:2,0:0:0:0:
430,103,15645,1,2,0:0:0:0:
358,158,15795,2,0,P|347:197|352:231,1,65,10|2,0:0|0:0,0:0:0:0:
383,306,16095,6,0,B|339:313|339:313|307:298|307:298|250:306,1,130,6|8,1:2|0:0,0:0:0:0:
167,323,16545,2,0,B|172:299|172:299|165:254,1,65,6|0,0:0|1:0,0:0:0:0:
156,168,16845,2,0,L|295:148,1,130,6|0,0:0|0:0,0:0:0:0:
374,137,17295,5,6,1:2:0:0:
323,61,17445,1,0,1:0:0:0:
323,61,17520,1,0,1:0:0:0:
323,61,17595,2,0,L|228:75,1,65,2|8,1:2|0:0,0:0:0:0:
177,29,17895,1,2,1:2:0:0:
118,98,18045,2,0,B|105:128|105:128|113:161,1,65,2|8,1:2|0:0,0:0:0:0:
152,242,18345,1,2,1:2:0:0:
225,187,18495,5,6,1:2:0:0:
270,265,18645,2,0,P|275:282|275:302,2,32.5,0|0|0,1:0|1:0|1:0,0:0:0:0:
328,194,18945,2,0,P|364:180|394:182,1,65,14|0,0:0|1:0,0:0:0:0:
478,202,19245,2,0,P|458:237|441:341,1,130,6|2,1:2|1:2,0:0:0:0:
366,370,19695,6,0,B|334:354|305:364|305:364|272:374|234:359,1,123.499996702194,4|10,1:2|0:0,0:0:0:0:
168,323,20145,2,0,P|186:291|185:245,1,61.7499983510972,2|0,0:0|0:0,0:0:0:0:
275,264,20445,2,0,P|268:234|250:209,1,61.7499983510972,2|8,1:2|0:0,0:0:0:0:
193,141,20744,1,2,0:0:0:0:
267,96,20895,6,0,B|311:89|311:89|346:96|346:96|399:89,1,123.499996702194,2|10,1:2|0:0,0:0:0:0:
473,71,21345,2,0,B|497:97|497:97|482:201,1,123.499996702194,2|2,0:0|1:2,0:0:0:0:
417,239,21795,1,8,0:0:0:0:
271,198,22095,6,0,P|237:227|231:321,1,123.499996702194,2|10,1:2|0:0,0:0:0:0:
277,369,22545,2,0,P|311:360|347:359,1,61.7499983510972,2|0,0:0|0:0,0:0:0:0:
423,352,22845,1,2,1:2:0:0:
423,352,22995,2,0,P|414:318|413:282,1,61.7499983510972,10|2,0:0|0:0,0:0:0:0:
426,206,23295,5,2,1:2:0:0:
348,244,23445,2,0,B|313:257|313:257|275:245,1,61.7499983510972,2|8,0:0|0:0,0:0:0:0:
211,213,23745,2,0,B|240:181|240:181|229:86,1,123.499996702194,2|2,1:2|1:2,0:0:0:0:
162,48,24195,1,8,0:0:0:0:
37,109,24495,6,0,P|23:144|73:237,1,123.499996702194,2|10,1:2|0:0,0:0:0:0:
123,267,24945,1,2,0:0:0:0:
185,207,25095,2,0,P|233:194|268:201,1,61.7499983510972,2|0,0:0|1:0,0:0:0:0:
319,237,25395,1,10,0:0:0:0:
399,123,25695,6,0,B|418:95|418:95|409:-11,1,123.499996702194,2|10,1:2|0:0,0:0:0:0:
310,23,26145,2,0,B|261:13|261:13|236:27|236:27|182:19,1,123.499996702194,2|2,0:0|1:2,0:0:0:0:
110,50,26595,1,8,0:0:0:0:
90,195,26895,6,0,B|126:207|149:191|149:191|176:175|222:187,1,123.499996702194,0|8,1:0|0:0,0:0:0:0:
279,234,27345,2,0,P|261:286|302:365,1,123.499996702194,0|0,1:0|1:0,0:0:0:0:
366,371,27795,1,8,0:0:0:0:
491,266,28095,6,0,B|472:237|472:237|464:146,1,123.499996702194,0|8,1:0|0:0,0:0:0:0:
410,79,28545,1,0,1:0:0:0:
410,79,28695,2,0,B|373:89|373:89|336:79,1,61.7499983510972,0|0,1:0|1:0,0:0:0:0:
266,58,28995,1,8,0:0:0:0:
149,180,29295,6,0,P|168:225|127:307,1,123.499996702194,6|10,1:2|0:0,0:0:0:0:
73,342,29745,1,2,0:0:0:0:
149,381,29895,2,0,P|189:387|221:381,1,61.7499983510972,2|2,1:2|1:2,0:0:0:0:
254,310,30195,2,0,P|284:307|314:313,1,61.7499983510972,10|2,0:0|0:0,0:0:0:0:
396,344,30495,6,0,B|428:318|428:318|423:226,1,123.499996702194,2|10,1:2|0:0,0:0:0:0:
371,165,30945,2,0,B|336:174|336:174|296:163,1,61.7499983510972,2|0,0:0|1:0,0:0:0:0:
256,100,31245,2,0,B|231:93|231:93|196:102,1,61.7499983510972,2|8,1:2|0:0,0:0:0:0:
129,157,31545,1,2,0:0:0:0:
201,204,31695,6,0,P|216:236|169:327,1,123.499996702194,2|10,1:2|0:0,0:0:0:0:
38,357,32295,2,0,P|34:317|31:287,1,61.7499983510972,2|2,1:2|1:2,0:0:0:0:
9,213,32595,2,0,P|13:173|16:143,1,61.7499983510972,10|2,0:0|0:0,0:0:0:0:
96,113,32895,5,2,1:2:0:0:
144,193,33045,2,0,P|176:203|206:203,1,61.7499983510972,2|8,0:0|0:0,0:0:0:0:
280,162,33345,2,0,P|254:124|283:48,1,123.499996702194,2|2,1:2|1:2,0:0:0:0:
359,36,33795,2,0,P|413:51|446:54,1,61.7499983510972,8|2,0:0|0:0,0:0:0:0:
485,106,34095,6,0,B|464:140|464:140|473:232,1,123.499996702194,2|10,1:2|0:0,0:0:0:0:
436,302,34545,1,2,0:0:0:0:
362,256,34695,2,0,B|330:249|330:249|301:257,1,61.7499983510972,2|2,1:2|1:2,0:0:0:0:
237,315,34995,2,0,B|209:322|209:322|177:315,1,61.7499983510972,10|2,0:0|0:0,0:0:0:0:
95,284,35295,6,0,P|102:236|99:157,1,123.499996702194,2|10,1:2|0:0,0:0:0:0:
66,74,35745,2,0,P|101:36|183:39,1,123.499996702194,2|2,0:0|1:2,0:0:0:0:
254,82,36195,2,0,P|285:85|315:86,1,61.7499983510972,8|0,0:0|0:0,0:0:0:0:
393,158,36495,6,0,P|378:206|367:297,1,123.499996702194,0|8,1:0|0:0,0:0:0:0:
284,317,36945,2,0,B|245:322|221:303|221:303|196:283|144:296,1,123.499996702194,0|0,1:0|1:0,0:0:0:0:
80,300,37395,1,8,0:0:0:0:
135,136,37695,6,0,P|142:167|144:181,3,30.8749991755486,0|0|0|0,1:0|1:0|1:0|1:0,0:0:0:0:
154,207,37995,2,0,P|193:227|215:233,1,61.7499983510972,8|0,0:0|1:0,0:0:0:0:
285,188,38295,1,0,1:0:0:0:
260,105,38445,2,0,P|253:67|255:37,1,61.7499983510972,0|8,1:0|0:0,0:0:0:0:
329,2,38745,1,2,0:0:0:0:
329,2,38895,5,6,1:2:0:0:
434,103,39195,1,0,1:0:0:0:
341,245,39495,2,0,B|288:251|301:220|237:229,1,97.50000371933,10|2,0:0|0:0,0:0:0:0:
155,244,39945,2,0,P|168:207|167:132,1,97.50000371933,2|2,1:2|1:2,0:0:0:0:
142,66,40395,1,2,1:2:0:0:
142,66,40545,1,0,1:0:0:0:
246,27,40695,2,0,B|240:57|240:57|248:85,1,48.750001859665,10|2,0:0|0:0,0:0:0:0:
270,153,40995,6,0,B|324:162|324:162|360:140,1,97.50000371933,2|2,1:2|1:2,0:0:0:0:
457,234,41595,1,2,1:2:0:0:
338,362,41895,2,0,B|355:318|355:318|347:259,1,97.50000371933,8|0,0:0|0:0,0:0:0:0:
284,207,42345,2,0,B|241:208|241:208|226:215|226:215|170:217,1,97.50000371933,2|2,1:2|1:2,0:0:0:0:
102,195,42795,1,0,0:0:0:0:
102,195,42945,1,2,1:2:0:0:
167,136,43095,2,0,P|176:94|179:67,1,48.750001859665,8|0,0:0|0:0,0:0:0:0:
101,42,43395,1,8,0:0:0:0:
172,0,43545,1,8,0:0:0:0:
246,47,43695,6,0,P|295:61|323:60,1,68.2499979171754,10|2,0:0|1:2,0:0:0:0:
385,133,43995,2,0,P|352:144|319:147,1,68.2499979171754,8|2,0:0|1:2,0:0:0:0:
217,130,44295,2,0,P|212:176|265:258,1,136.499995834351,10|10,0:0|0:0,0:0:0:0:
340,310,44745,1,2,1:2:0:0:
340,310,44895,6,0,B|353:272|353:272|350:240,1,68.2499979171754,8|2,0:0|1:2,0:0:0:0:
275,179,45195,2,0,B|262:217|262:217|264:244,1,68.2499979171754,8|0,0:0|1:0,0:0:0:0:
190,305,45495,1,10,0:0:0:0:
113,248,45645,1,2,1:2:0:0:
156,162,45795,2,0,P|164:128|165:90,1,68.2499979171754,10|0,0:0|1:0,0:0:0:0:
141,17,46095,5,8,0:0:0:0:
256,192,46170,12,6,47145,1:2:0:0:
256,192,48195,5,10,0:0:0:0:
328,247,48345,2,0,B|371:259|396:241|396:241|422:223|459:229,1,130,6|0,1:2|1:0,0:0:0:0:
497,149,48795,2,0,P|505:116|496:76,1,65,10|0,0:0|0:0,0:0:0:0:
422,36,49095,2,0,P|414:69|423:109,1,65,2|0,1:2|1:0,0:0:0:0:
352,161,49395,1,10,0:0:0:0:
297,87,49545,6,0,B|251:101|251:101|220:78|220:78|152:73,1,130,2|0,0:0|0:0,0:0:0:0:
85,72,49995,2,0,B|68:104|68:104|65:139,1,65,10|0,0:0|0:0,0:0:0:0:
122,203,50295,2,0,B|139:171|139:171|142:136,1,65,2|0,1:2|1:0,0:0:0:0:
210,218,50595,2,0,B|193:250|193:250|190:285,1,65,10|0,0:0|0:0,0:0:0:0:
249,348,50895,6,0,P|292:333|396:355,2,130,2|10|2,1:2|0:0|1:2,0:0:0:0:
162,378,51645,1,2,1:2:0:0:
97,314,51795,2,0,P|107:275|108:237,1,65,8|2,0:0|0:0,0:0:0:0:
97,160,52095,6,0,B|134:141|163:160|163:160|193:178|231:167,2,130,0|8|0,1:0|0:0|1:0,0:0:0:0:
14,198,52845,1,0,1:0:0:0:
80,259,52995,2,0,P|96:287|94:329,1,65,8|0,0:0|0:0,0:0:0:0:
169,374,53295,6,0,B|198:353|198:353|297:362,1,130,6|10,1:2|0:0,0:0:0:0:
382,372,53745,1,0,0:0:0:0:
339,291,53895,2,0,B|326:261|326:261|329:223,1,65,2|0,1:2|1:0,0:0:0:0:
383,155,54195,1,10,0:0:0:0:
317,91,54345,6,0,B|276:98|256:120|256:120|236:142|189:149,1,130,2|0,0:0|0:0,0:0:0:0:
113,167,54795,2,0,P|102:205|102:245,1,65,10|0,0:0|0:0,0:0:0:0:
173,285,55095,2,0,P|184:247|184:207,1,65,2|0,1:2|1:0,0:0:0:0:
262,292,55395,2,0,P|251:330|251:370,1,65,10|0,0:0|0:0,0:0:0:0:
336,326,55695,6,0,P|368:304|484:297,2,130,2|10|2,1:2|0:0|1:2,0:0:0:0:
258,373,56445,1,2,1:2:0:0:
209,295,56595,2,0,P|197:254|196:227,1,65,8|2,0:0|0:0,0:0:0:0:
186,141,56895,5,0,1:0:0:0:
270,102,57045,1,0,1:0:0:0:
270,102,57195,1,8,0:0:0:0:
89,7,57495,5,2,1:2:0:0:
155,68,57645,1,2,1:2:0:0:
87,128,57795,2,0,P|73:163|68:200,1,65,10|2,0:2|1:2,0:0:0:0:
109,278,58095,5,6,1:2:0:0:
109,278,58245,1,2,0:0:0:0:
180,343,58395,2,0,B|214:355|214:355|246:343,1,65,10|2,0:0|0:0,0:0:0:0:
331,327,58695,2,0,B|369:311|369:311|343:210,1,130,2|10,1:2|0:0,0:0:0:0:
350,130,59145,1,2,0:0:0:0:
261,182,59295,6,0,P|230:193|194:197,1,65,0|0,1:0|0:0,0:0:0:0:
180,109,59595,2,0,P|211:98|247:94,1,65,10|0,0:0|0:0,0:0:0:0:
283,14,59895,1,2,1:2:0:0:
283,14,60045,1,0,1:0:0:0:
362,66,60195,2,0,P|351:110|350:137,1,65,10|0,0:0|0:0,0:0:0:0:
380,222,60495,5,2,1:2:0:0:
380,222,60645,1,2,0:0:0:0:
317,288,60795,2,0,B|282:299|282:299|250:290,1,65,8|2,0:0|0:0,0:0:0:0:
168,262,61095,2,0,B|193:233|193:233|186:135,1,130,2|10,1:2|0:0,0:0:0:0:
121,77,61545,1,0,0:0:0:0:
58,143,61695,5,0,1:0:0:0:
58,143,61845,1,0,0:0:0:0:
83,230,61995,2,0,L|86:299,1,65,10|0,0:0|0:0,0:0:0:0:
163,342,62295,2,0,L|165:277,1,65,2|0,1:2|1:0,0:0:0:0:
245,233,62595,2,0,L|247:297,1,65,10|0,0:0|0:0,0:0:0:0:
327,341,62895,6,0,P|365:355|398:346,1,65,6|0,1:2|0:0,0:0:0:0:
473,317,63195,1,8,0:0:0:0:
400,262,63345,2,0,P|396:216|380:127,1,130,0|0,1:0|1:0,0:0:0:0:
312,73,63795,2,0,P|268:90|245:85,1,65,8|0,0:0|0:0,0:0:0:0:
162,66,64095,6,0,B|151:99|151:99|158:139,1,65,2|0,1:2|1:0,0:0:0:0:
176,217,64395,2,0,B|228:207|228:207|255:216|255:216|308:208,1,130,10|2,0:0|0:0,0:0:0:0:
392,225,64845,1,0,1:0:0:0:
330,292,64995,2,0,B|322:327|322:327|328:362,1,65,10|0,0:0|0:0,0:0:0:0:
417,366,65295,6,0,P|448:348|474:255,1,130,2|8,1:2|0:0,0:0:0:0:
452,174,65745,1,0,1:0:0:0:
367,216,65895,2,0,B|329:232|304:218|304:218|270:200|228:217,1,130,2|8,0:0|0:0,0:0:0:0:
152,235,66345,1,0,0:0:0:0:
174,146,66495,6,0,P|185:111|201:10,1,130,2|10,1:2|0:0,0:0:0:0:
110,32,66945,1,0,1:0:0:0:
54,94,67095,2,0,B|49:132|73:176,1,65,2|8,1:2|0:0,0:0:0:0:
20,260,67395,1,10,0:0:0:0:
20,260,67545,1,8,0:0:0:0:
87,344,67695,6,0,B|121:329|141:300|141:300|166:327|196:336,2,130,6|8|0,1:2|0:0|1:0,0:0:0:0:
25,269,68445,1,0,1:0:0:0:
107,216,68595,2,0,P|123:187|132:151,1,65,8|0,0:0|0:0,0:0:0:0:
127,55,68895,6,0,P|166:52|202:77,1,65,0|0,1:0|0:0,0:0:0:0:
223,136,69195,2,0,B|260:130|279:167|279:167|301:137|347:147,1,130,10|2,0:0|1:2,0:0:0:0:
415,195,69645,1,0,1:0:0:0:
328,239,69795,2,0,P|316:273|312:308,1,65,8|0,0:0|0:0,0:0:0:0:
220,367,70095,6,0,L|139:352,1,74.7500014257431,14|0,0:0|1:0,0:0:0:0:
101,250,70395,2,0,L|174:263,1,74.7500014257431,8|0,0:0|1:0,0:0:0:0:
265,198,70695,1,8,0:0:0:0:
265,198,70845,1,0,1:0:0:0:
161,153,70995,2,0,B|179:118|179:118|175:79,1,74.7500014257431,8|0,0:0|1:0,0:0:0:0:
252,0,71295,5,8,0:0:0:0:
252,0,71445,1,0,1:0:0:0:
300,101,71595,2,0,P|341:121|380:105,1,74.7500014257431,8|0,0:0|1:0,0:0:0:0:
452,40,71895,1,8,0:0:0:0:
452,40,72045,1,0,1:0:0:0:
492,144,72195,2,0,P|497:180|478:211,1,74.7500014257431,8|0,0:0|1:0,0:0:0:0:
404,288,72495,5,2,0:0:0:0:
404,288,77295,6,0,B|346:282|371:262|304:258,1,97.50000371933,0|0,1:0|1:0,0:0:0:0:
234,229,77745,1,0,1:0:0:0:
232,151,77895,2,0,P|242:117|243:100,1,48.750001859665,0|0,3:0|3:0,0:0:0:0:
162,106,78195,2,0,P|145:74|133:62,1,48.750001859665,0|0,3:0|3:0,0:0:0:0:
89,144,78495,6,0,P|77:178|107:268,2,130,4|10|2,1:2|0:0|1:2,0:0:0:0:
136,65,79245,1,2,0:0:0:0:
221,119,79395,2,0,B|258:127|258:127|287:120,1,65,10|2,0:0|0:0,0:0:0:0:
383,81,79695,6,0,B|405:107|405:107|392:212,1,130,6|8,1:2|0:0,0:0:0:0:
365,294,80145,2,0,B|328:284|328:284|292:292,1,65,6|0,0:0|1:0,0:0:0:0:
208,318,80445,2,0,B|217:278|217:278|198:176,1,130,6|0,0:0|0:0,0:0:0:0:
177,95,80895,6,0,B|215:74|247:94|247:94|280:115|329:87,2,130,2|10|2,1:2|0:0|1:2,0:0:0:0:
86,132,81645,1,2,0:0:0:0:
160,194,81795,2,0,P|171:227|161:272,1,65,10|2,0:0|0:0,0:0:0:0:
124,343,82095,6,0,B|174:361|174:361|261:346,1,130,6|8,1:2|0:0,0:0:0:0:
345,330,82545,2,0,B|361:300|361:300|357:263,1,65,6|0,0:0|1:0,0:0:0:0:
290,198,82845,2,0,B|252:186|252:186|216:197|216:197|147:177,1,130,6|0,0:0|0:0,0:0:0:0:
74,145,83295,6,0,B|101:113|101:113|93:17,2,130,2|10|2,1:2|0:0|1:2,0:0:0:0:
3,212,84045,1,2,0:0:0:0:
88,259,84195,2,0,B|124:250|124:250|155:262,1,65,10|2,0:0|0:0,0:0:0:0:
239,299,84495,6,0,B|277:281|277:281|367:315,1,130,6|8,1:2|0:0,0:0:0:0:
449,348,84945,2,0,B|461:318|461:318|460:278,1,65,6|0,0:0|1:0,0:0:0:0:
413,199,85245,2,0,B|365:182|365:182|332:194|332:194|271:170,1,130,6|0,0:0|0:0,0:0:0:0:
194,187,85695,5,6,1:2:0:0:
141,117,85845,1,0,1:0:0:0:
141,117,85920,1,0,1:0:0:0:
141,117,85995,2,0,B|120:143|120:143|113:177,1,65,2|8,1:2|0:0,0:0:0:0:
112,264,86295,1,2,1:2:0:0:
173,332,86445,2,0,B|199:353|199:353|233:360,1,65,2|8,1:2|0:0,0:0:0:0:
320,364,86745,1,2,1:2:0:0:
279,287,86895,6,0,P|274:253|299:197,1,90.9999972229005,0|0,1:0|0:0,0:0:0:0:
355,253,87345,2,0,P|367:236|401:223,1,45.4999986114502,2|0,0:1|0:0,0:0:0:0:
425,297,87645,2,0,P|445:294|479:309,1,45.4999986114502,2|0,0:1|0:0,0:0:0:0:
