osu file format v14

[General]
AudioFilename: audio.mp3
AudioLeadIn: 0
PreviewTime: 47820
Countdown: 0
SampleSet: Soft
StackLeniency: 0.4
Mode: 0
LetterboxInBreaks: 0
WidescreenStoryboard: 1

[Editor]
Bookmarks: 106,9706,19306,26506,28906,36106,38506,47956,69706,72106,78106
DistanceSpacing: 1
BeatDivisor: 4
GridSize: 8
TimelineZoom: 2.6

[Metadata]
Title:Gravitation (TV Size)
TitleUnicode:Gravitation (TV Size)
Artist:Kurosaki Maon
ArtistUnicode:黒崎真音
Creator:Aakki
Version:Easy
Source:とある魔術の禁書目録Ⅲ
Tags:japanese rock jrock j-rock xiced door weapon dog food op anime toaru majutsu no mokuroku index scientific railgun kagaku season three opening kowari shizuku- kazato asa shikibe mayu kirishima- a certain magical iii 3
BeatmapID:2226250
BeatmapSetID:1063169

[Difficulty]
HPDrainRate:2
CircleSize:3
OverallDifficulty:2
ApproachRate:3
SliderMultiplier:0.899999999999999
SliderTickRate:1

[Events]
//Background and Video events
0,0,"bg.jpg",0,0
Video,-370,"vid.mp4"
//Break Periods
2,39095,42255
2,74895,77055
//Storyboard Layer 0 (Background)
//Storyboard Layer 1 (Fail)
//Storyboard Layer 2 (Pass)
//Storyboard Layer 3 (Foreground)
//Storyboard Layer 4 (Overlay)
//Storyboard Sound Samples

[TimingPoints]
495,300,4,2,1,60,1,0
495,-100,4,2,1,60,0,0
9495,-100,4,2,1,30,0,0
10095,-100,4,2,1,70,0,0
19695,-100,4,2,1,50,0,0
26895,-100,4,2,1,50,0,0
29295,-100,4,2,1,60,0,0
36495,-100,4,2,1,60,0,0
38895,-100,4,2,1,40,0,0
43695,-100,4,2,1,60,0,0
48345,-100,4,2,1,80,0,1
62895,-100,4,2,1,70,0,1
67695,-100,4,2,1,80,0,1
69945,-100,4,2,1,80,0,0
70095,-100,4,2,1,85,0,1
72495,-100,4,2,1,45,0,0
77895,-100,4,2,1,30,0,0
78495,-100,4,2,1,70,0,0
86895,-100,4,2,1,50,0,0

[Colours]
Combo1 : 151,0,151
Combo2 : 255,47,255
Combo3 : 223,223,0
Combo4 : 0,223,223

[HitObjects]
86,262,495,6,0,P|117:280|179:284,1,89.9999999999999,6|10,1:2|0:0,0:0:0:0:
246,238,1095,2,0,B|271:212|271:212|286:113,2,135,10|2|10,0:0|1:2|0:0,0:0:0:0:
163,201,2295,1,8,0:0:0:0:
37,150,2745,6,0,B|29:108|29:108|53:9,1,135,2|10,1:2|0:0,0:0:0:0:
135,47,3495,2,0,B|193:58|193:58|204:68|204:68|282:84,2,135,10|2|10,0:0|1:2|0:0,0:0:0:0:
104,132,4695,1,8,0:0:0:0:
205,221,5145,6,0,B|266:253|266:253|337:230,1,135,2|10,1:2|0:0,0:0:0:0:
406,186,5895,2,0,B|400:135|400:135|407:109|407:109|398:47,2,135,10|2|10,0:0|1:2|0:0,0:0:0:0:
413,275,7095,1,8,0:0:0:0:
284,316,7545,6,0,L|141:337,1,135,2|10,1:2|0:0,0:0:0:0:
75,286,8295,2,0,B|53:251|53:251|58:153,1,135,10|2,0:0|1:2,0:0:0:0:
57,157,10095,6,0,P|94:149|150:156,1,89.9999999999999,4|10,1:2|0:0,0:0:0:0:
224,198,10695,2,0,P|268:206|312:200,1,89.9999999999999,2|10,1:2|0:0,0:0:0:0:
390,155,11295,2,0,P|415:104|374:33,1,135,6|6,1:2|0:0,0:0:0:0:
293,51,12045,1,6,0:0:0:0:
171,110,12495,6,0,L|162:206,1,89.9999999999999,2|10,1:2|0:0,0:0:0:0:
251,215,13095,2,0,L|260:311,1,89.9999999999999,2|10,1:2|0:0,0:0:0:0:
176,339,13695,2,0,P|119:313|88:239,1,135,6|6,1:2|0:0,0:0:0:0:
80,160,14445,1,6,0:0:0:0:
151,45,14895,6,0,B|188:32|188:32|243:41,1,89.9999999999999,2|10,1:2|0:0,0:0:0:0:
303,102,15495,2,0,B|340:115|340:115|395:106,1,89.9999999999999,2|10,1:2|0:0,0:0:0:0:
467,61,16095,2,0,B|491:93|491:93|478:188,1,135,6|6,1:2|0:0,0:0:0:0:
449,264,16845,1,6,0:0:0:0:
354,349,17295,6,0,L|251:333,1,89.9999999999999,6|2,1:2|1:2,0:0:0:0:
175,347,17895,2,0,P|151:310|163:262,1,89.9999999999999,2|8,1:2|0:0,0:0:0:0:
229,210,18495,2,0,B|274:206|290:180|290:180|307:148|344:149,1,135,6|14,1:2|0:0,0:0:0:0:
388,226,19245,1,6,1:2:0:0:
302,333,19695,6,0,B|267:356|267:356|158:345,1,135,4|2,1:2|0:0,0:0:0:0:
102,285,20445,1,2,1:2:0:0:
191,193,20895,2,0,L|335:206,2,135,2|2|8,1:2|0:0|0:0,0:0:0:0:
108,155,22095,6,0,B|90:200|90:200|104:299,1,135,2|2,1:2|0:0,0:0:0:0:
221,348,22995,1,10,0:0:0:0:
306,321,23295,2,0,L|457:344,2,135,2|2|8,1:2|1:2|0:0,0:0:0:0:
258,244,24495,6,0,B|313:227|313:227|324:213|324:213|386:195,1,135,2|2,1:2|0:0,0:0:0:0:
510,158,25395,1,10,0:0:0:0:
442,98,25695,2,0,B|400:73|400:73|312:79,2,135,2|2|8,1:2|0:0|0:0,0:0:0:0:
388,170,26895,6,0,L|238:179,2,135,0|0|8,1:0|1:0|0:0,0:0:0:0:
424,252,28095,2,0,L|289:260,2,135,0|0|8,1:0|1:0|0:0,0:0:0:0:
446,164,29295,6,0,P|466:139|396:20,1,180,6|2,1:2|1:2,0:0:0:0:
327,51,30195,1,10,0:0:0:0:
243,84,30495,2,0,B|226:113|226:113|239:216,2,135,2|2|8,1:2|0:0|0:0,0:0:0:0:
160,47,31695,6,0,P|125:18|77:-4,2,89.9999999999999,2|10|2,1:2|0:0|1:2,0:0:0:0:
115,125,32595,1,10,0:0:0:0:
92,212,32895,2,0,B|78:258|78:258|89:350,2,135,2|2|8,1:2|1:2|0:0,0:0:0:0:
184,223,34095,6,0,L|377:251,1,180,2|2,1:2|1:2,0:0:0:0:
425,184,34995,1,10,0:0:0:0:
401,97,35295,2,0,B|352:97|336:125|336:125|323:146|268:153,2,135,2|2|8,1:2|0:0|0:0,0:0:0:0:
425,184,36495,6,0,L|429:322,2,135,0|0|8,1:0|1:0|0:0,0:0:0:0:
339,211,37695,2,0,L|343:349,2,135,0|0|8,1:0|1:0|0:0,0:0:0:0:
266,157,38895,1,6,1:2:0:0:
256,192,43695,12,6,47145,1:2:0:0:
80,290,48345,6,0,B|140:296|140:296|150:288|150:288|218:295,1,135,6|10,1:2|0:0,0:0:0:0:
296,265,49095,1,2,1:2:0:0:
344,189,49395,1,10,0:0:0:0:
282,122,49695,2,0,L|183:158,2,89.9999999999999,0|10|2,1:0|0:0|1:2,0:0:0:0:
360,77,50595,1,10,0:0:0:0:
433,128,50895,6,0,B|450:155|450:155|440:225,1,89.9999999999999,2|10,1:2|0:0,0:0:0:0:
410,297,51495,1,2,1:2:0:0:
279,333,51945,2,0,B|233:292|233:292|226:203,1,135,2|8,0:0|0:0,0:0:0:0:
168,150,52695,1,0,1:0:0:0:
218,75,52995,1,8,0:0:0:0:
296,30,53295,6,0,P|327:42|366:90,1,89.9999999999999,6|10,1:2|0:0,0:0:0:0:
388,170,53895,1,2,1:2:0:0:
346,250,54195,1,10,0:0:0:0:
313,334,54495,2,0,B|275:332|275:332|268:325|268:325|214:323,2,89.9999999999999,0|10|2,1:0|0:0|1:2,0:0:0:0:
403,354,55395,1,10,0:0:0:0:
459,284,55695,6,0,P|471:260|473:187,1,89.9999999999999,2|10,1:2|0:0,0:0:0:0:
433,118,56295,1,2,1:2:0:0:
305,74,56745,2,0,P|279:89|223:189,1,135,2|8,0:0|0:0,0:0:0:0:
191,259,57495,1,2,1:2:0:0:
329,374,58095,6,0,B|378:373|410:342|410:342|437:311|508:320,1,180,6|2,1:2|1:2,0:0:0:0:
501,228,58995,1,10,0:0:0:0:
439,162,59295,2,0,L|338:173,1,89.9999999999999,0|10,1:0|0:0,0:0:0:0:
265,139,59895,1,2,1:2:0:0:
191,191,60195,1,10,0:0:0:0:
110,150,60495,6,0,B|73:197|73:197|80:326,1,180,2|2,1:2|1:2,0:0:0:0:
160,357,61395,1,10,0:0:0:0:
242,319,61695,2,0,B|285:310|285:310|332:331,1,89.9999999999999,0|10,1:0|0:0,0:0:0:0:
410,363,62295,1,2,1:2:0:0:
440,278,62595,1,10,0:0:0:0:
391,202,62895,6,0,B|349:171|349:171|206:181,2,180,6|2|2,1:2|0:0|1:2,0:0:0:0:
453,136,64395,2,0,P|467:109|461:41,1,89.9999999999999,10|2,0:0|0:0,0:0:0:0:
378,26,64995,1,10,0:0:0:0:
291,51,65295,6,0,B|208:47|208:47|191:55|191:55|96:52,2,180,2|2|2,1:2|0:0|1:2,0:0:0:0:
313,138,66795,2,0,B|326:171|326:171|313:232,1,89.9999999999999,10|2,0:0|1:2,0:0:0:0:
295,312,67395,1,10,0:0:0:0:
211,344,67695,6,0,P|156:337|114:222,1,180,6|0,1:2|1:0,0:0:0:0:
189,190,68595,1,8,0:0:0:0:
201,100,68895,1,0,1:0:0:0:
141,32,69195,2,0,L|42:46,1,89.9999999999999,10|2,0:0|1:2,0:0:0:0:
29,131,69795,1,8,0:0:0:0:
64,213,70095,6,0,L|69:314,1,89.9999999999999,14|8,0:0|0:0,0:0:0:0:
156,319,70695,2,0,L|151:230,1,89.9999999999999,8|8,0:0|0:0,0:0:0:0:
217,168,71295,2,0,B|254:175|254:175|321:157,1,89.9999999999999,8|8,0:0|0:0,0:0:0:0:
388,193,71895,2,0,B|418:136|418:136|395:12,1,180,8|2,0:0|0:0,0:0:0:0:
370,298,78495,6,0,L|377:202,1,89.9999999999999,4|10,1:2|0:0,0:0:0:0:
342,124,79095,2,0,L|335:34,1,89.9999999999999,2|10,1:2|0:0,0:0:0:0:
245,44,79695,2,0,B|225:80|225:80|118:96,1,135,6|6,1:2|0:0,0:0:0:0:
42,106,80445,1,6,0:0:0:0:
6,236,80895,6,0,B|25:261|25:261|99:270,1,89.9999999999999,2|10,1:2|0:0,0:0:0:0:
168,250,81495,2,0,B|226:257|226:257|245:282,1,89.9999999999999,2|10,1:2|0:0,0:0:0:0:
280,365,82095,2,0,L|426:353,1,135,6|6,1:2|0:0,0:0:0:0:
484,297,82845,1,6,0:0:0:0:
393,196,83295,6,0,B|407:156|407:156|395:106,1,89.9999999999999,2|10,1:2|0:0,0:0:0:0:
305,111,83895,2,0,B|293:157|293:157|307:197,1,89.9999999999999,2|10,1:2|0:0,0:0:0:0:
267,278,84495,2,0,B|238:314|238:314|144:325,1,135,6|6,1:2|0:0,0:0:0:0:
100,249,85245,1,6,0:0:0:0:
127,116,85695,6,0,B|161:98|161:98|221:121,1,89.9999999999999,6|2,1:2|1:2,0:0:0:0:
293,147,86295,2,0,B|341:165|341:165|375:147,1,89.9999999999999,2|8,1:2|0:0,0:0:0:0:
454,104,86895,5,0,1:0:0:0:
