osu file format v14

[General]
AudioFilename: audio.mp3
AudioLeadIn: 0
PreviewTime: 49350
Countdown: 1
SampleSet: Normal
StackLeniency: 0.7
Mode: 0
LetterboxInBreaks: 0
WidescreenStoryboard: 1

[Editor]
DistanceSpacing: 1.1
BeatDivisor: 4
GridSize: 4
TimelineZoom: 1

[Metadata]
Title:Gravitation (TV Size)
TitleUnicode:Gravitation (TV Size)
Artist:Kurosaki Mahoto
ArtistUnicode:黒崎真音
Creator:5teven
Version:Extra
Source:とある魔術の禁書目録
Tags:a certain magical index to aru majutsu no index season 3 three op opening anime
BeatmapID:1800014
BeatmapSetID:860343

[Difficulty]
HPDrainRate:4
CircleSize:4.5
OverallDifficulty:7
ApproachRate:9.7
SliderMultiplier:1.4
SliderTickRate:1

[Events]
//Background and Video events
0,0,"toaru.png",0,0
Video,0,"video.avi"
//Break Periods
//Storyboard Layer 0 (Background)
//Storyboard Layer 1 (Fail)
//Storyboard Layer 2 (Pass)
//Storyboard Layer 3 (Foreground)
//Storyboard Sound Samples

[TimingPoints]
0,300,4,1,1,100,1,0
21075,-66.6666666666667,4,1,1,100,0,0
40350,-66.6666666666667,4,1,1,87,0,0
43650,-66.6666666666667,4,1,1,100,0,0
45225,-66.6666666666667,4,1,1,60,0,0
48300,-66.6666666666667,4,1,1,100,0,0
51975,-66.6666666666667,4,1,1,100,0,0
53175,-66.6666666666667,4,1,1,100,0,0
54825,-100,4,1,1,60,0,0
55875,-100,4,1,1,100,0,0
56175,-100,4,1,1,100,0,0
58275,-66.6666666666667,4,1,1,100,0,0
62925,-66.6666666666667,4,1,1,100,0,0
69375,-66.6666666666667,4,1,1,100,0,1
74175,-66.6666666666667,4,1,1,50,0,0
74325,-100,4,1,1,50,0,0
74700,-66.6666666666667,4,1,1,30,0,0
78825,-66.6666666666667,4,1,1,5,0,0

[HitObjects]
196,56,2025,5,0,0:0:0:0:
216,76,2100,1,0,0:0:0:0:
236,96,2175,1,0,0:0:0:0:
256,116,2250,1,0,0:0:0:0:
128,136,2325,1,4,0:0:0:0:
260,240,2625,5,0,0:0:0:0:
176,276,2925,1,0,0:0:0:0:
100,312,3225,5,0,0:0:0:0:
24,344,3525,1,0,0:0:0:0:
196,56,3825,5,0,0:0:0:0:
216,76,3900,1,0,0:0:0:0:
236,96,3975,1,0,0:0:0:0:
256,116,4050,1,0,0:0:0:0:
128,136,4125,1,4,0:0:0:0:
308,128,4425,5,0,0:0:0:0:
224,64,4725,1,0,0:0:0:0:
472,252,5025,5,0,0:0:0:0:
388,188,5325,1,0,0:0:0:0:
296,108,5625,5,0,0:0:0:0:
388,188,5925,1,0,0:0:0:0:
196,56,6225,5,0,0:0:0:0:
216,76,6300,1,0,0:0:0:0:
236,96,6375,1,0,0:0:0:0:
256,116,6450,1,0,0:0:0:0:
128,136,6525,1,4,0:0:0:0:
224,316,6825,5,0,0:0:0:0:
148,248,7125,1,0,0:0:0:0:
224,316,7425,5,0,0:0:0:0:
148,248,7725,1,0,0:0:0:0:
148,248,8025,5,0,0:0:0:0:
68,180,8325,1,0,0:0:0:0:
272,92,8625,2,0,P|308:76|324:88,2,35
168,100,8925,2,0,P|204:84|220:96,2,35
148,200,9225,5,0,0:0:0:0:
192,180,9375,1,0,0:0:0:0:
152,156,9525,5,0,0:0:0:0:
189,215,9675,1,0,0:0:0:0:
218,153,9825,5,0,0:0:0:0:
122,216,9975,1,0,0:0:0:0:
212,256,10125,5,0,0:0:0:0:
128,117,10275,1,0,0:0:0:0:
168,184,10425,1,4,0:0:0:0:
168,184,11100,5,0,0:0:0:0:
156,168,11175,1,0,0:0:0:0:
168,152,11250,1,0,0:0:0:0:
192,140,11325,1,0,0:0:0:0:
228,156,11400,1,0,0:0:0:0:
228,204,11475,1,0,0:0:0:0:
188,232,11550,1,0,0:0:0:0:
132,224,11625,1,0,0:0:0:0:
100,180,11700,1,4,0:0:0:0:
80,92,11925,6,0,B|100:56|124:56|144:72,1,70
192,116,12225,1,0,0:0:0:0:
220,160,12375,1,0,0:0:0:0:
256,200,12525,1,0,0:0:0:0:
256,56,12825,5,4,0:0:0:0:
112,316,13275,1,4,0:0:0:0:
424,316,13575,1,4,0:0:0:0:
400,224,14025,6,0,B|380:196|380:196|344:188,1,70
236,176,14325,1,0,0:0:0:0:
80,140,14625,5,0,0:0:0:0:
184,124,14775,1,0,0:0:0:0:
260,216,14925,1,0,0:0:0:0:
256,328,15225,5,4,0:0:0:0:
400,68,15675,1,4,0:0:0:0:
88,68,15975,1,4,0:0:0:0:
20,136,16425,6,0,B|0:176|0:176|20:212,1,70
48,272,16725,1,0,0:0:0:0:
140,308,17025,5,0,0:0:0:0:
216,260,17175,1,0,0:0:0:0:
220,168,17325,1,0,0:0:0:0:
392,184,17625,5,4,0:0:0:0:
132,40,18075,1,6,0:0:0:0:
132,352,18375,1,6,0:0:0:0:
244,300,18825,6,0,B|284:288|284:288|336:304,1,70
400,320,19125,1,0,0:0:0:0:
464,256,19425,5,0,0:0:0:0:
404,176,19575,1,0,0:0:0:0:
296,184,19725,1,0,0:0:0:0:
120,184,20025,5,4,0:0:0:0:
380,40,20475,1,4,0:0:0:0:
380,352,20775,1,4,0:0:0:0:
196,232,21075,6,0,B|240:256|240:256|256:220|256:220|293:236,1,105.000004005432
336,252,21525,2,0,P|396:268|440:264,1,105.000004005432
492,208,21975,1,0,0:0:0:0:
404,152,22275,1,0,0:0:0:0:
364,132,22425,1,0,0:0:0:0:
244,104,22725,5,0,0:0:0:0:
200,116,22875,1,0,0:0:0:0:
104,168,23175,1,4,0:0:0:0:
128,264,23475,6,0,B|172:288|172:288|188:252|188:252|225:268,1,105.000004005432
268,284,23925,2,0,P|316:300|400:292,1,105.000004005432
452,255,24375,2,0,P|476:196|455:150,1,105.000004005432
135,177,24675,1,0,0:0:0:0:
137,137,24825,1,0,0:0:0:0:
221,90,24975,2,0,P|276:111|323:96,1,105.000004005432
101,107,25275,1,0,0:0:0:0:
65,67,25425,1,0,0:0:0:0:
156,216,25575,1,4,0:0:0:0:
68,184,25875,5,0,0:0:0:0:
64,80,26025,1,0,0:0:0:0:
40,112,26325,1,0,0:0:0:0:
160,60,26475,2,0,P|224:76|260:96,1,105.000004005432
316,160,26775,2,0,P|316:232|288:256,1,105.000004005432
256,192,27075,1,0,0:0:0:0:
256,192,27225,1,0,0:0:0:0:
184,176,27525,5,0,0:0:0:0:
184,176,27675,1,0,0:0:0:0:
120,156,27975,5,4,0:0:0:0:
120,156,28425,6,2,B|200:236|200:236|244:280|252:328|216:352|132:352|136:276|196:232|196:232|248:208|256:180,1,420
296,160,29625,6,2,B|336:128|336:128|400:88|404:12|320:12|284:36|292:84|336:128|336:128|392:192|412:216,1,420
456,276,30675,5,0,0:0:0:0:
480,308,30825,1,0,0:0:0:0:
332,296,31125,5,0,0:0:0:0:
316,272,31275,1,0,0:0:0:0:
304,248,31425,1,0,0:0:0:0:
214,192,31725,5,0,0:0:0:0:
184,216,31875,1,0,0:0:0:0:
156,240,32025,1,0,0:0:0:0:
129,195,32325,5,0,0:0:0:0:
99,165,32475,1,0,0:0:0:0:
78,132,32625,2,0,P|80:81|125:55,1,105.000004005432
148,48,32925,5,0,0:0:0:0:
232,24,33075,2,0,P|280:20|336:44,1,105.000004005432
60,65,33525,1,0,0:0:0:0:
164,140,33675,2,0,P|240:188|280:184,1,105.000004005432
60,65,34125,1,0,0:0:0:0:
298,166,34275,2,0,B|296:180|232:140|232:140|200:180|200:180|172:152|156:92,1,210.000008010865
60,65,34725,1,0,0:0:0:0:
160,104,34875,2,0,B|172:152|200:180|200:180|232:140|232:140|296:180|348:164,1,210.000008010865
300,192,35475,5,4,0:0:0:0:
184,160,35625,2,0,P|288:88|376:116,1,210.000008010865
420,156,36075,1,0,0:0:0:0:
436,184,36225,1,0,0:0:0:0:
384,252,36525,2,0,L|408:300,4,52.5000020027161
484,272,37125,5,0,0:0:0:0:
456,228,37275,1,0,0:0:0:0:
392,156,37575,1,4,0:0:0:0:
392,156,38025,6,2,B|312:236|312:236|268:280|260:328|296:352|380:352|376:276|316:232|316:232|264:208|256:180,1,420
216,160,39225,6,2,B|176:128|176:128|112:88|108:12|192:12|228:36|220:84|176:128|176:128|120:192|100:216,1,420
52,272,40425,5,8,0:0:0:0:
36,296,40575,1,8,0:0:0:0:
144,288,40875,1,8,0:0:0:0:
164,264,41025,1,8,0:0:0:0:
268,252,41325,1,8,0:0:0:0:
252,276,41475,1,8,0:0:0:0:
356,276,41775,1,8,0:0:0:0:
376,252,41925,1,8,0:0:0:0:
408,208,42225,1,0,0:0:0:0:
420,184,42300,5,8,0:0:0:0:
424,164,42375,1,8,0:0:0:0:
244,196,42525,1,4,0:0:0:0:
304,56,42900,5,4,0:0:0:0:
228,24,43125,1,0,0:0:0:0:
184,28,43275,1,0,0:0:0:0:
104,60,43575,5,4,0:0:0:0:
196,248,43875,1,4,0:0:0:0:
256,96,44175,5,4,0:0:0:0:
352,280,44475,1,4,0:0:0:0:
164,252,45225,5,8,0:0:0:0:
140,284,45375,1,8,0:0:0:0:
248,116,45675,1,8,0:0:0:0:
264,88,45825,1,8,0:0:0:0:
132,148,46125,1,8,0:0:0:0:
108,136,46275,1,8,0:0:0:0:
288,212,46575,1,8,0:0:0:0:
312,224,46725,1,8,0:0:0:0:
208,184,47025,5,8,0:0:0:0:
208,184,47175,1,8,0:0:0:0:
208,184,47325,1,8,0:0:0:0:
208,184,47625,5,8,0:0:0:0:
196,172,47700,1,8,0:0:0:0:
204,152,47775,1,8,0:0:0:0:
228,148,47850,1,8,0:0:0:0:
248,168,47925,1,8,0:0:0:0:
248,200,48000,1,8,0:0:0:0:
216,228,48075,1,8,0:0:0:0:
168,212,48150,1,8,0:0:0:0:
152,160,48225,1,8,0:0:0:0:
208,84,48375,5,4,0:0:0:0:
312,72,48525,1,4,0:0:0:0:
408,144,48675,1,4,0:0:0:0:
224,272,49425,5,0,0:0:0:0:
160,220,49575,1,0,0:0:0:0:
176,136,49875,2,0,P|224:108|296:136,1,105,4|0,0:0|0:0,0:0:0:0:
340,168,50325,1,0,0:0:0:0:
372,236,50625,1,0,0:0:0:0:
328,304,50925,5,0,0:0:0:0:
292,336,51075,1,0,0:0:0:0:
244,332,51225,1,0,0:0:0:0:
168,268,51525,5,0,0:0:0:0:
112,168,51825,1,0,0:0:0:0:
168,64,52125,1,0,0:0:0:0:
316,112,52425,5,0,0:0:0:0:
356,252,52725,1,0,0:0:0:0:
248,144,53025,1,0,0:0:0:0:
296,296,53175,2,0,B|356:364|444:312|440:256|420:216,1,210.000008010865,0|4,0:0|0:0,0:0:0:0:
108,72,54825,6,8,P|160:96|164:124,1,70
148,152,55125,2,8,P|140:196|176:220,1,70
200,236,55425,2,8,P|252:260|244:296,1,70
256,296,55725,1,8,0:0:0:0:
260,328,55875,1,12,0:0:0:0:
92,64,56325,5,2,0:0:0:0:
152,272,56625,1,2,0:0:0:0:
224,144,56925,1,2,0:0:0:0:
336,88,57225,1,2,0:0:0:0:
412,300,57525,1,2,0:0:0:0:
488,240,57825,5,8,0:0:0:0:
408,276,57975,1,8,0:0:0:0:
328,196,58275,6,0,B|260:132|352:104|352:104|288:80|268:48|268:48|232:60|236:120|192:160|100:136|100:136,1,420.000016021729,4|0,0:0|0:0,0:0:0:0:
176,124,59025,5,4,0:0:0:0:
104,188,59325,1,4,0:0:0:0:
192,248,59625,5,0,0:0:0:0:
296,304,59925,1,0,0:0:0:0:
404,248,60225,1,0,0:0:0:0:
408,128,60525,1,0,0:0:0:0:
408,128,60675,1,0,0:0:0:0:
408,128,60825,1,0,0:0:0:0:
328,80,61125,5,0,0:0:0:0:
204,28,61425,1,0,0:0:0:0:
100,80,61725,1,0,0:0:0:0:
52,64,62025,6,0,P|32:104|48:152,1,70
36,204,62325,1,8,0:0:0:0:
76,220,62475,1,8,0:0:0:0:
116,204,62625,1,8,0:0:0:0:
196,168,62925,6,2,B|260:148|380:244|404:136|372:88|328:64|272:96|273:173|273:173|276:220|256:256,1,420.000016021729,2|6,0:0|0:0,0:0:0:0:
200,300,63825,1,8,0:0:0:0:
176,312,63975,1,8,0:0:0:0:
148,312,64125,1,8,0:0:0:0:
68,240,64425,1,12,0:0:0:0:
256,192,64575,12,8,65625,0:0:0:0:
180,272,65925,5,8,0:0:0:0:
352,276,66225,1,8,0:0:0:0:
248,112,66525,1,8,0:0:0:0:
72,224,66825,6,2,B|176:224|200:152|200:152|220:72|176:36|100:20|88:96|72:156|128:172|232:224|280:48|320:112|360:248|424:152|424:152,1,630.000024032594,10|10,0:0|0:0,0:0:0:0:
412,104,68025,5,8,0:0:0:0:
332,208,68325,1,8,0:0:0:0:
296,216,68625,1,8,0:0:0:0:
260,220,68925,6,0,B|220:208|184:200|216:92|156:104|84:148,1,210.000008010865,8|0,0:0|0:0,0:0:0:0:
369,171,69525,5,2,0:0:0:0:
256,80,69825,1,2,0:0:0:0:
159,174,70125,1,2,0:0:0:0:
187,305,70425,1,2,0:0:0:0:
336,299,70725,1,2,0:0:0:0:
369,171,71025,1,2,0:0:0:0:
256,75,71325,1,2,0:0:0:0:
345,317,71625,5,2,0:0:0:0:
420,164,71925,1,2,0:0:0:0:
256,43,72225,1,2,0:0:0:0:
120,173,72525,1,2,0:0:0:0:
152,370,72825,1,2,0:0:0:0:
392,376,73125,1,2,0:0:0:0:
440,156,73425,1,2,0:0:0:0:
248,28,73725,1,2,0:0:0:0:
340,44,73875,6,2,B|372:56|388:84|388:84,3,52.5000020027161
460,192,74475,1,4,0:0:0:0:
376,320,74925,5,4,0:0:0:0:
376,320,76425,6,0,B|270:259|220:295|113:272|62:211,1,315.000012016297
44,96,77325,6,0,B|60:56|84:72|84:72|100:160|132:244|212:340|212:340|172:192|184:144|196:108|196:108|260:148|260:148|276:300|324:344|324:344|332:152|332:152|404:184|404:184|404:280|456:328|456:328|496:168|460:132|460:132|401:109|401:109|396:76|396:76|336:76|316:64|316:64|296:68|296:88|296:88|260:68|220:44|220:44|176:28|144:56|144:56,1,1837.50007009506,0|2,0:0|0:0,0:0:0:0:
