osu file format v14

[General]
AudioFilename: audio_1.3.mp3
AudioLeadIn: 0
PreviewTime: 47766
Countdown: 0
SampleSet: None
StackLeniency: 0.7
Mode: 3
LetterboxInBreaks: 0
SpecialStyle: 0
WidescreenStoryboard: 0

[Editor]
DistanceSpacing: 0.9
BeatDivisor: 4
GridSize: 4
TimelineZoom: 2.3

[Metadata]
Title:Cawfee Blend (Blend S Opening Remix)
TitleUnicode:Cawfee Blend (Blend S Opening Remix)
Artist:Kurosai
ArtistUnicode:Kurosai
Creator:MapleSyrup-
Version:S is for shitposting x1.3
Source:
Tags:
BeatmapID:1574886
BeatmapSetID:743972

[Difficulty]
HPDrainRate:8
CircleSize:4
OverallDifficulty:7
ApproachRate:5
SliderMultiplier:1.4
SliderTickRate:1

[Events]
//Background and Video events
//Break Periods
//Storyboard Layer 0 (Background)
//Storyboard Layer 1 (Fail)
//Storyboard Layer 2 (Pass)
//Storyboard Layer 3 (Foreground)
//Storyboard Sound Samples

[TimingPoints]
110,303.543874737561,4,1,0,10,1,0

[HitObjects]
192,192,110,128,0,261:0:0:0:0:
64,192,110,128,0,261:0:0:0:0:
448,192,110,1,0,0:0:0:0:
192,192,336,128,0,489:0:0:0:0:
64,192,336,128,0,489:0:0:0:0:
192,192,564,128,0,640:0:0:0:0:
64,192,564,128,0,716:0:0:0:0:
320,192,716,128,0,868:0:0:0:0:
448,192,716,128,0,868:0:0:0:0:
320,192,944,128,0,1096:0:0:0:0:
448,192,944,128,0,1096:0:0:0:0:
320,192,1172,128,0,1247:0:0:0:0:
448,192,1172,128,0,1323:0:0:0:0:
320,192,1323,128,0,1475:0:0:0:0:
64,192,1323,128,0,1475:0:0:0:0:
64,192,1551,128,0,1703:0:0:0:0:
320,192,1551,128,0,1703:0:0:0:0:
320,192,1779,128,0,1930:0:0:0:0:
64,192,1779,128,0,1854:0:0:0:0:
192,192,1930,128,0,2082:0:0:0:0:
448,192,1930,128,0,2082:0:0:0:0:
448,192,2158,128,0,2310:0:0:0:0:
192,192,2158,128,0,2310:0:0:0:0:
192,192,2386,128,0,2537:0:0:0:0:
448,192,2386,128,0,2462:0:0:0:0:
448,192,2537,128,0,2690:0:0:0:0:
64,192,2537,128,0,2690:0:0:0:0:
320,192,2537,128,0,2690:0:0:0:0:
192,192,2690,128,0,2841:0:0:0:0:
64,192,2765,128,0,2917:0:0:0:0:
448,192,2765,128,0,2917:0:0:0:0:
320,192,2841,128,0,2993:0:0:0:0:
448,192,2993,128,0,3069:0:0:0:0:
64,192,2993,128,0,3069:0:0:0:0:
192,192,2993,128,0,3069:0:0:0:0:
320,192,3145,128,0,3296:0:0:0:0:
192,192,3145,128,0,3296:0:0:0:0:
64,192,3145,128,0,3220:0:0:0:0:
448,192,3145,128,0,3220:0:0:0:0:
320,192,3373,128,0,3524:0:0:0:0:
192,192,3373,128,0,3524:0:0:0:0:
448,192,3448,1,0,0:0:0:0:
64,192,3448,1,0,0:0:0:0:
320,192,3600,128,0,3676:0:0:0:0:
192,192,3600,128,0,3676:0:0:0:0:
64,192,3752,128,0,3827:0:0:0:0:
192,192,3752,128,0,3827:0:0:0:0:
448,192,3752,1,0,0:0:0:0:
320,192,4055,128,0,4131:0:0:0:0:
192,192,4055,128,0,4131:0:0:0:0:
448,192,4207,128,0,4435:0:0:0:0:
192,192,4359,128,0,4435:0:0:0:0:
64,192,4359,128,0,4435:0:0:0:0:
320,192,4510,128,0,4586:0:0:0:0:
320,192,4663,1,0,0:0:0:0:
64,192,4663,128,0,4738:0:0:0:0:
448,192,4663,128,0,4738:0:0:0:0:
192,192,4814,128,0,4966:0:0:0:0:
64,192,4966,128,0,5270:0:0:0:0:
448,192,4966,128,0,5118:0:0:0:0:
192,192,5270,128,0,5573:0:0:0:0:
320,192,5270,1,0,0:0:0:0:
448,192,5421,128,0,5573:0:0:0:0:
320,192,5573,128,0,5725:0:0:0:0:
64,192,5573,128,0,5876:0:0:0:0:
192,192,5725,1,0,0:0:0:0:
192,192,5876,128,0,6028:0:0:0:0:
448,192,5876,1,0,0:0:0:0:
320,192,5953,128,0,6104:0:0:0:0:
448,192,6028,128,0,6180:0:0:0:0:
64,192,6180,128,0,6560:0:0:0:0:
192,192,6180,1,0,0:0:0:0:
320,192,6483,128,0,6560:0:0:0:0:
192,192,6483,128,0,6560:0:0:0:0:
448,192,6483,128,0,6863:0:0:0:0:
64,192,6636,1,0,0:0:0:0:
320,192,6787,128,0,6863:0:0:0:0:
64,192,6787,128,0,6863:0:0:0:0:
192,192,6787,128,0,7166:0:0:0:0:
448,192,6939,1,0,0:0:0:0:
448,192,7090,128,0,7243:0:0:0:0:
64,192,7090,128,0,7318:0:0:0:0:
320,192,7166,128,0,7318:0:0:0:0:
192,192,7243,128,0,7394:0:0:0:0:
448,192,7394,128,0,7698:0:0:0:0:
320,192,7394,128,0,7546:0:0:0:0:
64,192,7394,128,0,7698:0:0:0:0:
192,192,7698,1,0,0:0:0:0:
320,192,7698,128,0,7926:0:0:0:0:
64,192,7773,1,0,0:0:0:0:
448,192,7850,1,0,0:0:0:0:
192,192,7926,1,0,0:0:0:0:
320,192,8001,1,0,0:0:0:0:
448,192,8001,128,0,8305:0:0:0:0:
64,192,8001,128,0,8153:0:0:0:0:
320,192,8153,128,0,8305:0:0:0:0:
192,192,8305,128,0,8456:0:0:0:0:
64,192,8381,128,0,8533:0:0:0:0:
320,192,8456,128,0,8608:0:0:0:0:
448,192,8533,128,0,8608:0:0:0:0:
192,192,8608,128,0,8684:0:0:0:0:
64,192,8608,128,0,8684:0:0:0:0:
320,192,8912,128,0,8988:0:0:0:0:
192,192,8912,128,0,8988:0:0:0:0:
320,192,9216,128,0,9291:0:0:0:0:
448,192,9216,128,0,9291:0:0:0:0:
320,192,9519,128,0,9595:0:0:0:0:
192,192,9519,128,0,9671:0:0:0:0:
64,192,9595,128,0,9823:0:0:0:0:
320,192,9671,128,0,9746:0:0:0:0:
448,192,9671,128,0,9746:0:0:0:0:
192,192,9746,128,0,9823:0:0:0:0:
320,192,9823,1,0,0:0:0:0:
448,192,9823,128,0,10126:0:0:0:0:
320,192,9974,128,0,10126:0:0:0:0:
192,192,9974,128,0,10050:0:0:0:0:
192,192,10126,1,0,0:0:0:0:
64,192,10126,128,0,10430:0:0:0:0:
192,192,10278,128,0,10430:0:0:0:0:
320,192,10278,1,0,0:0:0:0:
320,192,10430,128,0,10733:0:0:0:0:
448,192,10430,128,0,10581:0:0:0:0:
64,192,10581,128,0,10733:0:0:0:0:
192,192,10733,128,0,11036:0:0:0:0:
448,192,10733,128,0,10885:0:0:0:0:
320,192,10809,128,0,10961:0:0:0:0:
64,192,10885,128,0,11036:0:0:0:0:
320,192,11036,128,0,11340:0:0:0:0:
448,192,11036,1,0,0:0:0:0:
448,192,11189,128,0,11340:0:0:0:0:
64,192,11189,128,0,11264:0:0:0:0:
192,192,11340,128,0,11644:0:0:0:0:
64,192,11340,1,0,0:0:0:0:
64,192,11492,128,0,11644:0:0:0:0:
320,192,11492,1,0,0:0:0:0:
448,192,11644,128,0,11947:0:0:0:0:
320,192,11644,128,0,11796:0:0:0:0:
192,192,11796,128,0,12023:0:0:0:0:
64,192,11796,128,0,12099:0:0:0:0:
320,192,11947,128,0,12099:0:0:0:0:
448,192,12023,128,0,12175:0:0:0:0:
192,192,12099,128,0,12175:0:0:0:0:
320,192,12175,128,0,12251:0:0:0:0:
64,192,12251,128,0,12403:0:0:0:0:
448,192,12251,128,0,12554:0:0:0:0:
192,192,12251,1,0,0:0:0:0:
320,192,12554,128,0,12858:0:0:0:0:
192,192,12554,128,0,12706:0:0:0:0:
64,192,12554,1,0,0:0:0:0:
448,192,12706,128,0,12858:0:0:0:0:
192,192,12858,128,0,13162:0:0:0:0:
64,192,12858,128,0,13010:0:0:0:0:
320,192,13010,128,0,13162:0:0:0:0:
448,192,13010,1,0,0:0:0:0:
64,192,13162,1,0,0:0:0:0:
448,192,13162,128,0,13237:0:0:0:0:
320,192,13237,128,0,13313:0:0:0:0:
192,192,13313,128,0,13390:0:0:0:0:
64,192,13390,128,0,13465:0:0:0:0:
320,192,13617,128,0,13920:0:0:0:0:
448,192,13617,128,0,13693:0:0:0:0:
64,192,13617,128,0,13693:0:0:0:0:
192,192,13844,128,0,13920:0:0:0:0:
64,192,13844,128,0,13920:0:0:0:0:
448,192,13844,128,0,13920:0:0:0:0:
448,192,14072,128,0,14603:0:0:0:0:
64,192,14072,128,0,14603:0:0:0:0:
320,192,14072,128,0,14148:0:0:0:0:
192,192,14072,128,0,14452:0:0:0:0:
320,192,14224,128,0,14300:0:0:0:0:
320,192,14376,128,0,14603:0:0:0:0:
192,192,14527,128,0,14603:0:0:0:0:
448,192,14680,128,0,14755:0:0:0:0:
64,192,14680,128,0,14907:0:0:0:0:
192,192,14680,128,0,14831:0:0:0:0:
320,192,15135,128,0,15210:0:0:0:0:
192,192,15210,128,0,15363:0:0:0:0:
320,192,15286,128,0,15514:0:0:0:0:
64,192,15286,1,0,0:0:0:0:
192,192,15438,128,0,15666:0:0:0:0:
320,192,15590,128,0,15817:0:0:0:0:
448,192,15590,1,0,0:0:0:0:
192,192,15742,128,0,15893:0:0:0:0:
448,192,15893,128,0,16121:0:0:0:0:
320,192,15893,128,0,16045:0:0:0:0:
64,192,15893,128,0,15970:0:0:0:0:
64,192,16349,128,0,16425:0:0:0:0:
448,192,16425,128,0,16576:0:0:0:0:
64,192,16500,128,0,16728:0:0:0:0:
320,192,16500,1,0,0:0:0:0:
448,192,16653,128,0,16880:0:0:0:0:
64,192,16804,128,0,17032:0:0:0:0:
192,192,16804,1,0,0:0:0:0:
448,192,16956,128,0,17107:0:0:0:0:
320,192,16956,128,0,17032:0:0:0:0:
320,192,17107,128,0,17183:0:0:0:0:
192,192,17107,128,0,17260:0:0:0:0:
64,192,17107,128,0,17335:0:0:0:0:
64,192,17563,128,0,17790:0:0:0:0:
320,192,17715,128,0,17943:0:0:0:0:
448,192,17715,1,0,0:0:0:0:
192,192,17866,128,0,18094:0:0:0:0:
448,192,18018,128,0,18246:0:0:0:0:
64,192,18018,1,0,0:0:0:0:
320,192,18170,128,0,18322:0:0:0:0:
64,192,18322,128,0,18853:0:0:0:0:
448,192,18322,128,0,18701:0:0:0:0:
192,192,18322,128,0,18398:0:0:0:0:
320,192,18550,128,0,18929:0:0:0:0:
192,192,18777,128,0,19156:0:0:0:0:
64,192,18929,128,0,19156:0:0:0:0:
448,192,18929,128,0,19308:0:0:0:0:
320,192,19156,128,0,19308:0:0:0:0:
64,192,19233,1,0,0:0:0:0:
192,192,19233,1,0,0:0:0:0:
320,192,19384,1,0,0:0:0:0:
448,192,19384,1,0,0:0:0:0:
64,192,19384,128,0,19460:0:0:0:0:
192,192,19460,1,0,0:0:0:0:
320,192,19536,128,0,19612:0:0:0:0:
448,192,19536,128,0,19612:0:0:0:0:
64,192,19536,128,0,19612:0:0:0:0:
448,192,19688,128,0,19763:0:0:0:0:
192,192,19688,128,0,19763:0:0:0:0:
448,192,19840,128,0,19916:0:0:0:0:
320,192,19840,128,0,20067:0:0:0:0:
448,192,19991,128,0,20067:0:0:0:0:
64,192,19991,128,0,20143:0:0:0:0:
192,192,20143,1,0,0:0:0:0:
448,192,20143,128,0,20371:0:0:0:0:
64,192,20295,128,0,20371:0:0:0:0:
320,192,20295,128,0,20523:0:0:0:0:
64,192,20446,128,0,20523:0:0:0:0:
448,192,20446,1,0,0:0:0:0:
192,192,20446,128,0,20598:0:0:0:0:
320,192,20598,1,0,0:0:0:0:
64,192,20598,128,0,20750:0:0:0:0:
192,192,20750,1,0,0:0:0:0:
448,192,20750,128,0,21053:0:0:0:0:
320,192,20902,128,0,21053:0:0:0:0:
64,192,20902,1,0,0:0:0:0:
192,192,21053,1,0,0:0:0:0:
64,192,21053,128,0,21281:0:0:0:0:
320,192,21206,128,0,21357:0:0:0:0:
192,192,21281,128,0,21357:0:0:0:0:
64,192,21357,1,0,0:0:0:0:
448,192,21357,128,0,21509:0:0:0:0:
320,192,21509,128,0,21585:0:0:0:0:
448,192,21661,128,0,21813:0:0:0:0:
64,192,21661,128,0,21736:0:0:0:0:
192,192,21661,1,0,0:0:0:0:
64,192,21813,128,0,21863:0:0:0:0:
320,192,21813,128,0,21863:0:0:0:0:
192,192,21863,128,0,21964:0:0:0:0:
448,192,21964,128,0,22040:0:0:0:0:
320,192,21964,128,0,22192:0:0:0:0:
64,192,21964,128,0,22040:0:0:0:0:
448,192,22116,128,0,22192:0:0:0:0:
192,192,22116,1,0,0:0:0:0:
448,192,22268,1,0,0:0:0:0:
192,192,22268,128,0,22420:0:0:0:0:
320,192,22420,128,0,22571:0:0:0:0:
64,192,22420,128,0,22571:0:0:0:0:
192,192,22571,128,0,22647:0:0:0:0:
448,192,22571,128,0,22723:0:0:0:0:
320,192,22723,128,0,22799:0:0:0:0:
64,192,22723,128,0,22875:0:0:0:0:
192,192,22875,128,0,23026:0:0:0:0:
448,192,22875,128,0,22951:0:0:0:0:
320,192,22875,1,0,0:0:0:0:
320,192,23026,128,0,23179:0:0:0:0:
64,192,23026,128,0,23103:0:0:0:0:
64,192,23179,128,0,23406:0:0:0:0:
448,192,23179,128,0,23254:0:0:0:0:
192,192,23179,1,0,0:0:0:0:
320,192,23330,1,0,0:0:0:0:
320,192,23482,1,0,0:0:0:0:
64,192,23482,128,0,23710:0:0:0:0:
448,192,23482,128,0,23634:0:0:0:0:
192,192,23482,1,0,0:0:0:0:
192,192,23634,128,0,23710:0:0:0:0:
64,192,23786,128,0,24013:0:0:0:0:
320,192,23786,1,0,0:0:0:0:
448,192,23786,128,0,23937:0:0:0:0:
192,192,23937,128,0,24013:0:0:0:0:
64,192,24089,128,0,24316:0:0:0:0:
192,192,24089,1,0,0:0:0:0:
448,192,24089,128,0,24241:0:0:0:0:
320,192,24165,1,0,0:0:0:0:
192,192,24241,128,0,24316:0:0:0:0:
320,192,24316,1,0,0:0:0:0:
64,192,24393,1,0,0:0:0:0:
192,192,24393,1,0,0:0:0:0:
448,192,24393,128,0,24696:0:0:0:0:
320,192,24544,1,0,0:0:0:0:
192,192,24620,1,0,0:0:0:0:
320,192,24696,1,0,0:0:0:0:
64,192,24696,128,0,25000:0:0:0:0:
192,192,24848,128,0,24924:0:0:0:0:
320,192,24924,128,0,25000:0:0:0:0:
192,192,25000,1,0,0:0:0:0:
448,192,25000,128,0,25227:0:0:0:0:
192,192,25152,128,0,25303:0:0:0:0:
64,192,25152,1,0,0:0:0:0:
320,192,25303,1,0,0:0:0:0:
448,192,25303,128,0,25380:0:0:0:0:
64,192,25303,128,0,25531:0:0:0:0:
192,192,25380,128,0,25455:0:0:0:0:
320,192,25455,128,0,25531:0:0:0:0:
448,192,25455,128,0,25531:0:0:0:0:
192,192,25531,128,0,25606:0:0:0:0:
320,192,25606,128,0,25910:0:0:0:0:
64,192,25606,128,0,25759:0:0:0:0:
448,192,25606,128,0,25683:0:0:0:0:
448,192,25910,128,0,26138:0:0:0:0:
192,192,25910,1,0,0:0:0:0:
64,192,25910,1,0,0:0:0:0:
320,192,26062,128,0,26214:0:0:0:0:
192,192,26138,128,0,26214:0:0:0:0:
448,192,26214,1,0,0:0:0:0:
64,192,26214,128,0,26517:0:0:0:0:
448,192,26366,128,0,26442:0:0:0:0:
320,192,26366,128,0,26442:0:0:0:0:
192,192,26517,1,0,0:0:0:0:
448,192,26517,128,0,26745:0:0:0:0:
192,192,26670,128,0,26745:0:0:0:0:
320,192,26670,1,0,0:0:0:0:
64,192,26745,1,0,0:0:0:0:
448,192,26821,1,0,0:0:0:0:
192,192,26821,1,0,0:0:0:0:
320,192,26821,128,0,27049:0:0:0:0:
192,192,26973,128,0,27125:0:0:0:0:
64,192,26973,1,0,0:0:0:0:
320,192,27125,128,0,27200:0:0:0:0:
448,192,27125,1,0,0:0:0:0:
64,192,27125,1,0,0:0:0:0:
192,192,27200,128,0,27352:0:0:0:0:
320,192,27276,128,0,27352:0:0:0:0:
448,192,27276,128,0,27428:0:0:0:0:
64,192,27428,128,0,27656:0:0:0:0:
192,192,27428,1,0,0:0:0:0:
320,192,27580,128,0,27732:0:0:0:0:
448,192,27580,1,0,0:0:0:0:
448,192,27732,128,0,27960:0:0:0:0:
192,192,27732,1,0,0:0:0:0:
64,192,27732,1,0,0:0:0:0:
192,192,27883,128,0,28035:0:0:0:0:
64,192,28035,128,0,28111:0:0:0:0:
320,192,28035,1,0,0:0:0:0:
192,192,28111,128,0,28187:0:0:0:0:
64,192,28187,128,0,28263:0:0:0:0:
320,192,28263,1,0,0:0:0:0:
448,192,28263,1,0,0:0:0:0:
64,192,28339,128,0,28415:0:0:0:0:
192,192,28339,1,0,0:0:0:0:
320,192,28415,128,0,28490:0:0:0:0:
64,192,28490,128,0,28643:0:0:0:0:
448,192,28490,1,0,0:0:0:0:
448,192,28643,128,0,28718:0:0:0:0:
192,192,28643,128,0,28718:0:0:0:0:
320,192,28718,1,0,0:0:0:0:
448,192,28794,1,0,0:0:0:0:
64,192,28794,1,0,0:0:0:0:
320,192,28870,128,0,28946:0:0:0:0:
192,192,28870,128,0,28946:0:0:0:0:
64,192,28946,1,0,0:0:0:0:
448,192,28946,1,0,0:0:0:0:
320,192,28996,1,0,0:0:0:0:
192,192,29047,1,0,0:0:0:0:
64,192,29097,1,0,0:0:0:0:
320,192,29148,1,0,0:0:0:0:
448,192,29148,1,0,0:0:0:0:
192,192,29250,128,0,29477:0:0:0:0:
64,192,29250,128,0,29325:0:0:0:0:
448,192,29250,128,0,29477:0:0:0:0:
64,192,29401,128,0,29477:0:0:0:0:
320,192,29401,128,0,29477:0:0:0:0:
64,192,29553,128,0,29629:0:0:0:0:
192,192,29553,128,0,29780:0:0:0:0:
320,192,29553,128,0,29629:0:0:0:0:
448,192,29553,128,0,29629:0:0:0:0:
64,192,29705,128,0,29780:0:0:0:0:
448,192,29705,128,0,29856:0:0:0:0:
320,192,29705,1,0,0:0:0:0:
64,192,29856,128,0,30084:0:0:0:0:
192,192,29856,1,0,0:0:0:0:
320,192,29856,128,0,29933:0:0:0:0:
448,192,30008,128,0,30084:0:0:0:0:
192,192,30008,128,0,30236:0:0:0:0:
320,192,30008,1,0,0:0:0:0:
448,192,30160,128,0,30236:0:0:0:0:
320,192,30160,128,0,30312:0:0:0:0:
64,192,30236,128,0,30312:0:0:0:0:
192,192,30312,1,0,0:0:0:0:
448,192,30312,128,0,30463:0:0:0:0:
64,192,30463,128,0,30691:0:0:0:0:
320,192,30463,128,0,30540:0:0:0:0:
192,192,30616,128,0,30767:0:0:0:0:
448,192,30616,128,0,30691:0:0:0:0:
320,192,30616,1,0,0:0:0:0:
448,192,30767,128,0,30995:0:0:0:0:
64,192,30767,128,0,30919:0:0:0:0:
320,192,30767,128,0,30843:0:0:0:0:
192,192,30919,128,0,31070:0:0:0:0:
320,192,30995,128,0,31070:0:0:0:0:
64,192,31070,128,0,31223:0:0:0:0:
448,192,31070,128,0,31146:0:0:0:0:
320,192,31223,128,0,31298:0:0:0:0:
192,192,31223,128,0,31374:0:0:0:0:
448,192,31223,128,0,31298:0:0:0:0:
64,192,31374,128,0,31526:0:0:0:0:
448,192,31374,128,0,31450:0:0:0:0:
320,192,31374,1,0,0:0:0:0:
448,192,31526,128,0,31576:0:0:0:0:
192,192,31526,128,0,31576:0:0:0:0:
320,192,31576,128,0,31678:0:0:0:0:
64,192,31678,128,0,31753:0:0:0:0:
192,192,31678,128,0,31906:0:0:0:0:
448,192,31678,128,0,31753:0:0:0:0:
64,192,31830,128,0,31906:0:0:0:0:
320,192,31830,1,0,0:0:0:0:
320,192,31981,128,0,32133:0:0:0:0:
448,192,31981,1,0,0:0:0:0:
64,192,31981,128,0,32057:0:0:0:0:
192,192,32133,128,0,32285:0:0:0:0:
448,192,32133,128,0,32285:0:0:0:0:
64,192,32133,1,0,0:0:0:0:
320,192,32285,128,0,32360:0:0:0:0:
64,192,32285,128,0,32436:0:0:0:0:
192,192,32436,128,0,32513:0:0:0:0:
448,192,32436,128,0,32588:0:0:0:0:
320,192,32588,128,0,32740:0:0:0:0:
64,192,32588,1,0,0:0:0:0:
192,192,32588,128,0,32664:0:0:0:0:
448,192,32664,128,0,32740:0:0:0:0:
192,192,32740,128,0,32892:0:0:0:0:
64,192,32740,128,0,32816:0:0:0:0:
448,192,32892,128,0,33120:0:0:0:0:
320,192,32892,1,0,0:0:0:0:
64,192,32892,128,0,33043:0:0:0:0:
192,192,33043,1,0,0:0:0:0:
192,192,33196,1,0,0:0:0:0:
448,192,33196,128,0,33423:0:0:0:0:
320,192,33196,1,0,0:0:0:0:
64,192,33196,128,0,33347:0:0:0:0:
320,192,33347,128,0,33423:0:0:0:0:
448,192,33499,128,0,33726:0:0:0:0:
192,192,33499,1,0,0:0:0:0:
64,192,33499,128,0,33651:0:0:0:0:
320,192,33499,1,0,0:0:0:0:
320,192,33651,128,0,33726:0:0:0:0:
448,192,33803,128,0,34030:0:0:0:0:
64,192,33803,128,0,33954:0:0:0:0:
192,192,33803,1,0,0:0:0:0:
320,192,33853,1,0,0:0:0:0:
192,192,33903,1,0,0:0:0:0:
320,192,33954,128,0,34005:0:0:0:0:
192,192,34005,1,0,0:0:0:0:
64,192,34005,1,0,0:0:0:0:
64,192,34106,128,0,34410:0:0:0:0:
448,192,34106,128,0,34258:0:0:0:0:
320,192,34106,128,0,34182:0:0:0:0:
192,192,34258,1,0,0:0:0:0:
320,192,34333,1,0,0:0:0:0:
448,192,34410,128,0,34486:0:0:0:0:
192,192,34410,1,0,0:0:0:0:
64,192,34486,128,0,34637:0:0:0:0:
320,192,34486,128,0,34561:0:0:0:0:
192,192,34561,128,0,34637:0:0:0:0:
448,192,34561,1,0,0:0:0:0:
320,192,34637,128,0,34713:0:0:0:0:
64,192,34713,128,0,34941:0:0:0:0:
448,192,34713,128,0,34865:0:0:0:0:
320,192,34865,128,0,35016:0:0:0:0:
192,192,34865,1,0,0:0:0:0:
192,192,35016,1,0,0:0:0:0:
64,192,35016,128,0,35093:0:0:0:0:
448,192,35016,128,0,35244:0:0:0:0:
320,192,35093,128,0,35169:0:0:0:0:
192,192,35169,128,0,35244:0:0:0:0:
64,192,35169,128,0,35244:0:0:0:0:
320,192,35244,128,0,35320:0:0:0:0:
448,192,35320,128,0,35472:0:0:0:0:
64,192,35320,128,0,35396:0:0:0:0:
192,192,35320,128,0,35548:0:0:0:0:
64,192,35472,1,0,0:0:0:0:
320,192,35472,128,0,35624:0:0:0:0:
64,192,35624,128,0,35851:0:0:0:0:
192,192,35624,128,0,35700:0:0:0:0:
448,192,35624,128,0,35776:0:0:0:0:
192,192,35776,128,0,35851:0:0:0:0:
320,192,35851,128,0,35927:0:0:0:0:
64,192,35927,1,0,0:0:0:0:
448,192,35927,128,0,36231:0:0:0:0:
192,192,35927,1,0,0:0:0:0:
64,192,36079,128,0,36155:0:0:0:0:
192,192,36079,128,0,36306:0:0:0:0:
64,192,36231,128,0,36459:0:0:0:0:
320,192,36231,128,0,36306:0:0:0:0:
192,192,36383,1,0,0:0:0:0:
448,192,36383,128,0,36459:0:0:0:0:
320,192,36459,128,0,36534:0:0:0:0:
64,192,36534,1,0,0:0:0:0:
192,192,36534,128,0,36762:0:0:0:0:
448,192,36534,1,0,0:0:0:0:
320,192,36686,128,0,36838:0:0:0:0:
448,192,36686,1,0,0:0:0:0:
64,192,36686,1,0,0:0:0:0:
192,192,36838,128,0,36914:0:0:0:0:
64,192,36838,1,0,0:0:0:0:
448,192,36838,128,0,36914:0:0:0:0:
320,192,36914,128,0,37066:0:0:0:0:
192,192,36990,128,0,37066:0:0:0:0:
64,192,36990,128,0,37142:0:0:0:0:
448,192,36990,1,0,0:0:0:0:
448,192,37142,128,0,37370:0:0:0:0:
192,192,37142,1,0,0:0:0:0:
64,192,37217,1,0,0:0:0:0:
320,192,37293,1,0,0:0:0:0:
192,192,37293,128,0,37445:0:0:0:0:
320,192,37445,1,0,0:0:0:0:
64,192,37445,128,0,37749:0:0:0:0:
448,192,37521,1,0,0:0:0:0:
192,192,37521,128,0,37673:0:0:0:0:
320,192,37596,128,0,37749:0:0:0:0:
448,192,37749,128,0,37824:0:0:0:0:
192,192,37749,1,0,0:0:0:0:
320,192,37824,128,0,37900:0:0:0:0:
448,192,37900,128,0,37976:0:0:0:0:
64,192,37900,1,0,0:0:0:0:
448,192,38052,128,0,38128:0:0:0:0:
320,192,38052,1,0,0:0:0:0:
192,192,38128,128,0,38204:0:0:0:0:
64,192,38128,1,0,0:0:0:0:
448,192,38204,128,0,38356:0:0:0:0:
320,192,38204,1,0,0:0:0:0:
192,192,38280,128,0,38356:0:0:0:0:
320,192,38356,128,0,38432:0:0:0:0:
64,192,38356,128,0,38507:0:0:0:0:
448,192,38507,1,0,0:0:0:0:
192,192,38507,1,0,0:0:0:0:
320,192,38583,128,0,38660:0:0:0:0:
64,192,38583,128,0,38660:0:0:0:0:
192,192,38660,1,0,0:0:0:0:
448,192,38660,128,0,38811:0:0:0:0:
64,192,38735,128,0,38887:0:0:0:0:
320,192,38811,128,0,38963:0:0:0:0:
448,192,38963,1,0,0:0:0:0:
64,192,38963,1,0,0:0:0:0:
192,192,38963,128,0,39266:0:0:0:0:
320,192,39115,1,0,0:0:0:0:
64,192,39190,128,0,39494:0:0:0:0:
320,192,39266,1,0,0:0:0:0:
448,192,39266,128,0,39317:0:0:0:0:
192,192,39317,128,0,39367:0:0:0:0:
448,192,39367,128,0,39418:0:0:0:0:
320,192,39418,128,0,39646:0:0:0:0:
448,192,39570,128,0,39646:0:0:0:0:
64,192,39570,1,0,0:0:0:0:
320,192,39722,128,0,39873:0:0:0:0:
192,192,39797,128,0,40025:0:0:0:0:
448,192,39873,128,0,39950:0:0:0:0:
64,192,39873,1,0,0:0:0:0:
320,192,39924,1,0,0:0:0:0:
64,192,39975,1,0,0:0:0:0:
320,192,40025,128,0,40177:0:0:0:0:
448,192,40025,1,0,0:0:0:0:
192,192,40126,1,0,0:0:0:0:
64,192,40177,1,0,0:0:0:0:
448,192,40177,128,0,40405:0:0:0:0:
320,192,40329,1,0,0:0:0:0:
192,192,40329,128,0,40480:0:0:0:0:
64,192,40480,128,0,40708:0:0:0:0:
320,192,40480,1,0,0:0:0:0:
448,192,40480,128,0,40708:0:0:0:0:
320,192,40633,128,0,40708:0:0:0:0:
192,192,40708,128,0,40784:0:0:0:0:
64,192,40784,128,0,40936:0:0:0:0:
320,192,40784,1,0,0:0:0:0:
448,192,40784,128,0,41037:0:0:0:0:
192,192,40936,128,0,41087:0:0:0:0:
320,192,40986,1,0,0:0:0:0:
64,192,41037,1,0,0:0:0:0:
448,192,41087,1,0,0:0:0:0:
320,192,41087,128,0,41315:0:0:0:0:
64,192,41240,128,0,41391:0:0:0:0:
192,192,41240,1,0,0:0:0:0:
192,192,41391,1,0,0:0:0:0:
320,192,41391,1,0,0:0:0:0:
448,192,41391,128,0,41619:0:0:0:0:
320,192,41543,1,0,0:0:0:0:
192,192,41619,128,0,41846:0:0:0:0:
64,192,41695,1,0,0:0:0:0:
448,192,41695,128,0,41770:0:0:0:0:
320,192,41770,128,0,41846:0:0:0:0:
448,192,41846,128,0,41923:0:0:0:0:
64,192,41923,128,0,41998:0:0:0:0:
192,192,41998,128,0,42074:0:0:0:0:
320,192,41998,128,0,42150:0:0:0:0:
448,192,41998,128,0,42226:0:0:0:0:
192,192,42150,128,0,42302:0:0:0:0:
64,192,42302,128,0,42453:0:0:0:0:
448,192,42302,1,0,0:0:0:0:
320,192,42302,128,0,42530:0:0:0:0:
192,192,42353,1,0,0:0:0:0:
448,192,42403,1,0,0:0:0:0:
64,192,42530,128,0,42757:0:0:0:0:
192,192,42530,1,0,0:0:0:0:
448,192,42605,1,0,0:0:0:0:
320,192,42757,128,0,42909:0:0:0:0:
192,192,42757,1,0,0:0:0:0:
448,192,42909,128,0,42985:0:0:0:0:
192,192,42909,128,0,43060:0:0:0:0:
64,192,42909,128,0,43136:0:0:0:0:
320,192,43060,1,0,0:0:0:0:
448,192,43136,128,0,43364:0:0:0:0:
320,192,43213,1,0,0:0:0:0:
192,192,43263,1,0,0:0:0:0:
64,192,43313,1,0,0:0:0:0:
320,192,43364,128,0,43440:0:0:0:0:
320,192,43516,1,0,0:0:0:0:
448,192,43516,128,0,43668:0:0:0:0:
64,192,43516,128,0,43743:0:0:0:0:
192,192,43592,128,0,43668:0:0:0:0:
320,192,43743,128,0,43820:0:0:0:0:
64,192,43820,1,0,0:0:0:0:
448,192,43820,128,0,44047:0:0:0:0:
192,192,43820,128,0,43971:0:0:0:0:
64,192,43971,128,0,44123:0:0:0:0:
320,192,43971,128,0,44047:0:0:0:0:
448,192,44123,128,0,44224:0:0:0:0:
320,192,44173,128,0,44275:0:0:0:0:
192,192,44224,128,0,44275:0:0:0:0:
64,192,44275,1,0,0:0:0:0:
448,192,44275,1,0,0:0:0:0:
448,192,44426,128,0,44730:0:0:0:0:
192,192,44426,128,0,44578:0:0:0:0:
64,192,44426,1,0,0:0:0:0:
64,192,44578,128,0,44730:0:0:0:0:
320,192,44578,128,0,44730:0:0:0:0:
192,192,44730,128,0,44831:0:0:0:0:
320,192,44781,128,0,44882:0:0:0:0:
448,192,44831,128,0,44933:0:0:0:0:
64,192,44882,128,0,44983:0:0:0:0:
192,192,44933,128,0,45033:0:0:0:0:
320,192,44983,128,0,45033:0:0:0:0:
448,192,45033,1,0,0:0:0:0:
64,192,45033,128,0,45261:0:0:0:0:
192,192,45186,128,0,45489:0:0:0:0:
320,192,45337,128,0,45565:0:0:0:0:
448,192,45337,1,0,0:0:0:0:
64,192,45337,128,0,45565:0:0:0:0:
448,192,45489,128,0,45641:0:0:0:0:
192,192,45641,128,0,45793:0:0:0:0:
64,192,45641,128,0,45869:0:0:0:0:
320,192,45641,128,0,45716:0:0:0:0:
320,192,45843,1,0,0:0:0:0:
448,192,45893,1,0,0:0:0:0:
192,192,45944,128,0,46096:0:0:0:0:
64,192,45944,1,0,0:0:0:0:
320,192,46096,128,0,46172:0:0:0:0:
64,192,46172,128,0,46248:0:0:0:0:
192,192,46248,128,0,46323:0:0:0:0:
448,192,46248,128,0,47462:0:0:0:0:
320,192,46400,128,0,46476:0:0:0:0:
192,192,46551,128,0,46627:0:0:0:0:
64,192,46551,128,0,46627:0:0:0:0:
64,192,46703,128,0,46779:0:0:0:0:
320,192,46855,128,0,47159:0:0:0:0:
192,192,46855,128,0,46931:0:0:0:0:
192,192,47083,128,0,47310:0:0:0:0:
64,192,47159,1,0,0:0:0:0:
64,192,47310,128,0,47386:0:0:0:0:
320,192,47310,1,0,0:0:0:0:
192,192,47462,128,0,47538:0:0:0:0:
64,192,47462,128,0,47538:0:0:0:0:
320,192,47462,128,0,47690:0:0:0:0:
192,192,47614,128,0,47690:0:0:0:0:
448,192,47614,128,0,47690:0:0:0:0:
448,192,47766,128,0,47841:0:0:0:0:
320,192,47766,128,0,47841:0:0:0:0:
64,192,47766,128,0,47993:0:0:0:0:
192,192,47917,128,0,47993:0:0:0:0:
320,192,48069,128,0,48145:0:0:0:0:
448,192,48069,128,0,48145:0:0:0:0:
192,192,48069,128,0,48221:0:0:0:0:
64,192,48069,128,0,48221:0:0:0:0:
320,192,48221,128,0,48296:0:0:0:0:
448,192,48221,128,0,48296:0:0:0:0:
192,192,48296,128,0,48373:0:0:0:0:
64,192,48296,128,0,48373:0:0:0:0:
448,192,48373,128,0,48676:0:0:0:0:
320,192,48373,128,0,48449:0:0:0:0:
320,192,48676,128,0,48752:0:0:0:0:
192,192,48676,128,0,48828:0:0:0:0:
64,192,48676,128,0,48904:0:0:0:0:
448,192,48828,128,0,49056:0:0:0:0:
320,192,48828,128,0,48904:0:0:0:0:
64,192,48980,1,0,0:0:0:0:
320,192,48980,128,0,49207:0:0:0:0:
192,192,48980,128,0,49056:0:0:0:0:
192,192,49132,1,0,0:0:0:0:
64,192,49132,128,0,49283:0:0:0:0:
448,192,49132,128,0,49207:0:0:0:0:
448,192,49283,128,0,49511:0:0:0:0:
192,192,49283,128,0,49359:0:0:0:0:
320,192,49435,1,0,0:0:0:0:
64,192,49435,128,0,49586:0:0:0:0:
192,192,49511,128,0,49739:0:0:0:0:
448,192,49586,1,0,0:0:0:0:
320,192,49586,128,0,49663:0:0:0:0:
64,192,49739,128,0,49890:0:0:0:0:
448,192,49739,128,0,49814:0:0:0:0:
320,192,49890,128,0,50270:0:0:0:0:
448,192,49890,128,0,49966:0:0:0:0:
192,192,49966,128,0,50042:0:0:0:0:
64,192,50042,128,0,50118:0:0:0:0:
448,192,50042,128,0,50118:0:0:0:0:
192,192,50194,128,0,50573:0:0:0:0:
64,192,50194,128,0,50270:0:0:0:0:
448,192,50270,128,0,50422:0:0:0:0:
320,192,50346,128,0,50573:0:0:0:0:
64,192,50346,128,0,50422:0:0:0:0:
64,192,50497,128,0,50877:0:0:0:0:
448,192,50497,128,0,50573:0:0:0:0:
448,192,50650,128,0,50725:0:0:0:0:
320,192,50650,128,0,50801:0:0:0:0:
192,192,50650,128,0,50725:0:0:0:0:
448,192,50801,128,0,51180:0:0:0:0:
192,192,50801,128,0,50877:0:0:0:0:
320,192,50877,128,0,51029:0:0:0:0:
192,192,50953,128,0,51029:0:0:0:0:
64,192,50953,128,0,51029:0:0:0:0:
64,192,51104,128,0,51484:0:0:0:0:
320,192,51104,128,0,51180:0:0:0:0:
448,192,51256,128,0,51332:0:0:0:0:
320,192,51256,128,0,51484:0:0:0:0:
192,192,51256,128,0,51332:0:0:0:0:
192,192,51408,128,0,51484:0:0:0:0:
448,192,51408,128,0,51636:0:0:0:0:
320,192,51560,128,0,51787:0:0:0:0:
64,192,51560,128,0,51712:0:0:0:0:
448,192,51712,128,0,51787:0:0:0:0:
192,192,51712,128,0,51940:0:0:0:0:
320,192,51863,128,0,52015:0:0:0:0:
64,192,51863,128,0,51940:0:0:0:0:
192,192,52015,128,0,52091:0:0:0:0:
448,192,52015,128,0,52167:0:0:0:0:
320,192,52091,128,0,52167:0:0:0:0:
64,192,52091,128,0,52243:0:0:0:0:
192,192,52167,128,0,52243:0:0:0:0:
448,192,52243,128,0,52319:0:0:0:0:
320,192,52243,128,0,52319:0:0:0:0:
64,192,52319,128,0,52698:0:0:0:0:
192,192,52319,128,0,52395:0:0:0:0:
448,192,52395,128,0,52470:0:0:0:0:
192,192,52470,128,0,52546:0:0:0:0:
320,192,52470,128,0,52546:0:0:0:0:
192,192,52623,128,0,53002:0:0:0:0:
448,192,52623,128,0,52850:0:0:0:0:
320,192,52623,128,0,52698:0:0:0:0:
64,192,52774,128,0,52850:0:0:0:0:
320,192,52774,128,0,52850:0:0:0:0:
448,192,52926,128,0,53002:0:0:0:0:
64,192,52926,128,0,53153:0:0:0:0:
320,192,52926,128,0,53305:0:0:0:0:
448,192,53077,128,0,53153:0:0:0:0:
192,192,53077,128,0,53153:0:0:0:0:
448,192,53230,128,0,53533:0:0:0:0:
192,192,53230,128,0,53305:0:0:0:0:
64,192,53230,128,0,53305:0:0:0:0:
64,192,53381,128,0,53457:0:0:0:0:
320,192,53381,128,0,53457:0:0:0:0:
192,192,53533,1,0,0:0:0:0:
64,192,53533,1,0,0:0:0:0:
64,192,53685,128,0,53988:0:0:0:0:
320,192,53685,1,0,0:0:0:0:
192,192,53760,1,0,0:0:0:0:
448,192,53836,128,0,54064:0:0:0:0:
320,192,53836,1,0,0:0:0:0:
192,192,53988,128,0,54140:0:0:0:0:
64,192,54064,128,0,54216:0:0:0:0:
448,192,54140,128,0,54368:0:0:0:0:
320,192,54140,128,0,54292:0:0:0:0:
64,192,54292,128,0,54520:0:0:0:0:
192,192,54292,1,0,0:0:0:0:
448,192,54443,128,0,54671:0:0:0:0:
320,192,54443,128,0,54595:0:0:0:0:
64,192,54595,128,0,54747:0:0:0:0:
192,192,54595,128,0,54671:0:0:0:0:
320,192,54747,1,0,0:0:0:0:
448,192,54747,1,0,0:0:0:0:
320,192,54899,128,0,55203:0:0:0:0:
192,192,54899,1,0,0:0:0:0:
64,192,54899,1,0,0:0:0:0:
192,192,55050,128,0,55278:0:0:0:0:
64,192,55050,128,0,55203:0:0:0:0:
448,192,55203,128,0,55354:0:0:0:0:
320,192,55278,128,0,55430:0:0:0:0:
192,192,55354,128,0,55582:0:0:0:0:
64,192,55354,1,0,0:0:0:0:
320,192,55506,128,0,55733:0:0:0:0:
448,192,55506,128,0,55582:0:0:0:0:
64,192,55582,1,0,0:0:0:0:
192,192,55658,128,0,55886:0:0:0:0:
448,192,55658,1,0,0:0:0:0:
64,192,55733,1,0,0:0:0:0:
320,192,55810,128,0,55961:0:0:0:0:
448,192,55810,128,0,55961:0:0:0:0:
192,192,55961,1,0,0:0:0:0:
64,192,55961,1,0,0:0:0:0:
64,192,56113,128,0,56416:0:0:0:0:
192,192,56113,1,0,0:0:0:0:
320,192,56113,1,0,0:0:0:0:
192,192,56265,128,0,56416:0:0:0:0:
448,192,56265,128,0,56340:0:0:0:0:
320,192,56265,128,0,56340:0:0:0:0:
320,192,56416,1,0,0:0:0:0:
448,192,56416,1,0,0:0:0:0:
192,192,56568,1,0,0:0:0:0:
320,192,56568,1,0,0:0:0:0:
448,192,56568,128,0,56872:0:0:0:0:
64,192,56720,1,0,0:0:0:0:
192,192,56720,1,0,0:0:0:0:
320,192,56720,128,0,56872:0:0:0:0:
64,192,56872,128,0,56948:0:0:0:0:
192,192,56872,128,0,56948:0:0:0:0:
320,192,56948,128,0,57023:0:0:0:0:
448,192,56948,128,0,57100:0:0:0:0:
192,192,57023,128,0,57100:0:0:0:0:
64,192,57023,128,0,57100:0:0:0:0:
320,192,57176,128,0,57251:0:0:0:0:
448,192,57176,128,0,57251:0:0:0:0:
64,192,57176,128,0,57479:0:0:0:0:
320,192,57403,1,0,0:0:0:0:
448,192,57403,1,0,0:0:0:0:
192,192,57403,128,0,57706:0:0:0:0:
448,192,57631,1,0,0:0:0:0:
64,192,57631,1,0,0:0:0:0:
320,192,57631,128,0,57858:0:0:0:0:
448,192,57783,128,0,57934:0:0:0:0:
64,192,57783,128,0,58010:0:0:0:0:
192,192,57858,128,0,58086:0:0:0:0:
320,192,57934,128,0,58010:0:0:0:0:
448,192,58010,128,0,58162:0:0:0:0:
64,192,58086,1,0,0:0:0:0:
320,192,58086,128,0,58238:0:0:0:0:
192,192,58162,128,0,58313:0:0:0:0:
64,192,58238,128,0,58390:0:0:0:0:
320,192,58313,128,0,58390:0:0:0:0:
192,192,58390,1,0,0:0:0:0:
448,192,58390,128,0,58693:0:0:0:0:
320,192,58541,128,0,58693:0:0:0:0:
192,192,58693,128,0,58769:0:0:0:0:
64,192,58693,128,0,58921:0:0:0:0:
320,192,58845,128,0,58921:0:0:0:0:
448,192,58845,128,0,58921:0:0:0:0:
320,192,58996,128,0,59224:0:0:0:0:
64,192,58996,128,0,59073:0:0:0:0:
192,192,58996,128,0,59149:0:0:0:0:
448,192,59149,128,0,59300:0:0:0:0:
64,192,59224,128,0,59376:0:0:0:0:
192,192,59300,128,0,59452:0:0:0:0:
320,192,59300,128,0,59528:0:0:0:0:
448,192,59376,128,0,59528:0:0:0:0:
64,192,59452,128,0,59603:0:0:0:0:
448,192,59603,128,0,59831:0:0:0:0:
192,192,59603,128,0,59680:0:0:0:0:
192,192,59756,128,0,59983:0:0:0:0:
320,192,59756,1,0,0:0:0:0:
64,192,59907,128,0,60135:0:0:0:0:
320,192,59907,128,0,60135:0:0:0:0:
448,192,59907,128,0,59983:0:0:0:0:
192,192,60059,128,0,60135:0:0:0:0:
448,192,60059,1,0,0:0:0:0:
64,192,60211,128,0,60439:0:0:0:0:
320,192,60211,128,0,60286:0:0:0:0:
192,192,60211,128,0,60439:0:0:0:0:
448,192,60211,1,0,0:0:0:0:
320,192,60363,128,0,60742:0:0:0:0:
448,192,60363,128,0,60590:0:0:0:0:
192,192,60514,128,0,60818:0:0:0:0:
64,192,60514,1,0,0:0:0:0:
448,192,60666,128,0,60818:0:0:0:0:
64,192,60818,1,0,0:0:0:0:
320,192,60818,128,0,61046:0:0:0:0:
192,192,60894,128,0,61046:0:0:0:0:
64,192,60970,128,0,61046:0:0:0:0:
64,192,61122,128,0,61197:0:0:0:0:
192,192,61122,128,0,61273:0:0:0:0:
320,192,61122,128,0,61349:0:0:0:0:
448,192,61122,128,0,61425:0:0:0:0:
192,192,61576,128,0,61729:0:0:0:0:
64,192,61576,128,0,61729:0:0:0:0:
320,192,61576,128,0,61804:0:0:0:0:
448,192,61576,128,0,61804:0:0:0:0:
64,192,61804,128,0,61880:0:0:0:0:
192,192,61804,128,0,61880:0:0:0:0:
448,192,61880,128,0,61956:0:0:0:0:
320,192,61880,128,0,61956:0:0:0:0:
64,192,62032,128,0,62260:0:0:0:0:
192,192,62032,128,0,62108:0:0:0:0:
448,192,62032,128,0,62108:0:0:0:0:
320,192,62184,128,0,62260:0:0:0:0:
192,192,62184,128,0,62260:0:0:0:0:
64,192,62336,128,0,62412:0:0:0:0:
448,192,62336,128,0,62563:0:0:0:0:
320,192,62336,128,0,62487:0:0:0:0:
192,192,62487,128,0,62715:0:0:0:0:
64,192,62640,128,0,62867:0:0:0:0:
320,192,62640,128,0,62715:0:0:0:0:
448,192,62640,128,0,62715:0:0:0:0:
320,192,62791,128,0,62867:0:0:0:0:
448,192,62943,128,0,63019:0:0:0:0:
192,192,62943,128,0,63094:0:0:0:0:
64,192,62943,128,0,63170:0:0:0:0:
320,192,63246,128,0,63474:0:0:0:0:
448,192,63246,128,0,63322:0:0:0:0:
64,192,63246,128,0,63474:0:0:0:0:
448,192,63398,128,0,63777:0:0:0:0:
192,192,63398,128,0,63626:0:0:0:0:
320,192,63550,128,0,63777:0:0:0:0:
64,192,63550,128,0,63626:0:0:0:0:
192,192,63702,128,0,63777:0:0:0:0:
64,192,63702,128,0,63930:0:0:0:0:
192,192,63853,128,0,64081:0:0:0:0:
448,192,63853,128,0,64081:0:0:0:0:
320,192,63853,128,0,63930:0:0:0:0:
64,192,64005,128,0,64081:0:0:0:0:
320,192,64005,128,0,64233:0:0:0:0:
448,192,64157,128,0,64233:0:0:0:0:
192,192,64157,128,0,64233:0:0:0:0:
64,192,64157,128,0,64385:0:0:0:0:
192,192,64309,128,0,64385:0:0:0:0:
320,192,64309,128,0,64385:0:0:0:0:
448,192,64309,128,0,64460:0:0:0:0:
320,192,64460,1,0,0:0:0:0:
192,192,64460,1,0,0:0:0:0:
64,192,64460,1,0,0:0:0:0:
64,192,64612,128,0,64688:0:0:0:0:
448,192,64688,128,0,64764:0:0:0:0:
320,192,64764,128,0,64840:0:0:0:0:
64,192,64764,128,0,64916:0:0:0:0:
448,192,64916,128,0,64992:0:0:0:0:
320,192,64916,128,0,64992:0:0:0:0:
192,192,64992,128,0,65067:0:0:0:0:
64,192,64992,128,0,65067:0:0:0:0:
320,192,65067,128,0,65143:0:0:0:0:
448,192,65067,128,0,65143:0:0:0:0:
192,192,65220,128,0,65295:0:0:0:0:
448,192,65220,128,0,65447:0:0:0:0:
320,192,65371,128,0,65599:0:0:0:0:
64,192,65371,128,0,65447:0:0:0:0:
192,192,65523,128,0,65750:0:0:0:0:
448,192,65523,128,0,65599:0:0:0:0:
64,192,65675,128,0,65750:0:0:0:0:
320,192,65675,128,0,65903:0:0:0:0:
448,192,65675,128,0,65750:0:0:0:0:
448,192,65826,128,0,65903:0:0:0:0:
192,192,65826,128,0,65903:0:0:0:0:
64,192,65826,128,0,65903:0:0:0:0:
448,192,65978,128,0,66054:0:0:0:0:
192,192,65978,128,0,66206:0:0:0:0:
64,192,65978,128,0,66054:0:0:0:0:
64,192,66130,128,0,66206:0:0:0:0:
320,192,66130,128,0,66206:0:0:0:0:
448,192,66130,128,0,66206:0:0:0:0:
320,192,66282,128,0,66357:0:0:0:0:
64,192,66282,128,0,66585:0:0:0:0:
448,192,66282,128,0,66357:0:0:0:0:
192,192,66585,128,0,66661:0:0:0:0:
320,192,66661,128,0,66737:0:0:0:0:
448,192,66661,128,0,66889:0:0:0:0:
192,192,66737,128,0,66965:0:0:0:0:
64,192,66737,128,0,66813:0:0:0:0:
320,192,66889,1,0,0:0:0:0:
192,192,67040,128,0,67193:0:0:0:0:
64,192,67040,128,0,67193:0:0:0:0:
320,192,67193,128,0,67496:0:0:0:0:
448,192,67193,1,0,0:0:0:0:
448,192,67344,128,0,67496:0:0:0:0:
64,192,67496,128,0,67572:0:0:0:0:
192,192,67572,128,0,67648:0:0:0:0:
64,192,67648,128,0,67951:0:0:0:0:
320,192,67648,128,0,67800:0:0:0:0:
192,192,67800,128,0,67951:0:0:0:0:
448,192,67800,128,0,68027:0:0:0:0:
320,192,67951,128,0,68103:0:0:0:0:
192,192,68103,128,0,68255:0:0:0:0:
64,192,68103,128,0,68356:0:0:0:0:
448,192,68103,1,0,0:0:0:0:
192,192,68306,128,0,68457:0:0:0:0:
64,192,68406,128,0,68609:0:0:0:0:
448,192,68406,1,0,0:0:0:0:
192,192,68508,128,0,68609:0:0:0:0:
320,192,68710,128,0,68862:0:0:0:0:
448,192,68710,128,0,68963:0:0:0:0:
64,192,68710,1,0,0:0:0:0:
320,192,68913,128,0,69064:0:0:0:0:
448,192,69013,128,0,69216:0:0:0:0:
64,192,69013,1,0,0:0:0:0:
320,192,69115,128,0,69216:0:0:0:0:
64,192,69317,128,0,69469:0:0:0:0:
320,192,69317,1,0,0:0:0:0:
192,192,69317,128,0,69570:0:0:0:0:
64,192,69520,128,0,69671:0:0:0:0:
192,192,69621,128,0,69823:0:0:0:0:
320,192,69621,1,0,0:0:0:0:
64,192,69722,128,0,69823:0:0:0:0:
448,192,69924,128,0,70076:0:0:0:0:
320,192,69924,128,0,70177:0:0:0:0:
192,192,69924,1,0,0:0:0:0:
448,192,70126,128,0,70278:0:0:0:0:
320,192,70228,128,0,70430:0:0:0:0:
192,192,70228,1,0,0:0:0:0:
448,192,70329,128,0,70430:0:0:0:0:
64,192,70531,128,0,71366:0:0:0:0:
448,192,70531,128,0,70607:0:0:0:0:
320,192,70835,128,0,70911:0:0:0:0:
192,192,71139,128,0,71214:0:0:0:0:
448,192,71442,128,0,71746:0:0:0:0:
64,192,71442,128,0,71518:0:0:0:0:
320,192,71746,1,0,0:0:0:0:
192,192,71746,1,0,0:0:0:0:
192,192,71897,128,0,71973:0:0:0:0:
64,192,71897,128,0,71973:0:0:0:0:
448,192,71897,128,0,71973:0:0:0:0:
320,192,72125,128,0,72201:0:0:0:0:
448,192,72125,128,0,72201:0:0:0:0:
64,192,72125,128,0,72201:0:0:0:0:
64,192,72353,128,0,72656:0:0:0:0:
192,192,72353,128,0,72808:0:0:0:0:
448,192,72353,128,0,72960:0:0:0:0:
