osu file format v14

[General]
AudioFilename: 19.mp3
AudioLeadIn: 1500
PreviewTime: 93240
Countdown: 1
SampleSet: Normal
StackLeniency: 0.7
Mode: 0
LetterboxInBreaks: 1
WidescreenStoryboard: 1

[Editor]
Bookmarks: 3326
DistanceSpacing: 0.5
BeatDivisor: 4
GridSize: 4
TimelineZoom: 1

[Metadata]
Title:Ryuu to Shoujo to Decoherence
TitleUnicode:龍と少女とデコヒーレンス
Artist:Kuroneko Dungeon
ArtistUnicode:黒猫ダンジョン
Creator:kiddly
Version:Mythic
Source:
Tags:epic techno tomosuke zektbach
BeatmapID:601731
BeatmapSetID:84777

[Difficulty]
HPDrainRate:8
CircleSize:4.7
OverallDifficulty:8
ApproachRate:9.3
SliderMultiplier:1.72
SliderTickRate:2

[Events]
//Background and Video events
0,0,"bg.jpg",0,0
//Break Periods
//Storyboard Layer 0 (Background)
//Storyboard Layer 1 (Fail)
//Storyboard Layer 2 (Pass)
//Storyboard Layer 3 (Foreground)
//Storyboard Sound Samples

[TimingPoints]
150,363.636363636364,4,2,1,20,1,0
3059,-100,4,2,1,25,0,0
5968,-83.3333333333333,4,2,1,55,0,0
11786,-133.333333333333,4,2,1,65,0,0
17604,-100,4,2,1,65,0,0
23422,-66.6666666666667,4,1,1,55,0,0
46786,-66.6666666666667,4,2,1,5,0,0
58150,-100,4,2,1,50,0,0
90331,-100,4,1,1,50,0,0
93240,-66.6666666666667,4,1,1,55,0,0
113604,-66.6666666666667,4,1,1,25,0,0
113968,-66.6666666666667,4,1,1,30,0,0
114331,-66.6666666666667,4,1,1,35,0,0
114695,-66.6666666666667,4,1,1,40,0,0
115059,-66.6666666666667,4,1,1,45,0,0
115422,-66.6666666666667,4,1,1,50,0,0
115786,-66.6666666666667,4,1,1,55,0,0
116150,-66.6666666666667,4,1,1,60,0,0
116604,-66.6666666666667,4,2,1,5,0,0

[Colours]
Combo1 : 164,209,255
Combo2 : 0,128,192
Combo3 : 51,153,255
Combo4 : 0,64,128

[HitObjects]
72,308,150,6,0,L|84:360,1,43,8|0,0:0|0:0,0:0:0:0:
156,256,331,2,0,L|148:316,1,43,0|0,0:0|0:0,0:0:0:0:
224,216,513,1,8,0:0:0:0:
224,216,604,2,0,B|276:228|276:228|296:256,1,86
336,328,877,6,0,L|356:288,1,43
412,184,1059,2,0,L|392:224,1,43
358,364,1240,6,0,L|336:328,1,43,8|0,0:0|0:0,0:0:0:0:
389,147,1422,2,0,L|411:183,1,43
340,228,1604,5,8,0:0:0:0:
298,167,1695,1,0,0:0:0:0:
306,94,1786,1,0,0:0:0:0:
360,45,1877,1,0,0:0:0:0:
433,41,1968,1,8,0:0:0:0:
498,74,2059,2,0,B|515:98|515:98|508:165,1,86
436,260,2331,6,0,L|444:304,1,43,8|0,0:0|0:0,0:0:0:0:
336,268,2513,2,0,L|344:312,1,43
356,140,2695,6,0,L|364:96,1,43,8|0,0:0|0:0,0:0:0:0:
256,132,2877,2,0,L|264:88,1,43
176,216,3059,5,8,0:0:0:0:
108,248,3150,2,0,L|64:240,1,43
176,216,3331,2,0,P|184:244|176:272,1,43,0|8,0:0|0:0,0:0:0:0:
82,323,3513,2,0,P|66:287|70:227,1,86
120,180,3786,5,8,0:0:0:0:
160,128,3877,1,0,0:0:0:0:
144,64,3968,1,0,0:0:0:0:
124,0,4059,1,0,0:0:0:0:
64,88,4150,6,0,L|56:136,1,43,8|0,0:0|0:0,0:0:0:0:
228,72,4331,2,0,L|236:24,1,43
280,132,4513,5,8,0:0:0:0:
352,128,4604,1,0,0:0:0:0:
408,80,4695,1,0,0:0:0:0:
480,76,4786,1,0,0:0:0:0:
408,208,4877,5,8,0:0:0:0:
452,264,4968,2,0,L|444:312,2,43,0|0|0,0:0|0:0|0:0,0:0:0:0:
344,180,5331,6,0,B|320:204|320:204|332:260,1,86
316,336,5604,1,8,0:0:0:0:
240,348,5695,1,0,0:0:0:0:
216,224,5786,1,8,0:0:0:0:
140,236,5877,1,0,0:0:0:0:
64,300,5968,6,0,B|48:276|48:276|64:192,1,103.199996850586,4|2,1:0|0:0,0:0:0:0:
140,236,6240,1,0,0:0:0:0:
216,224,6331,1,8,0:0:0:0:
296,280,6422,6,0,P|344:296|424:288,3,103.199996850586,2|2|2|2,0:0|0:0|0:0|0:0,0:0:0:0:
216,304,7059,2,0,L|204:368,1,51.599998425293,0|0,1:0|0:0,0:0:0:0:
216,224,7240,1,2,0:0:0:0:
472,132,7422,6,0,B|496:104|496:104|484:28,1,103.199996850586,4|2,1:0|0:0,0:0:0:0:
400,136,7695,2,0,L|416:196,1,51.599998425293,0|8,0:0|0:0,0:0:0:0:
388,132,7877,1,2,0:0:0:0:
460,240,8059,1,2,0:0:0:0:
392,68,8240,1,2,0:0:0:0:
456,304,8422,5,2,0:0:0:0:
400,348,8513,2,0,L|344:360,1,51.599998425293,0|0,1:0|0:0,0:0:0:0:
136,348,8695,2,0,L|192:336,1,51.599998425293,2|0,0:0|0:0,0:0:0:0:
260,364,8877,6,0,B|280:336|280:336|268:256,1,103.199996850586,4|2,1:0|0:0,0:0:0:0:
216,200,9150,2,0,L|232:140,1,51.599998425293,0|8,0:0|0:0,0:0:0:0:
128,288,9331,2,0,L|144:228,1,51.599998425293,2|0,0:0|0:0,0:0:0:0:
48,372,9513,6,0,P|28:316|56:272,2,103.199996850586,2|2|2,0:0|0:0|0:0,0:0:0:0:
136,348,9968,1,0,1:0:0:0:
204,289,10059,1,0,0:0:0:0:
216,199,10150,1,2,0:0:0:0:
194,111,10241,1,0,0:0:0:0:
116,64,10331,6,0,L|60:68,1,51.599998425293,4|0,1:0|0:0,0:0:0:0:
24,188,10513,2,0,L|80:192,1,51.599998425293,2|0,0:0|0:0,0:0:0:0:
144,168,10695,1,8,0:0:0:0:
144,168,10786,1,2,0:0:0:0:
320,44,10968,5,2,0:0:0:0:
320,44,11059,1,8,0:0:0:0:
320,44,11150,1,2,0:0:0:0:
464,368,11331,5,2,0:0:0:0:
447,351,11422,1,8,1:2:0:0:
452,328,11513,1,2,0:0:0:0:
457,305,11604,1,0,1:0:0:0:
463,282,11695,1,0,0:0:0:0:
468,260,11786,5,12,0:0:0:0:
392,224,11968,1,2,0:0:0:0:
292,320,12150,2,0,L|300:360,1,32.2500012302399,0|2,0:0|0:0,0:0:0:0:
216,72,12422,2,0,L|224:32,1,32.2500012302399,2|0,0:0|0:0,0:0:0:0:
184,204,12695,1,2,0:0:0:0:
40,220,12877,2,0,L|116:212,1,64.5000024604798,0|2,0:0|0:0,0:0:0:0:
316,268,13240,6,0,P|328:236|312:188,1,64.5000024604798,0|2,0:0|0:0,0:0:0:0:
244,340,13604,1,0,0:0:0:0:
224,332,13695,1,2,0:0:0:0:
120,192,13877,1,2,0:0:0:0:
132,208,13968,2,0,B|140:224|140:224|132:276,1,64.5000024604798,0|2,0:0|0:0,0:0:0:0:
244,92,14331,2,0,B|252:76|252:76|244:24,1,64.5000024604798,0|2,0:0|0:0,0:0:0:0:
200,160,14695,5,0,0:0:0:0:
316,140,14877,1,2,0:0:0:0:
288,224,15059,2,0,L|276:268,1,32.2500012302399,0|2,0:0|0:0,0:0:0:0:
372,360,15331,2,0,L|380:328,1,32.2500012302399,2|0,0:0|0:0,0:0:0:0:
444,304,15513,2,0,L|452:272,1,32.2500012302399,0|2,0:0|0:0,0:0:0:0:
496,152,15786,2,0,P|484:116|496:84,1,64.5000024604798,0|2,0:0|0:0,0:0:0:0:
376,12,16150,6,0,P|388:48|376:80,1,64.5000024604798,0|2,0:0|0:0,0:0:0:0:
288,136,16513,1,0,0:0:0:0:
280,120,16604,1,2,0:0:0:0:
268,348,16786,1,2,0:0:0:0:
271,332,16877,1,0,0:0:0:0:
273,316,16968,1,0,0:0:0:0:
273,299,17059,1,0,0:0:0:0:
271,282,17150,1,0,0:0:0:0:
268,266,17240,1,0,0:0:0:0:
264,250,17331,1,0,0:0:0:0:
256,235,17422,1,0,0:0:0:0:
246,222,17513,1,0,0:0:0:0:
234,212,17604,6,0,L|222:301,1,86,12|2,0:0|0:0,0:0:0:0:
128,41,17968,5,0,0:0:0:0:
134,57,18059,1,0,0:0:0:0:
138,73,18150,1,0,0:0:0:0:
139,89,18241,1,0,0:0:0:0:
138,106,18331,1,0,0:0:0:0:
136,122,18422,1,0,0:0:0:0:
131,138,18513,1,0,0:0:0:0:
126,155,18604,1,0,0:0:0:0:
119,169,18696,1,0,0:0:0:0:
111,184,18787,1,0,0:0:0:0:
99,197,18878,1,0,0:0:0:0:
87,207,18969,1,0,0:0:0:0:
73,213,19060,2,0,L|83:128,1,86,12|2,0:0|0:0,0:0:0:0:
195,208,19422,5,0,0:0:0:0:
211,214,19513,1,0,0:0:0:0:
227,218,19604,1,0,0:0:0:0:
243,219,19695,1,0,0:0:0:0:
260,218,19787,1,0,0:0:0:0:
276,216,19878,1,0,0:0:0:0:
292,211,19969,1,0,0:0:0:0:
309,206,20060,1,0,0:0:0:0:
323,199,20150,1,0,0:0:0:0:
338,191,20241,1,0,0:0:0:0:
351,179,20332,1,0,0:0:0:0:
361,167,20423,1,0,0:0:0:0:
369,154,20513,6,0,L|364:112,1,43,12|0,0:0|0:0,0:0:0:0:
460,240,20786,2,0,L|448:292,2,43,0|10|0,0:0|0:0|0:0,0:0:0:0:
308,340,21150,2,0,L|320:388,2,43,0|12|0,0:0|0:0|0:0,0:0:0:0:
236,44,21513,2,0,L|244:0,2,43,0|10|0,0:0|0:0|0:0,0:0:0:0:
12,216,21877,5,0,0:0:0:0:
12,216,21968,2,0,L|68:208,1,43,12|0,0:0|0:0,0:0:0:0:
152,80,22150,2,0,L|148:132,1,43,12|0,0:0|0:0,0:0:0:0:
184,288,22331,2,0,L|188:236,1,43,12|0,0:0|0:0,0:0:0:0:
308,344,22513,2,0,L|364:336,1,43,12|0,0:0|0:0,0:0:0:0:
460,252,22695,5,4,0:0:0:0:
416,200,22786,1,4,0:0:0:0:
440,136,22877,1,4,0:0:0:0:
464,72,22968,1,4,0:0:0:0:
488,8,23059,1,4,0:0:0:0:
44,104,23422,6,0,B|104:76|104:76|84:8,1,129.00000492096,4|0,0:0|0:0,0:0:0:0:
12,216,23695,2,0,P|8:248|20:280,1,64.5000024604798,0|8,0:0|0:0,0:0:0:0:
84,312,23877,2,0,B|124:316|124:316|148:360|148:360|192:364,1,129.00000492096
248,320,24150,1,0,0:0:0:0:
248,320,24240,1,0,0:0:0:0:
276,32,24422,1,0,0:0:0:0:
208,60,24513,2,0,P|196:88|208:136,2,64.5000024604798,8|0|0,0:0|0:0|0:0,0:0:0:0:
276,32,24786,1,0,0:0:0:0:
348,52,24877,6,0,B|368:80|368:80|408:92|460:56,1,129.00000492096
488,128,25150,1,0,0:0:0:0:
488,128,25240,2,0,P|507:161|502:214,1,64.5000024604798,8|0,0:0|0:0,0:0:0:0:
388,316,25422,2,0,P|349:315|305:285,1,64.5000024604798
370,76,25604,2,0,P|408:76|452:106,1,64.5000024604798
496,256,25786,2,0,P|476:289|428:311,1,64.5000024604798
376,196,25968,2,0,B|340:176|340:176|296:172|256:204,1,129.00000492096,8|0,0:0|0:0,0:0:0:0:
156,324,26240,5,0,0:0:0:0:
104,376,26331,2,0,B|80:348|80:348|96:232,1,129.00000492096
116,72,26604,2,0,L|124:8,1,64.5000024604798,0|8,0:0|0:0,0:0:0:0:
20,208,26786,2,0,B|100:184|100:184|108:132,1,129.00000492096
116,72,27059,5,0,0:0:0:0:
124,7,27150,1,0,0:0:0:0:
180,47,27240,1,0,0:0:0:0:
172,112,27331,1,0,0:0:0:0:
216,160,27422,5,8,0:0:0:0:
224,224,27513,1,0,0:0:0:0:
280,185,27603,1,0,0:0:0:0:
272,120,27694,1,0,0:0:0:0:
340,16,27786,6,0,B|360:48|360:48|340:140,1,129.00000492096
388,264,28059,1,0,0:0:0:0:
388,336,28150,1,8,0:0:0:0:
456,364,28240,6,0,B|476:332|476:332|456:240,1,129.00000492096
20,256,28604,6,0,P|20:196|92:172,1,129.00000492096
112,252,28877,2,0,L|128:324,1,64.5000024604798,8|0,0:0|0:0,0:0:0:0:
184,72,29059,2,0,L|170:9,1,64.5000024604798
240,192,29240,6,0,B|304:152|376:212,1,129.00000492096
240,192,29513,2,0,P|276:208|296:240,1,64.5000024604798,0|8,0:0|0:0,0:0:0:0:
304,292,29695,1,0,0:0:0:0:
36,136,29877,6,0,P|63:108|71:71,1,64.5000024604798
64,16,30059,1,0,0:0:0:0:
13,342,30240,5,0,0:0:0:0:
79,304,30331,1,8,0:0:0:0:
153,286,30422,1,0,0:0:0:0:
229,283,30513,1,0,0:0:0:0:
304,292,30604,1,0,0:0:0:0:
373,323,30695,2,0,B|385:342|385:342|429:302|409:242,1,129.00000492096
496,20,30968,5,0,0:0:0:0:
472,84,31059,2,0,P|472:120|492:152,1,64.5000024604798,8|0,0:0|0:0,0:0:0:0:
420,248,31331,5,0,0:0:0:0:
400,180,31422,2,0,L|336:172,1,64.5000024604798
252,80,31604,2,0,L|188:72,1,64.5000024604798
28,128,31786,2,0,B|0:164|0:164|24:248,1,129.00000492096,8|0,0:0|0:0,0:0:0:0:
488,360,32150,6,0,B|516:324|516:324|492:240,1,129.00000492096
408,316,32422,2,0,L|388:380,2,64.5000024604798,0|8|0,0:0|0:0|0:0,0:0:0:0:
240,112,32786,1,0,0:0:0:0:
264,64,32877,1,0,0:0:0:0:
284,16,32968,1,0,0:0:0:0:
3,338,33150,1,0,0:0:0:0:
56,320,33241,1,8,0:0:0:0:
112,312,33331,1,0,0:0:0:0:
168,312,33422,1,0,0:0:0:0:
224,321,33513,1,0,0:0:0:0:
276,341,33604,2,0,P|348:349|420:345,1,129.00000492096
488,304,33877,5,0,0:0:0:0:
488,304,33968,2,0,L|504:240,1,64.5000024604798,8|0,0:0|0:0,0:0:0:0:
404,264,34150,2,0,L|420:200,1,64.5000024604798
284,16,34331,2,0,L|300:80,1,64.5000024604798
196,56,34513,2,0,L|212:120,1,64.5000024604798
116,312,34695,2,0,L|100:248,1,64.5000024604798,8|0,0:0|0:0,0:0:0:0:
32,356,34877,2,0,L|16:292,1,64.5000024604798
88,52,35059,5,6,0:0:0:0:
32,356,35240,1,0,0:0:0:0:
47,151,35422,1,8,0:0:0:0:
116,184,35513,1,0,0:0:0:0:
84,252,35604,1,0,0:0:0:0:
15,221,35695,1,0,0:0:0:0:
116,184,35786,6,0,L|192:196,1,64.5000024604798
244,288,35968,2,0,L|320:300,1,64.5000024604798,0|0,0:0|0:0,0:0:0:0:
400,232,36150,2,0,B|424:192|424:192|404:100,1,129.00000492096,8|0,0:0|0:0,0:0:0:0:
476,348,36513,5,2,0:0:0:0:
376,20,36695,1,0,0:0:0:0:
369,309,36877,1,8,0:0:0:0:
425,248,36967,1,0,0:0:0:0:
441,166,37058,1,0,0:0:0:0:
430,83,37149,1,0,0:0:0:0:
376,20,37240,2,0,P|376:56|356:88,1,64.5000024604798
220,204,37422,2,0,P|188:186|171:152,1,64.5000024604798
296,144,37604,2,0,P|318:199|272:278,1,129.00000492096,8|0,0:0|0:0,0:0:0:0:
112,352,37968,5,2,0:0:0:0:
36,44,38150,1,0,0:0:0:0:
44,188,38331,1,8,0:0:0:0:
116,180,38422,1,0,0:0:0:0:
148,284,38513,1,0,0:0:0:0:
220,276,38604,1,0,0:0:0:0:
296,200,38695,2,0,L|288:124,1,64.5000024604798
464,368,38877,2,0,L|456:292,1,64.5000024604798
376,264,39059,2,0,B|356:300|356:300|384:404,1,129.00000492096,8|0,0:0|0:0,0:0:0:0:
468,124,39422,6,0,B|488:88|488:88|460:-16,1,129.00000492096,2|0,0:0|0:0,0:0:0:0:
471,233,39786,1,8,0:0:0:0:
388,200,39877,1,0,0:0:0:0:
468,124,39968,1,0,0:0:0:0:
385,91,40059,1,0,0:0:0:0:
296,156,40150,2,0,B|288:200|288:200|308:228,1,64.5000024604798
172,336,40331,2,0,B|180:292|180:292|160:264,1,64.5000024604798
72,28,40513,2,0,B|49:60|49:60|65:148,1,129.00000492096,8|0,0:0|0:0,0:0:0:0:
44,340,40877,5,2,0:0:0:0:
244,292,41059,1,0,0:0:0:0:
44,340,41240,2,0,B|36:316|36:316|48:264,1,64.5000024604798,8|0,0:0|0:0,0:0:0:0:
100,232,41422,1,0,0:0:0:0:
112,300,41513,1,0,0:0:0:0:
232,360,41604,1,0,0:0:0:0:
244,292,41695,1,0,0:0:0:0:
360,216,41786,1,0,0:0:0:0:
372,284,41877,1,0,0:0:0:0:
481,361,41968,1,8,0:0:0:0:
512,180,42150,1,0,0:0:0:0:
418,205,42331,5,2,0:0:0:0:
448,23,42513,1,0,0:0:0:0:
300,60,42695,1,8,0:0:0:0:
228,56,42786,1,0,0:0:0:0:
160,24,42877,2,0,B|144:44|144:44|152:92,1,64.5000024604798
60,172,43059,1,0,0:0:0:0:
132,168,43150,1,0,0:0:0:0:
200,136,43241,2,0,B|216:156|216:156|208:204,1,64.5000024604798
168,256,43422,2,0,B|148:292|148:292|176:384,1,129.00000492096,8|0,0:0|0:0,0:0:0:0:
372,296,43786,6,0,L|388:364,1,64.5000024604798
352,228,43968,1,0,0:0:0:0:
336,160,44059,1,0,0:0:0:0:
320,84,44150,6,0,L|304:16,1,64.5000024604798,8|0,0:0|0:0,0:0:0:0:
340,152,44332,1,0,0:0:0:0:
356,220,44423,1,0,0:0:0:0:
380,280,44513,6,0,L|396:348,1,64.5000024604798
360,212,44695,1,0,0:0:0:0:
344,144,44786,1,0,0:0:0:0:
328,68,44877,6,0,L|312:0,1,64.5000024604798,8|0,0:0|0:0,0:0:0:0:
348,136,45059,1,0,0:0:0:0:
364,204,45150,1,0,0:0:0:0:
384,268,45240,6,0,L|400:336,1,64.5000024604798,8|0,0:0|0:0,0:0:0:0:
308,312,45422,2,0,L|324:380,1,64.5000024604798,8|0,0:0|0:0,0:0:0:0:
264,112,45604,6,0,L|280:44,1,64.5000024604798,8|0,0:0|0:0,0:0:0:0:
188,68,45786,2,0,L|204:0,1,64.5000024604798,8|0,0:0|0:0,0:0:0:0:
24,268,45968,6,0,L|8:336,1,64.5000024604798,8|0,0:0|0:0,0:0:0:0:
100,312,46150,2,0,L|84:380,1,64.5000024604798
124,202,46331,5,8,0:0:0:0:
184,152,46422,1,0,0:0:0:0:
257,179,46513,1,8,0:0:0:0:
330,206,46604,1,0,0:0:0:0:
403,234,46695,1,4,0:0:0:0:
256,192,46786,12,0,49604,0:0:0:0:
256,192,49695,12,0,52513,0:0:0:0:
256,192,52604,12,0,55422,0:0:0:0:
256,192,55513,12,0,57968,0:0:0:0:
52,300,58331,5,0,0:0:0:0:
222,340,58513,1,2,0:0:0:0:
172,172,58695,1,0,0:0:0:0:
52,300,58877,1,2,0:0:0:0:
148,271,59059,2,0,L|220:252,1,43
216,252,59240,1,2,0:0:0:0:
312,224,59422,2,0,B|328:252|328:252|320:308,1,86,0|2,0:0|0:0,0:0:0:0:
476,108,59786,6,0,B|460:80|460:80|468:24,1,86,0|2,0:0|0:0,0:0:0:0:
508,168,60150,1,0,0:0:0:0:
488,288,60331,1,2,0:0:0:0:
356,228,60513,1,0,0:0:0:0:
360,216,60604,1,0,0:0:0:0:
364,204,60695,1,2,0:0:0:0:
240,308,60877,1,0,0:0:0:0:
244,320,60968,1,0,0:0:0:0:
248,332,61059,1,2,0:0:0:0:
120,276,61240,5,0,0:0:0:0:
4,311,61422,1,2,0:0:0:0:
31,193,61604,1,0,0:0:0:0:
64,40,61786,1,2,0:0:0:0:
220,116,61968,2,0,L|168:124,1,43
232,104,62150,1,2,0:0:0:0:
356,48,62331,2,0,L|304:40,1,43
368,60,62513,1,2,0:0:0:0:
288,208,62695,6,0,P|320:164|312:120,1,86,0|2,0:0|0:0,0:0:0:0:
280,344,63059,2,0,P|248:300|256:256,1,86,0|2,0:0|0:0,0:0:0:0:
376,220,63422,1,0,0:0:0:0:
384,264,63513,1,0,0:0:0:0:
364,304,63604,1,2,0:0:0:0:
200,208,63786,1,0,0:0:0:0:
180,168,63877,1,0,0:0:0:0:
188,124,63968,1,2,0:0:0:0:
336,120,64150,5,0,0:0:0:0:
472,140,64331,1,2,0:0:0:0:
336,120,64513,1,0,0:0:0:0:
316,4,64695,1,2,0:0:0:0:
184,80,64877,2,0,L|128:72,1,43
200,72,65059,5,2,0:0:0:0:
220,212,65240,1,0,0:0:0:0:
52,260,65422,1,2,0:0:0:0:
204,296,65604,5,0,0:0:0:0:
212,308,65695,1,0,0:0:0:0:
220,320,65786,2,0,L|132:320,1,86,2|0,0:0|0:0,0:0:0:0:
280,356,66150,1,2,0:0:0:0:
412,312,66331,5,0,0:0:0:0:
420,300,66422,1,0,0:0:0:0:
428,288,66513,2,0,L|340:288,1,86,2|0,0:0|0:0,0:0:0:0:
488,252,66877,1,2,0:0:0:0:
456,28,67059,5,0,0:0:0:0:
456,28,67150,1,0,0:0:0:0:
456,28,67240,1,2,0:0:0:0:
392,156,67422,2,0,B|376:132|376:132|384:64,2,86,0|2|0,0:0|0:0|0:0,0:0:0:0:
404,164,67877,2,0,L|400:208,1,43,0|2,0:0|0:0,0:0:0:0:
312,284,68150,6,0,B|296:308|296:308|304:376,2,86,0|2|0,0:0|0:0|0:0,0:0:0:0:
328,280,68604,1,0,0:0:0:0:
344,276,68695,1,2,0:0:0:0:
172,288,68877,5,0,0:0:0:0:
180,308,68968,1,0,0:0:0:0:
188,328,69059,1,2,0:0:0:0:
248,80,69240,5,0,0:0:0:0:
260,44,69331,1,0,0:0:0:0:
272,8,69422,1,2,0:0:0:0:
4,160,69604,5,0,0:0:0:0:
72,172,69695,1,0,0:0:0:0:
140,184,69786,1,2,0:0:0:0:
444,156,69968,6,0,B|464:176|464:176|456:216,1,57.3333333333333,2|0,0:0|0:0,0:0:0:0:
404,204,70210,2,0,B|424:224|424:224|416:264,1,57.3333333333333
364,252,70453,2,0,B|384:272|384:272|376:312,1,57.3333333333333
300,280,70695,5,2,0:0:0:0:
241,237,70816,1,0,0:0:0:0:
249,165,70937,1,0,0:0:0:0:
308,208,71059,5,0,0:0:0:0:
241,237,71180,1,0,0:0:0:0:
174,266,71301,1,0,0:0:0:0:
116,216,71422,6,0,B|96:236|96:236|104:276,1,57.3333333333333,2|0,0:0|0:0,0:0:0:0:
76,168,71664,2,0,B|56:188|56:188|64:228,1,57.3333333333333
36,120,71907,2,0,B|16:140|16:140|24:180,1,57.3333333333333
120,92,72150,5,2,0:0:0:0:
136,20,72271,1,0,0:0:0:0:
256,92,72392,5,0,0:0:0:0:
272,164,72513,1,0,0:0:0:0:
396,104,72634,5,0,0:0:0:0:
412,32,72755,1,0,0:0:0:0:
452,292,72877,6,0,L|468:368,1,57.3333333333333,2|0,0:0|0:0,0:0:0:0:
452,224,73119,2,0,L|468:300,1,57.3333333333333
452,156,73362,2,0,L|468:232,1,57.3333333333333
372,160,73604,6,0,L|356:236,1,57.3333333333333,2|0,0:0|0:0,0:0:0:0:
372,92,73846,2,0,L|356:168,1,57.3333333333333
372,24,74089,2,0,L|356:100,1,57.3333333333333
288,156,74331,5,2,0:0:0:0:
260,240,74453,1,0,0:0:0:0:
328,296,74574,1,0,0:0:0:0:
252,228,74695,5,0,0:0:0:0:
280,144,74817,1,0,0:0:0:0:
232,68,74938,1,0,0:0:0:0:
140,96,75059,6,0,B|120:76|120:76|128:36,1,57.3333333333333,2|0,0:0|0:0,0:0:0:0:
100,144,75301,2,0,B|80:124|80:124|88:84,1,57.3333333333333
60,192,75544,2,0,B|40:172|40:172|48:132,1,57.3333333333333
132,232,75786,5,2,0:0:0:0:
148,304,75907,1,0,0:0:0:0:
93,356,76028,1,0,0:0:0:0:
132,232,76150,5,0,0:0:0:0:
220,326,76271,1,0,0:0:0:0:
93,356,76392,1,0,0:0:0:0:
148,304,76513,5,2,0:0:0:0:
220,326,76634,1,0,0:0:0:0:
292,348,76756,1,0,0:0:0:0:
448,328,76877,1,0,0:0:0:0:
296,276,76998,1,0,0:0:0:0:
452,256,77119,1,0,0:0:0:0:
368,324,77240,6,0,L|364:384,1,57.3333333333333,2|0,0:0|0:0,0:0:0:0:
380,256,77483,2,0,L|376:316,1,57.3333333333333
392,188,77725,2,0,L|388:248,1,57.3333333333333
296,68,77968,6,0,L|292:8,1,57.3333333333333,2|0,0:0|0:0,0:0:0:0:
308,136,78211,2,0,L|304:76,1,57.3333333333333
320,204,78453,2,0,L|316:144,1,57.3333333333333
268,280,78695,5,2,0:0:0:0:
160,296,78816,1,0,0:0:0:0:
116,232,78937,1,0,0:0:0:0:
152,304,79059,5,0,0:0:0:0:
44,288,79180,1,0,0:0:0:0:
0,352,79301,1,0,0:0:0:0:
20,184,79422,5,2,0:0:0:0:
44,288,79543,1,0,0:0:0:0:
8,176,79665,1,0,0:0:0:0:
116,112,79786,5,0,0:0:0:0:
92,8,79907,1,0,0:0:0:0:
128,120,80029,1,0,0:0:0:0:
252,68,80150,2,0,B|240:24|240:24|248:8,1,57.3333333333333,2|0,0:0|0:0,0:0:0:0:
328,88,80392,2,0,B|316:44|316:44|324:28,1,57.3333333333333,0|0,0:0|0:0,0:0:0:0:
404,108,80634,2,0,B|392:64|392:64|400:48,1,57.3333333333333
348,328,80877,6,0,B|336:372|336:372|344:388,1,57.3333333333333,2|2,0:0|0:0,0:0:0:0:
424,308,81119,2,0,B|412:352|412:352|420:368,1,57.3333333333333,2|2,0:0|0:0,0:0:0:0:
500,288,81361,2,0,B|488:332|488:332|496:348,1,57.3333333333333,2|2,0:0|0:0,0:0:0:0:
415,194,81604,5,4,0:0:0:0:
346,183,81695,1,0,0:0:0:0:
278,194,81786,1,0,0:0:0:0:
223,236,81877,1,0,0:0:0:0:
287,202,81968,5,2,0:0:0:0:
233,157,82059,1,0,0:0:0:0:
169,131,82150,1,0,0:0:0:0:
100,136,82241,1,0,0:0:0:0:
39,166,82331,6,0,L|29:217,1,43
32,333,82513,2,0,L|40:290,1,43,0|0,0:0|0:0,0:0:0:0:
108,201,82695,2,0,L|98:252,1,43,2|0,0:0|0:0,0:0:0:0:
101,368,82877,2,0,L|109:325,1,43,0|0,0:0|0:0,0:0:0:0:
179,238,83059,5,0,0:0:0:0:
216,180,83150,1,0,0:0:0:0:
228,113,83240,1,0,0:0:0:0:
221,44,83331,1,0,0:0:0:0:
220,108,83422,5,2,0:0:0:0:
253,166,83513,1,0,0:0:0:0:
265,233,83603,1,0,0:0:0:0:
258,302,83694,1,0,0:0:0:0:
233,367,83786,6,0,L|187:379,1,43
347,362,83968,2,0,L|301:374,1,43
371,246,84150,2,0,L|383:200,1,43,2|0,0:0|0:0,0:0:0:0:
439,306,84332,2,0,L|451:260,1,43
464,96,84513,5,4,0:0:0:0:
395,108,84604,1,0,0:0:0:0:
326,98,84695,1,0,0:0:0:0:
264,69,84786,1,0,0:0:0:0:
326,110,84877,5,2,0:0:0:0:
264,79,84968,1,0,0:0:0:0:
196,66,85059,1,0,0:0:0:0:
128,73,85150,1,0,0:0:0:0:
65,100,85240,6,0,L|77:149,1,43
86,317,85422,2,0,L|75:275,1,43,0|0,0:0|0:0,0:0:0:0:
146,141,85604,2,0,L|158:190,1,43,2|0,0:0|0:0,0:0:0:0:
167,358,85786,2,0,L|156:316,1,43,0|0,0:0|0:0,0:0:0:0:
226,177,85968,5,0,0:0:0:0:
280,219,86059,1,0,0:0:0:0:
315,278,86150,1,0,0:0:0:0:
318,346,86240,1,0,0:0:0:0:
306,285,86331,5,2,0:0:0:0:
322,218,86422,1,0,0:0:0:0:
370,168,86513,1,0,0:0:0:0:
432,138,86604,1,0,0:0:0:0:
500,133,86695,6,0,L|519:184,1,43
424,24,86877,2,0,L|443:75,1,43,0|0,0:0|0:0,0:0:0:0:
296,8,87059,2,0,L|244:0,1,43,2|0,0:0|0:0,0:0:0:0:
336,104,87240,2,0,L|284:96,1,43
192,136,87422,5,4,0:0:0:0:
124,121,87513,1,0,0:0:0:0:
64,86,87604,1,0,0:0:0:0:
31,25,87695,1,0,0:0:0:0:
72,76,87786,5,2,0:0:0:0:
113,131,87877,1,0,0:0:0:0:
123,199,87968,1,0,0:0:0:0:
113,267,88059,1,0,0:0:0:0:
75,325,88150,6,0,L|21:315,1,43
184,376,88331,2,0,L|226:383,1,43,0|0,0:0|0:0,0:0:0:0:
176,212,88513,2,0,L|164:253,1,43,2|0,0:0|0:0,0:0:0:0:
120,72,88695,2,0,L|130:30,1,43,0|0,0:0|0:0,0:0:0:0:
284,292,88877,5,0,0:0:0:0:
334,245,88968,1,0,0:0:0:0:
353,179,89058,1,0,0:0:0:0:
344,109,89150,1,0,0:0:0:0:
306,52,89240,5,2,0:0:0:0:
331,115,89331,1,0,0:0:0:0:
364,175,89421,1,0,0:0:0:0:
425,205,89512,1,0,0:0:0:0:
495,216,89604,6,0,L|516:262,1,43
459,297,89786,2,0,L|480:343,1,43
280,124,89968,6,0,L|301:78,1,43,2|0,0:0|0:0,0:0:0:0:
244,43,90150,2,0,L|265:-3,1,43
56,304,90331,5,4,0:0:0:0:
115,339,90422,1,0,0:0:0:0:
183,342,90513,1,0,0:0:0:0:
249,323,90604,1,0,0:0:0:0:
188,355,90695,5,0,0:0:0:0:
241,312,90786,1,0,0:0:0:0:
264,247,90877,1,0,0:0:0:0:
251,179,90968,1,0,0:0:0:0:
275,243,91059,5,4,0:0:0:0:
316,297,91150,1,0,0:0:0:0:
379,324,91241,1,0,0:0:0:0:
447,332,91332,1,0,0:0:0:0:
379,337,91422,5,0,0:0:0:0:
327,291,91513,1,0,0:0:0:0:
304,225,91604,1,0,0:0:0:0:
313,156,91695,1,0,0:0:0:0:
353,100,91786,5,0,0:0:0:0:
353,100,91877,1,0,0:0:0:0:
353,100,91968,2,0,L|411:109,1,43
68,24,92150,5,0,0:0:0:0:
68,24,92241,1,0,0:0:0:0:
68,24,92332,2,0,L|10:33,1,43
200,112,92513,5,0,0:0:0:0:
200,112,92604,1,0,0:0:0:0:
200,112,92695,2,0,L|209:54,1,43
268,360,92877,5,0,0:0:0:0:
268,360,92968,1,0,0:0:0:0:
268,360,93059,2,0,L|259:302,1,43
244,220,93240,5,0,0:0:0:0:
512,369,93422,5,0,0:0:0:0:
464,301,93513,1,0,0:0:0:0:
488,221,93604,2,0,B|500:197|500:197|488:149,1,64.5000024604798,8|0,0:0|0:0,0:0:0:0:
406,239,93786,1,0,0:0:0:0:
406,239,93877,1,0,0:0:0:0:
322,251,93968,6,0,P|326:286|354:317,1,64.5000024604798
399,149,94150,2,0,P|365:159|339:191,1,64.5000024604798
323,251,94331,1,8,0:0:0:0:
251,294,94422,1,0,0:0:0:0:
167,296,94513,1,0,0:0:0:0:
87,270,94604,1,0,0:0:0:0:
32,206,94695,2,0,B|-7:150|46:108|46:108|62:149,1,129.00000492096
144,210,94968,5,0,0:0:0:0:
87,270,95059,2,0,P|58:288|17:288,2,64.5000024604798,8|0|0,0:0|0:0|0:0,0:0:0:0:
248,257,95331,2,0,B|276:225|276:225|240:173|166:171|128:230,1,193.50000738144
200,319,95695,1,0,0:0:0:0:
200,320,95786,2,0,B|228:340|228:340|277:332,1,64.5000024604798,8|0,0:0|0:0,0:0:0:0:
386,292,95968,2,0,B|358:272|358:272|328:276,1,64.5000024604798
434,366,96150,6,0,P|471:323|451:233,1,129.00000492096
403,154,96422,1,0,0:0:0:0:
357,91,96513,2,0,P|360:54|390:31,1,64.5000024604798,8|0,0:0|0:0,0:0:0:0:
439,85,96695,5,0,0:0:0:0:
403,154,96786,1,0,0:0:0:0:
326,166,96877,2,0,B|297:151|297:151|243:155,1,64.5000024604798
239,292,97059,2,0,B|268:309|268:309|322:303,1,64.5000024604798
283,229,97240,5,8,0:0:0:0:
265,154,97331,1,0,0:0:0:0:
205,103,97422,1,0,0:0:0:0:
131,79,97513,1,0,0:0:0:0:
54,93,97604,2,0,B|73:172|73:172|35:204,1,129.00000492096
79,327,97877,5,0,0:0:0:0:
160,315,97968,2,0,L|225:303,2,64.5000024604798,8|0|0,0:0|0:0|0:0,0:0:0:0:
79,327,98240,6,0,B|196:297|156:382|279:349,1,193.50000738144
263,352,98695,2,0,L|280:288,1,64.5000024604798,8|0,0:0|0:0,0:0:0:0:
406,292,98877,2,0,P|371:316|320:303,1,64.5000024604798
279,290,99059,6,0,P|255:226|306:169,1,129.00000492096
335,237,99331,1,0,0:0:0:0:
344,248,99422,1,8,0:0:0:0:
388,243,99513,1,0,0:0:0:0:
432,238,99604,1,0,0:0:0:0:
477,234,99695,1,0,0:0:0:0:
490,221,99786,5,0,0:0:0:0:
438,226,99877,1,0,0:0:0:0:
387,232,99968,1,0,0:0:0:0:
336,237,100059,1,0,0:0:0:0:
250,225,100149,5,8,0:0:0:0:
170,199,100240,1,0,0:0:0:0:
170,115,100331,1,0,0:0:0:0:
250,89,100422,1,0,0:0:0:0:
299,157,100513,1,0,0:0:0:0:
450,109,100695,5,0,0:0:0:0:
457,96,100786,1,0,0:0:0:0:
464,82,100877,2,0,B|396:68|396:68|313:85,1,129.00000492096,8|0,0:0|0:0,0:0:0:0:
299,256,101150,1,0,0:0:0:0:
375,289,101240,2,0,L|454:276,1,64.5000024604798
507,214,101422,2,0,B|512:179|512:179|493:132,1,64.5000024604798
378,208,101604,6,0,B|309:221|309:221|272:259|272:259|174:279,1,193.50000738144,8|0,0:0|0:0,0:0:0:0:
148,340,101968,1,0,0:0:0:0:
148,340,102150,6,0,L|75:334,1,64.5000024604798
52,202,102331,1,8,0:0:0:0:
130,226,102422,1,0,0:0:0:0:
202,187,102513,2,0,P|209:150|193:115,1,64.5000024604798
138,236,102695,5,0,0:0:0:0:
210,197,102786,1,0,0:0:0:0:
293,204,102877,1,0,0:0:0:0:
369,238,102968,1,0,0:0:0:0:
419,305,103059,6,0,P|417:342|396:370,1,64.5000024604798,8|0,0:0|0:0,0:0:0:0:
254,135,103240,2,0,P|256:98|277:70,1,64.5000024604798,0|0,0:0|0:0,0:0:0:0:
321,222,103422,5,0,0:0:0:0:
323,242,103513,1,0,0:0:0:0:
330,259,103604,1,0,0:0:0:0:
343,275,103695,1,0,0:0:0:0:
358,158,103786,5,8,0:0:0:0:
343,171,103877,1,0,0:0:0:0:
330,185,103968,1,0,0:0:0:0:
323,203,104059,1,0,0:0:0:0:
432,158,104149,5,0,0:0:0:0:
414,151,104240,1,0,0:0:0:0:
395,149,104331,1,0,0:0:0:0:
376,151,104421,1,0,0:0:0:0:
469,222,104513,5,8,0:0:0:0:
466,204,104604,1,0,0:0:0:0:
459,185,104695,1,0,0:0:0:0:
447,170,104786,1,0,0:0:0:0:
430,282,104877,6,0,B|381:262|381:262|281:287,1,129.00000492096
253,345,105150,1,0,0:0:0:0:
225,268,105240,2,0,P|231:234|263:213,1,64.5000024604798,8|0,0:0|0:0,0:0:0:0:
253,345,105422,2,0,B|213:347|213:347|164:330,1,64.5000024604798
73,265,105604,5,8,0:0:0:0:
69,193,105695,1,0,0:0:0:0:
37,125,105786,2,0,B|57:109|57:109|105:117,1,64.5000024604798
185,25,105968,1,8,0:0:0:0:
181,97,106059,1,0,0:0:0:0:
149,165,106150,2,0,B|169:181|169:181|217:173,1,64.5000024604798
284,107,106331,6,0,L|290:29,1,64.5000024604798
380,154,106513,2,0,L|375:218,1,64.5000024604798,0|0,0:0|0:0,0:0:0:0:
293,116,106695,6,0,B|290:86|290:86|299:38,1,64.5000024604798,8|0,0:0|0:0,0:0:0:0:
392,166,106877,2,0,B|397:194|397:194|384:227,1,64.5000024604798,0|0,0:0|0:0,0:0:0:0:
234,243,107059,5,0,0:0:0:0:
232,159,107150,1,0,0:0:0:0:
276,88,107240,1,0,0:0:0:0:
354,64,107331,1,0,0:0:0:0:
468,252,107422,5,8,0:0:0:0:
396,208,107513,1,0,0:0:0:0:
312,210,107604,1,0,0:0:0:0:
234,242,107695,1,0,0:0:0:0:
179,306,107786,2,0,P|145:239|184:176,1,129.00000492096
224,146,108059,5,0,0:0:0:0:
224,146,108150,2,0,P|257:141|298:154,1,64.5000024604798,8|0,0:0|0:0,0:0:0:0:
64,316,108331,2,0,P|31:321|-10:308,1,64.5000024604798
35,246,108513,5,0,0:0:0:0:
88,212,108603,1,0,0:0:0:0:
152,209,108694,1,0,0:0:0:0:
211,232,108785,1,0,0:0:0:0:
255,279,108876,1,8,0:0:0:0:
310,312,108967,1,0,0:0:0:0:
373,322,109058,1,0,0:0:0:0:
437,312,109149,1,0,0:0:0:0:
494,282,109240,6,0,B|506:251|506:251|498:210,1,64.5000024604798
423,66,109422,2,0,B|411:97|411:97|419:138,1,64.5000024604798,0|0,0:0|0:0,0:0:0:0:
367,384,109604,6,0,B|379:353|379:353|371:312,1,64.5000024604798,8|0,0:0|0:0,0:0:0:0:
296,168,109786,2,0,B|284:199|284:199|292:240,1,64.5000024604798,0|0,0:0|0:0,0:0:0:0:
437,164,109968,5,0,0:0:0:0:
425,85,110059,1,0,0:0:0:0:
368,218,110150,5,0,0:0:0:0:
356,297,110241,1,0,0:0:0:0:
295,168,110332,5,8,0:0:0:0:
215,180,110423,1,0,0:0:0:0:
136,194,110513,1,0,0:0:0:0:
103,268,110604,1,0,0:0:0:0:
171,310,110695,6,0,B|202:321|202:321|242:308|242:308|320:325,1,129.00000492096
270,233,110968,1,0,0:0:0:0:
270,233,111059,2,0,P|235:226|199:241,1,64.5000024604798,8|0,0:0|0:0,0:0:0:0:
370,318,111240,2,0,P|362:286|337:262,1,64.5000024604798,0|0,0:0|0:0,2:0:0:0:
171,310,111422,5,0,0:0:0:0:
174,329,111513,1,0,0:0:0:0:
177,348,111604,1,0,0:0:0:0:
179,367,111695,1,0,0:0:0:0:
100,211,111786,5,8,0:0:0:0:
104,174,111877,1,0,0:0:0:0:
110,137,111968,1,0,0:0:0:0:
114,99,112059,1,0,0:0:0:0:
117,62,112150,6,0,L|45:57,2,64.5000024604798,0|0|0,0:0|0:0|0:0,0:0:0:0:
185,111,112422,1,0,0:0:0:0:
246,169,112513,2,0,L|318:164,2,64.5000024604798,8|0|0,0:0|0:0|0:0,0:0:0:0:
178,218,112785,1,0,0:0:0:0:
115,275,112877,6,0,B|112:313|112:313|127:341,1,64.5000024604798
178,218,113059,2,0,B|181:180|181:180|166:152,1,64.5000024604798
204,296,113240,2,0,L|289:278,1,64.5000024604798,8|0,0:0|0:0,0:0:0:0:
89,196,113422,2,0,L|25:209,1,64.5000024604798
139,138,113604,5,0,0:0:0:0:
141,128,113695,1,0,0:0:0:0:
143,118,113786,1,0,0:0:0:0:
145,108,113877,1,0,0:0:0:0:
121,28,113968,5,0,0:0:0:0:
153,34,114059,1,0,0:0:0:0:
184,40,114150,1,0,0:0:0:0:
214,46,114240,1,0,0:0:0:0:
216,129,114331,5,0,0:0:0:0:
235,184,114422,1,0,0:0:0:0:
282,217,114513,1,0,0:0:0:0:
340,216,114604,1,0,0:0:0:0:
387,181,114695,1,0,0:0:0:0:
404,126,114786,1,0,0:0:0:0:
385,71,114877,1,0,0:0:0:0:
337,37,114968,1,0,0:0:0:0:
309,129,115059,6,0,B|296:160|296:160|300:196,1,64.5000024604798
392,358,115240,2,0,B|405:327|405:327|401:291,1,64.5000024604798,8|0,0:0|0:0,0:0:0:0:
321,319,115422,1,0,0:0:0:0:
245,312,115513,1,0,0:0:0:0:
174,230,115604,5,8,0:0:0:0:
98,237,115695,1,0,0:0:0:0:
17,214,115787,2,0,B|14:247|14:247|26:275,1,64.5000024604798,8|0,0:0|0:0,0:0:0:0:
117,108,115968,2,0,B|120:75|120:75|107:46,1,64.5000024604798
204,143,116150,5,8,0:0:0:0:
328,172,116240,1,0,0:0:0:0:
238,265,116331,1,0,0:0:0:0:
204,143,116422,1,0,0:0:0:0:
257,193,116513,5,4,0:0:0:0:
256,192,116604,12,0,119422,0:0:0:0:
