osu file format v14

[General]
AudioFilename: audio.mp3
AudioLeadIn: 0
PreviewTime: 23240
Countdown: 0
SampleSet: Soft
StackLeniency: 0.3
Mode: 0
LetterboxInBreaks: 0
WidescreenStoryboard: 0

[Editor]
Bookmarks: 5968,7604,9059,10513,11786,35059,43786,45240,49604,68513,70422,72877,73362,73422,76271,76331,80150,80877,82028,82059,82089,84968,84998,85059,87907,92150,92240,92331,92422,92513,92695,92786,92877,92968,93059,93150,93240,101240
DistanceSpacing: 1
BeatDivisor: 4
GridSize: 16
TimelineZoom: 1

[Metadata]
Title:Ryuu to Shoujo to Decoherence
TitleUnicode:龍と少女とデコヒーレンス
Artist:Kuroneko Dungeon
ArtistUnicode:黒猫ダンジョン
Creator:Arastelia
Version:Ultradrive
Source:beatmania IIDX 20 tricoro
Tags:bemani konami epic techno tomosuke zektbach omega-attack flower
BeatmapID:1932031
BeatmapSetID:924901

[Difficulty]
HPDrainRate:6
CircleSize:4
OverallDifficulty:9
ApproachRate:10
SliderMultiplier:2.6
SliderTickRate:1

[Events]
//Background and Video events
0,0,"bg.jpg",0,0
//Break Periods
//Storyboard Layer 0 (Background)
//Storyboard Layer 1 (Fail)
//Storyboard Layer 2 (Pass)
//Storyboard Layer 3 (Foreground)
//Storyboard Sound Samples

[TimingPoints]
150,363.636363636364,4,2,0,25,1,0
150,-71.4285714285714,4,2,0,25,0,0
5968,-76.9230769230769,4,2,0,45,0,0
23422,-71.4285714285714,4,2,0,55,0,0
46695,-105.263157894737,4,2,0,25,0,0
49513,-102.040816326531,4,2,0,5,0,0
49604,-105.263157894737,4,2,0,20,0,0
52422,-89.2857142857143,4,2,0,5,0,0
52513,-98.0392156862745,4,2,0,20,0,0
55331,-84.7457627118644,4,2,0,5,0,0
55422,-140.845070422535,4,2,0,20,0,0
58240,-81.3008130081301,4,2,0,5,0,0
58331,-76.9230769230769,4,2,0,55,0,0
69968,-100,4,2,0,45,0,0
81604,-100,4,2,0,50,0,0
91786,-76.9230769230769,4,2,0,55,0,0
93240,-66.6666666666667,4,2,0,70,0,1
103422,-66.6666666666667,4,2,0,60,0,1
103786,-66.6666666666667,4,2,0,50,0,1
104150,-66.6666666666667,4,2,0,40,0,1
104877,-66.6666666666667,4,2,0,70,0,1
116513,-66.6666666666667,4,2,0,70,0,0
119422,-66.6666666666667,4,2,0,5,0,0

[HitObjects]
399,108,150,6,0,P|416:149|401:191,1,90.9999972229005
233,169,331,2,0,P|219:120|257:71,1,90.9999972229005
305,135,513,6,0,B|324:156|324:156|325:233,1,90.9999972229005
184,303,695,2,0,B|165:282|165:282|164:205,1,90.9999972229005
271,373,877,1,0,0:0:0:0:
271,373,968,6,0,B|143:379|143:379|92:314,1,181.999994445801
279,286,1240,2,0,P|321:293|375:285,1,90.9999972229005
394,175,1422,2,0,P|337:193|322:229,1,90.9999972229005
455,330,1604,6,0,L|455:223,1,90.9999972229005
323,126,1786,2,0,L|323:233,1,90.9999972229005
226,73,1968,1,0,0:0:0:0:
226,73,2059,2,0,P|256:39|315:33,1,90.9999972229005
121,127,2240,2,0,P|151:161|210:167,1,90.9999972229005
220,88,2422,6,0,B|156:78|156:78|31:122,1,181.999994445801
48,213,2695,2,0,B|52:258|52:258|38:311,1,90.9999972229005
129,373,2877,2,0,B|125:328|125:328|139:275,1,90.9999972229005
239,353,3059,6,0,L|344:358,1,90.9999972229005
428,275,3240,2,0,L|323:280,1,90.9999972229005
244,217,3422,1,0,0:0:0:0:
244,217,3513,2,0,P|268:186|340:221,1,90.9999972229005
428,275,3695,2,0,P|405:232|423:171,1,90.9999972229005
497,136,3877,2,0,B|472:96|472:96|324:76,1,181.999994445801
153,50,4150,6,0,P|206:50|237:77,1,90.9999972229005
134,161,4331,2,0,P|81:161|50:134,1,90.9999972229005
235,167,4513,2,0,B|250:193|250:193|243:259,1,90.9999972229005
124,349,4695,2,0,B|109:323|109:323|116:257,1,90.9999972229005
233,350,4877,5,0,0:0:0:0:
233,350,4968,2,0,B|276:334|276:334|334:349,1,90.9999972229005
426,361,5150,2,0,B|466:355|466:355|500:308,1,90.9999972229005
357,158,5331,2,0,P|357:207|478:180,1,181.999994445801
435,75,5604,6,0,B|407:62|407:62|336:75,1,90.9999972229005
269,155,5786,2,0,B|297:168|297:168|368:155,1,90.9999972229005
256,35,5968,6,0,P|204:45|171:79,1,84.4999961318971,8|0,0:0|0:0,0:0:0:0:
92,146,6150,1,0,0:0:0:0:
92,146,6331,6,0,L|93:240,1,84.4999961318971
181,274,6513,2,0,L|182:180,1,84.4999961318971
58,214,6695,2,0,L|59:308,1,84.4999961318971
147,342,6877,2,0,L|148:248,1,84.4999961318971
265,255,7059,6,0,P|276:302|268:350,1,84.4999961318971
379,282,7240,2,0,P|368:235|376:187,1,84.4999961318971
473,254,7422,1,0,0:0:0:0:
469,144,7513,1,0,0:0:0:0:
372,199,7604,1,0,0:0:0:0:
372,199,7786,6,0,P|341:163|350:108,1,84.4999961318971,8|0,0:0|0:0,0:0:0:0:
469,144,7968,2,0,P|500:108|491:53,1,84.4999961318971
379,8,8150,2,0,P|410:44|401:99,1,84.4999961318971
282,63,8332,2,0,P|251:99|260:154,1,84.4999961318971
291,297,8513,6,0,L|268:210,1,84.4999961318971
151,131,8695,2,0,L|174:218,1,84.4999961318971
187,313,8877,1,0,0:0:0:0:
97,257,8968,1,0,0:0:0:0:
73,359,9059,1,0,0:0:0:0:
73,359,9240,6,0,B|45:359|45:359|12:298,1,84.4999961318971,8|0,0:0|0:0,0:0:0:0:
42,207,9422,2,0,B|70:207|70:207|103:268,1,84.4999961318971
187,313,9604,2,0,P|174:269|206:222,1,84.4999961318971
325,223,9786,2,0,P|338:267|306:314,1,84.4999961318971
261,156,9968,6,0,B|290:142|290:142|359:155,1,84.4999961318971
403,296,10150,2,0,B|374:310|374:310|305:297,1,84.4999961318971
420,212,10331,1,0,0:0:0:0:
489,252,10421,1,0,0:0:0:0:
487,332,10512,1,0,0:0:0:0:
487,332,10695,5,8,0:0:0:0:
403,296,10786,1,0,0:0:0:0:
420,212,10877,1,0,0:0:0:0:
440,128,10968,1,0,0:0:0:0:
423,217,11059,2,0,B|371:231|325:190,1,84.4999961318971
255,60,11240,2,0,B|304:80|315:141,1,84.4999961318971
238,191,11422,5,0,0:0:0:0:
159,156,11512,1,0,0:0:0:0:
244,273,11603,1,0,0:0:0:0:
169,237,11694,1,0,0:0:0:0:
174,319,11786,2,0,B|216:364|216:364|367:338,1,168.999992263794,8|0,0:0|0:0,0:0:0:0:
487,282,12150,6,0,P|462:252|488:186,1,84.4999961318971,8|0,0:0|0:0,0:0:0:0:
491,58,12331,2,0,P|516:88|490:154,1,84.4999961318971
437,290,12513,2,0,P|417:256|454:195,1,84.4999961318971
479,70,12694,2,0,P|498:103|461:164,1,84.4999961318971
388,292,12877,2,0,P|374:255|421:202,1,84.4999961318971
467,82,13058,2,0,P|480:118|433:171,1,84.4999961318971
322,175,13240,2,0,P|308:138|355:85,1,84.4999961318971
392,215,13422,1,0,0:0:0:0:
392,215,13604,6,0,L|420:316,1,84.4999961318971,8|0,0:0|0:0,0:0:0:0:
512,348,13786,2,0,L|484:247,1,84.4999961318971
374,239,13968,2,0,L|402:340,1,84.4999961318971
494,372,14150,2,0,L|466:271,1,84.4999961318971
356,263,14331,2,0,L|384:364,1,84.4999961318971
260,309,14513,2,0,L|232:208,1,84.4999961318971
351,157,14695,2,0,L|379:258,1,84.4999961318971
262,140,14877,1,0,0:0:0:0:
262,140,15059,6,0,B|235:124|235:124|167:126,1,84.4999961318971,8|0,0:0|0:0,0:0:0:0:
82,224,15240,2,0,B|109:240|109:240|177:238,1,84.4999961318971
17,169,15422,2,0,B|1:196|1:196|3:264,1,84.4999961318971
147,318,15604,2,0,B|163:291|163:291|161:223,1,84.4999961318971
35,191,15786,2,0,B|19:218|19:218|21:286,1,84.4999961318971
165,340,15968,2,0,B|181:313|181:313|179:245,1,84.4999961318971
249,361,16150,2,0,L|388:360,1,84.4999961318971
449,358,16331,1,0,0:0:0:0:
449,358,16513,6,0,P|429:328|452:265,1,84.4999961318971,8|0,0:0|0:0,0:0:0:0:
512,153,16695,2,0,P|519:193|498:229,1,84.4999961318971
426,339,16877,2,0,P|406:309|429:246,1,84.4999961318971
489,134,17059,2,0,P|496:174|475:210,1,84.4999961318971
403,320,17240,2,0,P|383:290|406:227,1,84.4999961318971
466,115,17422,2,0,P|473:155|452:191,1,84.4999961318971
256,192,17604,6,0,L|256:96,1,84.4999961318971,8|0,0:0|0:0,0:0:0:0:
253,20,17786,1,0,0:0:0:0:
253,20,17968,5,8,0:0:0:0:
210,41,18058,1,0,0:0:0:0:
162,49,18149,1,0,0:0:0:0:
115,45,18240,1,0,0:0:0:0:
70,27,18331,5,0,0:0:0:0:
44,59,18421,1,0,0:0:0:0:
41,101,18512,1,0,0:0:0:0:
64,135,18603,1,0,0:0:0:0:
103,149,18695,5,0,0:0:0:0:
144,141,18785,1,0,0:0:0:0:
186,146,18876,1,0,0:0:0:0:
224,164,18967,1,0,0:0:0:0:
256,192,19059,6,0,L|256:96,1,84.4999961318971,8|0,0:0|0:0,0:0:0:0:
253,20,19240,1,0,0:0:0:0:
253,20,19422,5,8,0:0:0:0:
290,2,19512,1,0,0:0:0:0:
331,9,19603,1,0,0:0:0:0:
361,38,19694,1,0,0:0:0:0:
372,79,19787,5,0,0:0:0:0:
412,87,19877,1,0,0:0:0:0:
433,122,19968,1,0,0:0:0:0:
423,162,20059,1,0,0:0:0:0:
388,182,20150,5,0,0:0:0:0:
355,168,20240,1,0,0:0:0:0:
320,166,20331,1,0,0:0:0:0:
286,175,20422,1,0,0:0:0:0:
256,192,20513,6,0,L|256:96,1,84.4999961318971,8|0,0:0|0:0,0:0:0:0:
355,168,20695,1,0,0:0:0:0:
371,196,20785,1,0,0:0:0:0:
369,229,20876,1,0,0:0:0:0:
349,255,20967,1,0,0:0:0:0:
317,266,21058,1,0,0:0:0:0:
285,258,21149,1,0,0:0:0:0:
256,192,21240,6,0,L|256:96,1,84.4999961318971,8|0,0:0|0:0,0:0:0:0:
157,168,21422,1,0,0:0:0:0:
141,196,21512,1,0,0:0:0:0:
143,229,21603,1,0,0:0:0:0:
163,255,21694,1,0,0:0:0:0:
195,266,21785,1,0,0:0:0:0:
227,258,21876,1,0,0:0:0:0:
256,192,21968,6,0,L|256:96,1,84.4999961318971,8|0,0:0|0:0,0:0:0:0:
256,192,22150,2,0,L|256:96,1,84.4999961318971,8|0,0:0|0:0,0:0:0:0:
256,192,22331,2,0,L|256:96,1,84.4999961318971,8|0,0:0|0:0,0:0:0:0:
256,192,22513,2,0,L|256:96,1,84.4999961318971,8|0,0:0|0:0,0:0:0:0:
336,160,22695,5,8,0:0:0:0:
208,256,22786,1,8,0:0:0:0:
304,256,22877,1,8,0:0:0:0:
176,160,22968,1,8,0:0:0:0:
256,192,23059,1,8,0:0:0:0:
175,55,23422,6,0,P|120:52|54:162,1,181.999994445801,8|0,0:0|0:0,0:0:0:0:
52,260,23695,1,0,0:0:0:0:
133,324,23786,2,0,B|159:348|159:348|236:362,1,90.9999972229005
132,193,23968,2,0,B|158:169|158:169|235:155,1,90.9999972229005
302,224,24150,5,8,0:0:0:0:
375,172,24240,2,0,L|364:49,1,90.9999972229005
423,6,24422,5,0,0:0:0:0:
496,58,24512,2,0,L|485:181,1,90.9999972229005
366,81,24695,2,0,P|323:69|254:104,1,90.9999972229005
348,325,24877,6,0,B|376:334|401:353|401:353|450:294|555:320,1,181.999994445801,8|0,0:0|0:0,0:0:0:0:
441,233,25150,1,0,0:0:0:0:
341,234,25240,2,0,L|347:324,1,90.9999972229005
216,265,25422,2,0,P|224:220|284:177,1,90.9999972229005
328,136,25604,5,8,0:0:0:0:
250,90,25695,2,0,L|243:0,1,90.9999972229005
137,46,25877,1,0,0:0:0:0:
137,157,25968,2,0,P|96:176|51:173,1,90.9999972229005
51,29,26150,2,0,P|95:26|136:45,1,90.9999972229005
254,187,26331,6,0,B|291:220|337:227|337:227|386:213|433:121,1,181.999994445801,8|0,0:0|0:0,0:0:0:0:
382,66,26604,1,0,0:0:0:0:
328,136,26695,2,0,P|328:197|356:283,1,90.9999972229005
483,217,26877,2,0,P|483:156|455:70,1,90.9999972229005
417,295,27059,5,8,0:0:0:0:
371,383,27150,2,0,P|327:384|277:377,1,90.9999972229005
197,309,27331,1,0,0:0:0:0:
243,221,27422,2,0,P|287:219|337:227,1,90.9999972229005
386,131,27604,2,0,P|430:132|480:125,1,90.9999972229005
379,20,27786,6,0,P|336:20|150:26,1,181.999994445801,8|0,0:0|0:0,0:0:0:0:
172,112,28059,1,0,0:0:0:0:
74,91,28150,2,0,P|71:62|102:5,1,90.9999972229005
109,174,28331,2,0,P|112:203|81:260,1,90.9999972229005
24,196,28513,5,8,0:0:0:0:
23,318,28604,2,0,B|30:333|30:333|134:334,1,90.9999972229005
189,264,28786,1,0,0:0:0:0:
271,332,28877,2,0,P|283:301|282:213,1,90.9999972229005
290,113,29059,2,0,P|246:116|201:169,1,90.9999972229005
189,264,29240,6,0,B|228:300|228:300|391:225,1,181.999994445801,8|0,0:0|0:0,0:0:0:0:
426,144,29513,1,0,0:0:0:0:
444,248,29604,2,0,P|442:303|416:344,1,90.9999972229005
426,144,29786,2,0,P|413:90|380:55,1,90.9999972229005
290,113,29968,5,8,0:0:0:0:
216,73,30059,2,0,P|166:70|89:79,1,90.9999972229005
28,64,30240,5,0,0:0:0:0:
68,138,30331,2,0,P|71:188|62:265,1,90.9999972229005
216,159,30513,2,0,P|213:209|222:286,1,90.9999972229005
184,331,30695,6,0,P|249:274|327:310,1,181.999994445801,8|0,0:0|0:0,0:0:0:0:
430,361,30968,1,0,0:0:0:0:
490,284,31059,2,0,B|496:250|496:250|482:166,1,90.9999972229005
348,307,31240,2,0,B|334:275|334:275|329:190,1,90.9999972229005
387,110,31422,5,8,0:0:0:0:
303,93,31513,2,0,P|261:107|217:157,1,90.9999972229005
198,222,31695,1,0,0:0:0:0:
135,167,31786,2,0,L|131:76,1,90.9999972229005
19,8,31968,2,0,L|22:98,1,90.9999972229005
67,220,32150,6,0,B|95:267|95:267|172:265|172:265|210:199,1,181.999994445801,8|0,0:0|0:0,0:0:0:0:
227,138,32422,1,0,0:0:0:0:
290,225,32513,2,0,P|284:269|306:309,1,90.9999972229005
442,225,32695,2,0,P|447:266|403:324,1,90.9999972229005
368,178,32877,5,8,0:0:0:0:
306,119,32968,2,0,B|299:83|299:83|340:9,1,90.9999972229005
403,83,33150,1,0,0:0:0:0:
306,119,33240,2,0,P|261:127|194:110,1,90.9999972229005
62,26,33422,2,0,P|107:18|174:35,1,90.9999972229005
116,143,33604,6,0,P|102:219|74:323,1,181.999994445801,8|0,0:0|0:0,0:0:0:0:
190,248,33877,1,0,0:0:0:0:
276,301,33968,2,0,B|270:351|270:351|234:328,1,90.9999972229005
190,248,34150,2,0,B|196:198|196:198|232:221,1,90.9999972229005
339,189,34331,5,8,0:0:0:0:
266,125,34422,2,0,B|290:105|290:105|382:103,1,90.9999972229005
416,157,34604,1,0,0:0:0:0:
464,87,34695,2,0,P|467:61|448:-3,1,90.9999972229005
416,157,34877,2,0,P|413:183|432:247,1,90.9999972229005
500,348,35059,6,0,B|409:386|383:272|297:355,1,181.999994445801,8|0,0:0|0:0,0:0:0:0:
182,348,35331,1,0,0:0:0:0:
87,280,35422,2,0,B|108:254|108:254|202:249,1,90.9999972229005
256,200,35604,1,0,0:0:0:0:
228,122,35694,1,0,0:0:0:0:
149,147,35786,2,0,P|92:139|77:65,1,90.9999972229005
225,28,35968,2,0,B|286:18|286:18|353:147,1,181.999994445801
347,235,36240,5,0,0:0:0:0:
347,170,36331,1,0,0:0:0:0:
402,202,36422,1,0,0:0:0:0:
404,268,36513,2,0,B|378:321|378:321|251:326,1,181.999994445801,8|0,0:0|0:0,0:0:0:0:
125,308,36786,1,0,0:0:0:0:
125,308,36877,1,0,0:0:0:0:
111,217,36968,5,0,0:0:0:0:
191,246,37059,1,0,0:0:0:0:
100,222,37150,1,0,0:0:0:0:
25,161,37240,2,0,B|9:125|9:125|44:79,1,90.9999972229005
105,14,37422,2,0,P|187:5|225:97,1,181.999994445801
198,166,37695,5,0,0:0:0:0:
276,247,37786,2,0,P|316:263|409:228,1,90.9999972229005
459,134,37968,2,0,P|419:118|326:153,1,90.9999972229005,8|0,0:0|0:0,0:0:0:0:
439,318,38150,2,0,B|461:287|461:287|461:204,1,90.9999972229005
327,177,38331,5,0,0:0:0:0:
276,247,38422,1,0,0:0:0:0:
318,322,38512,1,0,0:0:0:0:
226,324,38604,1,0,0:0:0:0:
153,269,38695,2,0,P|122:236|114:147,1,90.9999972229005
0,322,38877,2,0,B|30:276|30:276|107:306|191:247,1,181.999994445801
318,322,39150,1,0,0:0:0:0:
395,277,39240,2,0,L|479:221,1,90.9999972229005
384,101,39422,6,0,B|358:118|358:118|358:185,1,90.9999972229005,8|0,0:0|0:0,0:0:0:0:
486,143,39604,2,0,B|512:126|512:126|512:59,1,90.9999972229005
383,43,39786,5,0,0:0:0:0:
384,101,39876,1,0,0:0:0:0:
313,132,39967,1,0,0:0:0:0:
271,68,40058,1,0,0:0:0:0:
174,95,40150,6,0,B|171:145|171:145|209:108,1,90.9999972229005
151,10,40331,2,0,B|78:17|78:17|35:57|35:57|33:126,1,181.999994445801
78,188,40604,1,0,0:0:0:0:
12,261,40695,2,0,B|3:307|3:307|35:346,1,90.9999972229005
190,288,40877,2,0,B|199:242|199:242|167:203,1,90.9999972229005,8|0,0:0|0:0,0:0:0:0:
124,353,41059,2,0,B|149:373|149:373|243:372,1,90.9999972229005
323,338,41240,5,0,0:0:0:0:
388,292,41330,1,0,0:0:0:0:
331,236,41421,1,0,0:0:0:0:
266,281,41513,1,0,0:0:0:0:
331,236,41604,2,0,B|347:124,1,90.9999972229005
421,99,41786,2,0,P|394:48|283:104,1,181.999994445801
193,176,42059,5,0,0:0:0:0:
87,149,42150,2,0,B|71:128|71:128|71:46,1,90.9999972229005
289,72,42331,2,0,B|305:93|305:93|305:175,1,90.9999972229005,8|0,0:0|0:0,0:0:0:0:
192,266,42513,2,0,L|193:148,1,90.9999972229005
303,272,42695,5,0,0:0:0:0:
356,255,42785,1,0,0:0:0:0:
406,282,42876,1,0,0:0:0:0:
456,247,42967,1,0,0:0:0:0:
468,346,43059,2,0,P|439:368|369:359,1,90.9999972229005
238,354,43240,6,0,B|178:330|178:330|112:336|112:336|109:260,1,181.999994445801
240,156,43513,1,0,0:0:0:0:
279,178,43604,1,0,0:0:0:0:
240,202,43695,1,0,0:0:0:0:
143,181,43786,6,0,P|123:147|137:93,1,90.9999972229005,8|0,0:0|0:0,0:0:0:0:
369,181,43968,2,0,P|389:147|375:93,1,90.9999972229005
136,174,44150,6,0,P|116:140|130:86,1,90.9999972229005
376,174,44332,2,0,P|396:140|382:86,1,90.9999972229005
129,167,44513,6,0,P|109:133|123:79,1,90.9999972229005,8|0,0:0|0:0,0:0:0:0:
383,168,44695,2,0,P|403:134|389:80,1,90.9999972229005
122,160,44877,6,0,P|102:126|116:72,1,90.9999972229005
389,161,45059,2,0,P|409:127|395:73,1,90.9999972229005
209,21,45240,5,8,0:0:0:0:
242,49,45331,1,0,0:0:0:0:
184,69,45422,5,0,0:0:0:0:
227,82,45513,1,0,0:0:0:0:
182,123,45604,5,8,0:0:0:0:
228,117,45695,1,0,0:0:0:0:
198,175,45786,5,0,0:0:0:0:
237,154,45877,1,0,0:0:0:0:
224,213,45968,5,8,0:0:0:0:
267,163,46059,1,0,0:0:0:0:
296,247,46150,5,0,0:0:0:0:
315,183,46241,1,0,0:0:0:0:
375,249,46332,5,8,0:0:0:0:
366,182,46423,1,0,0:0:0:0:
451,226,46514,5,0,0:0:0:0:
419,169,46604,1,0,0:0:0:0:
507,170,46695,5,0,0:0:0:0:
256,192,46786,12,0,49513,0:0:0:0:
256,192,49604,12,0,52422,0:0:0:0:
256,192,52513,12,0,55331,0:0:0:0:
256,192,55422,12,0,58240,0:0:0:0:
464,320,58331,6,0,P|477:265|443:209,1,84.4999961318971
395,125,58513,1,0,0:0:0:0:
367,117,58695,6,0,L|369:208,1,84.4999961318971
253,291,58877,1,0,0:0:0:0:
281,298,58968,1,0,0:0:0:0:
312,301,59059,6,0,B|361:307|361:307|413:271,1,84.4999961318971
464,204,59240,1,0,0:0:0:0:
464,204,59331,2,0,B|433:164|433:164|313:215,1,168.999992263794
113,280,59604,2,0,P|73:253|153:234,1,168.999992263794
144,213,59877,1,0,0:0:0:0:
144,213,59968,1,0,0:0:0:0:
215,83,60150,5,0,0:0:0:0:
132,99,60240,1,0,0:0:0:0:
49,115,60331,1,0,0:0:0:0:
15,237,60422,6,0,B|57:224|57:224|152:244|152:244|99:261,1,168.999992263794
78,335,60695,2,0,B|122:378|122:378|159:380|159:380|255:360,1,168.999992263794
312,323,60968,2,0,B|307:279|307:279|331:240|331:240|376:250|400:308,1,168.999992263794
490,324,61240,1,0,0:0:0:0:
482,276,61331,1,0,0:0:0:0:
469,231,61422,1,0,0:0:0:0:
379,117,61604,6,0,B|333:107|333:107|285:129,1,84.4999961318971
214,217,61786,1,0,0:0:0:0:
193,214,61877,1,0,0:0:0:0:
171,210,61968,6,0,B|147:198|147:198|108:145,1,84.4999961318971
62,51,62150,2,0,B|115:21|115:21|174:19|174:19|258:48,1,168.999992263794
313,39,62422,1,0,0:0:0:0:
330,33,62513,1,0,0:0:0:0:
439,92,62695,5,0,0:0:0:0:
434,158,62785,1,0,0:0:0:0:
430,224,62876,1,0,0:0:0:0:
434,329,62968,1,0,0:0:0:0:
420,344,63059,6,0,B|359:341|359:341|313:336|327:278|253:308,1,168.999992263794
122,349,63331,2,0,B|164:324|164:324|134:255|134:255|157:209,1,168.999992263794
149,95,63604,2,0,B|142:59|86:41|86:41|58:110|77:165,1,168.999992263794
23,194,63877,1,0,0:0:0:0:
9,204,63968,1,0,0:0:0:0:
278,130,64150,6,0,P|345:125|396:178,1,84.4999961318971
441,243,64331,1,0,0:0:0:0:
418,226,64513,6,0,L|454:132,1,84.4999961318971
463,23,64695,1,0,0:0:0:0:
417,27,64786,1,0,0:0:0:0:
379,52,64877,2,0,B|324:50|324:50|290:30,1,84.4999961318971
197,26,65059,1,0,0:0:0:0:
197,26,65150,6,0,L|205:124,1,84.4999961318971
136,203,65331,1,0,0:0:0:0:
136,203,65422,1,0,0:0:0:0:
245,287,65604,5,0,0:0:0:0:
276,311,65695,1,0,0:0:0:0:
302,318,65786,2,0,B|353:298|353:298|425:329,1,84.4999961318971
500,349,65968,6,0,P|538:306|448:216,1,168.999992263794
301,198,66240,2,0,B|269:151|269:151|376:108,1,168.999992263794
495,31,66513,2,0,B|425:57|394:10|328:36,1,168.999992263794
220,49,66786,1,0,0:0:0:0:
199,38,66877,1,0,0:0:0:0:
71,92,67059,6,0,P|49:136|64:180,1,84.4999961318971
141,271,67240,1,0,0:0:0:0:
149,255,67331,1,0,0:0:0:0:
163,249,67422,6,0,B|201:242|201:242|274:288,1,84.4999961318971
397,281,67604,1,0,0:0:0:0:
351,242,67694,1,0,0:0:0:0:
306,205,67785,1,0,0:0:0:0:
406,155,67968,5,0,0:0:0:0:
413,146,68059,2,0,P|410:73|316:88,1,168.999992263794
310,98,68331,1,0,0:0:0:0:
187,194,68513,5,0,0:0:0:0:
156,106,68604,1,0,0:0:0:0:
94,184,68786,5,0,0:0:0:0:
63,272,68877,1,0,0:0:0:0:
221,282,69059,5,0,0:0:0:0:
317,287,69150,1,0,0:0:0:0:
366,180,69331,5,0,0:0:0:0:
270,185,69422,1,0,0:0:0:0:
440,247,69604,5,0,0:0:0:0:
473,338,69695,1,0,0:0:0:0:
97,66,69968,5,0,0:0:0:0:
140,97,70089,1,0,0:0:0:0:
193,103,70210,1,0,0:0:0:0:
242,82,70331,1,0,0:0:0:0:
275,39,70453,5,0,0:0:0:0:
378,103,70574,1,0,0:0:0:0:
254,78,70695,1,0,0:0:0:0:
368,116,70816,5,0,0:0:0:0:
252,125,70937,1,0,0:0:0:0:
367,134,71059,1,0,0:0:0:0:
267,157,71180,1,0,0:0:0:0:
376,149,71301,1,0,0:0:0:0:
266,200,71422,5,0,0:0:0:0:
306,227,71543,1,0,0:0:0:0:
353,237,71664,1,0,0:0:0:0:
401,230,71785,1,0,0:0:0:0:
443,206,71907,1,0,0:0:0:0:
406,227,72028,1,0,0:0:0:0:
388,265,72149,1,0,0:0:0:0:
398,307,72270,1,0,0:0:0:0:
430,337,72392,1,0,0:0:0:0:
377,313,72513,1,0,0:0:0:0:
320,312,72634,1,0,0:0:0:0:
266,333,72755,1,0,0:0:0:0:
287,362,72877,5,0,0:0:0:0:
233,357,72998,1,0,0:0:0:0:
185,333,73119,1,0,0:0:0:0:
151,291,73240,1,0,0:0:0:0:
136,240,73361,5,0,0:0:0:0:
115,378,73483,1,0,0:0:0:0:
157,247,73604,5,0,0:0:0:0:
94,362,73726,1,0,0:0:0:0:
173,260,73846,5,0,0:0:0:0:
80,342,73968,1,0,0:0:0:0:
183,277,74089,5,0,0:0:0:0:
73,319,74211,1,0,0:0:0:0:
186,296,74331,5,0,0:0:0:0:
74,296,74453,1,0,0:0:0:0:
182,314,74574,5,0,0:0:0:0:
82,277,74696,1,0,0:0:0:0:
173,329,74816,5,0,0:0:0:0:
94,263,74938,1,0,0:0:0:0:
159,339,75059,5,0,0:0:0:0:
111,255,75181,1,0,0:0:0:0:
143,344,75301,5,0,0:0:0:0:
127,252,75423,1,0,0:0:0:0:
127,344,75543,5,0,0:0:0:0:
142,255,75665,1,0,0:0:0:0:
112,337,75786,5,0,0:0:0:0:
71,322,75907,1,0,0:0:0:0:
43,290,76028,1,0,0:0:0:0:
36,247,76149,1,0,0:0:0:0:
51,206,76270,5,0,0:0:0:0:
118,241,76392,1,0,0:0:0:0:
101,171,76513,5,0,0:0:0:0:
169,207,76635,1,0,0:0:0:0:
152,137,76756,5,0,0:0:0:0:
220,173,76878,1,0,0:0:0:0:
203,102,76998,5,0,0:0:0:0:
271,138,77120,1,0,0:0:0:0:
254,68,77241,5,0,0:0:0:0:
322,104,77363,1,0,0:0:0:0:
305,34,77483,5,0,0:0:0:0:
373,70,77605,1,0,0:0:0:0:
356,0,77724,5,0,0:0:0:0:
424,36,77846,1,0,0:0:0:0:
428,67,77967,1,0,0:0:0:0:
446,94,78088,1,0,0:0:0:0:
474,111,78209,1,0,0:0:0:0:
506,114,78332,5,0,0:0:0:0:
451,127,78453,1,0,0:0:0:0:
421,174,78574,1,0,0:0:0:0:
431,230,78695,5,0,0:0:0:0:
474,267,78816,1,0,0:0:0:0:
502,291,78937,1,0,0:0:0:0:
493,328,79058,1,0,0:0:0:0:
457,336,79180,1,0,0:0:0:0:
407,315,79301,1,0,0:0:0:0:
353,308,79422,1,0,0:0:0:0:
300,315,79543,1,0,0:0:0:0:
250,336,79665,1,0,0:0:0:0:
212,315,79786,1,0,0:0:0:0:
169,308,79907,1,0,0:0:0:0:
127,315,80028,1,0,0:0:0:0:
89,335,80150,5,0,0:0:0:0:
55,289,80271,1,0,0:0:0:0:
54,232,80392,1,0,0:0:0:0:
81,183,80513,1,0,0:0:0:0:
59,152,80634,1,0,0:0:0:0:
79,121,80755,1,0,0:0:0:0:
116,129,80877,5,0,0:0:0:0:
183,76,80998,1,0,0:0:0:0:
268,76,81119,1,0,0:0:0:0:
256,112,81240,5,0,0:0:0:0:
308,70,81361,1,0,0:0:0:0:
374,70,81482,1,0,0:0:0:0:
352,160,81604,5,0,0:0:0:0:
349,176,81694,1,0,0:0:0:0:
347,192,81785,1,0,0:0:0:0:
345,208,81876,1,0,0:0:0:0:
341,225,81969,5,0,0:0:0:0:
388,227,82059,1,0,0:0:0:0:
424,259,82150,1,0,0:0:0:0:
433,306,82241,1,0,0:0:0:0:
350,253,82331,5,0,0:0:0:0:
373,272,82421,1,0,0:0:0:0:
380,302,82512,1,0,0:0:0:0:
367,330,82603,1,0,0:0:0:0:
328,276,82695,5,0,0:0:0:0:
337,294,82785,1,0,0:0:0:0:
334,316,82876,1,0,0:0:0:0:
317,330,82967,1,0,0:0:0:0:
290,331,83059,6,0,L|202:313,1,65
245,349,83240,2,0,L|157:331,1,65
42,248,83422,6,0,L|130:266,1,65
87,230,83603,2,0,L|175:248,1,65
367,174,83786,6,0,L|279:156,1,65
322,192,83967,2,0,L|234:174,1,65
119,91,84149,6,0,L|207:109,1,65
164,73,84330,2,0,L|252:91,1,65
338,56,84513,5,0,0:0:0:0:
378,71,84603,1,0,0:0:0:0:
421,70,84694,1,0,0:0:0:0:
461,54,84785,1,0,0:0:0:0:
494,25,84877,5,0,0:0:0:0:
472,68,84967,1,0,0:0:0:0:
469,116,85058,1,0,0:0:0:0:
485,162,85149,1,0,0:0:0:0:
512,203,85240,5,0,0:0:0:0:
482,215,85330,1,0,0:0:0:0:
464,241,85421,1,0,0:0:0:0:
463,273,85512,1,0,0:0:0:0:
480,301,85604,5,0,0:0:0:0:
449,292,85694,1,0,0:0:0:0:
417,297,85785,1,0,0:0:0:0:
391,315,85876,1,0,0:0:0:0:
374,343,85968,6,0,L|289:338,1,65
338,314,86150,2,0,L|252:308,1,65
34,318,86331,6,0,L|119:312,1,65
70,288,86513,2,0,L|155:282,1,65
346,203,86695,6,0,L|260:197,1,65
309,173,86877,2,0,L|223:167,1,65
5,177,87058,6,0,L|90:171,1,65
41,147,87240,2,0,L|126:141,1,65
215,78,87422,5,0,0:0:0:0:
263,78,87512,1,0,0:0:0:0:
310,64,87603,1,0,0:0:0:0:
350,38,87694,1,0,0:0:0:0:
381,0,87786,5,0,0:0:0:0:
384,63,87876,1,0,0:0:0:0:
434,102,87967,1,0,0:0:0:0:
496,90,88058,1,0,0:0:0:0:
512,37,88149,5,0,0:0:0:0:
469,51,88240,1,0,0:0:0:0:
434,102,88331,1,0,0:0:0:0:
452,163,88422,1,0,0:0:0:0:
508,190,88513,5,0,0:0:0:0:
512,233,88603,1,0,0:0:0:0:
512,281,88694,1,0,0:0:0:0:
487,316,88785,1,0,0:0:0:0:
440,326,88877,6,0,L|348:307,1,65
417,288,89059,2,0,L|324:268,1,65
80,327,89240,6,0,L|172:307,1,65
103,288,89422,2,0,L|195:268,1,65
386,186,89604,6,0,L|293:166,1,65
362,147,89786,2,0,L|269:127,1,65
25,186,89967,6,0,L|117:166,1,65
48,147,90149,2,0,L|140:127,1,65
200,42,90331,5,0,0:0:0:0:
230,21,90422,1,0,0:0:0:0:
267,28,90513,1,0,0:0:0:0:
286,58,90604,1,0,0:0:0:0:
279,94,90695,1,0,0:0:0:0:
249,115,90786,1,0,0:0:0:0:
213,108,90877,1,0,0:0:0:0:
193,76,90968,1,0,0:0:0:0:
200,42,91059,5,0,0:0:0:0:
240,15,91150,1,0,0:0:0:0:
287,24,91241,1,0,0:0:0:0:
313,64,91332,1,0,0:0:0:0:
303,109,91423,1,0,0:0:0:0:
263,136,91514,1,0,0:0:0:0:
217,127,91605,1,0,0:0:0:0:
190,87,91696,1,0,0:0:0:0:
200,42,91786,6,0,B|220:24|220:24|327:29,1,84.4999961318971
435,165,91968,2,0,B|415:183|415:183|308:178,1,84.4999961318971
466,22,92150,6,0,B|484:42|484:42|479:149,1,84.4999961318971
372,257,92332,2,0,B|354:237|354:237|359:130,1,84.4999961318971
262,99,92513,6,0,B|244:119|244:119|249:226,1,84.4999961318971
419,242,92695,2,0,B|437:222|437:222|432:115,1,84.4999961318971
200,237,92877,2,0,P|250:254|303:237,1,84.4999961318971
311,46,93059,2,0,P|261:29|208:46,1,84.4999961318971
106,62,93240,6,0,B|64:112|64:112|67:264,1,195.00000743866,10|0,0:0|0:0,0:0:0:0:
150,325,93513,1,0,0:0:0:0:
232,237,93604,2,0,P|236:177|212:119,1,97.50000371933,2|0,0:0|0:0,0:0:0:0:
143,229,93786,2,0,P|139:289|163:347,1,97.50000371933,2|0,0:0|0:0,0:0:0:0:
267,330,93968,5,2,0:0:0:0:
327,238,94059,1,0,0:0:0:0:
232,237,94150,1,2,0:0:0:0:
387,335,94240,1,0,0:0:0:0:
320,152,94331,6,0,P|377:142|436:174,1,97.50000371933,2|2,0:0|0:0,0:0:0:0:
512,258,94513,2,0,P|455:268|396:236,1,97.50000371933,2|2,0:0|0:0,0:0:0:0:
171,81,94695,2,0,B|205:36|205:36|355:34,1,195.00000743866,10|0,0:0|0:0,0:0:0:0:
461,4,94968,1,0,0:0:0:0:
498,106,95059,5,0,0:0:0:0:
498,106,95150,2,0,B|451:180|394:80|295:171,1,195.00000743866,2|2,0:0|0:0,0:0:0:0:
138,178,95422,2,0,P|205:172|267:284,1,195.00000743866,2|0,0:0|0:0,0:0:0:0:
217,343,95695,1,0,0:0:0:0:
217,343,95786,2,0,B|174:319|174:319|121:328,1,97.50000371933,2|0,0:0|0:0,0:0:0:0:
0,260,95968,2,0,B|43:236|43:236|96:245,1,97.50000371933
344,339,96150,6,0,B|387:336|434:347|434:347|468:329|494:243,1,195.00000743866,10|0,0:0|0:0,0:0:0:0:
429,146,96422,1,0,0:0:0:0:
500,68,96513,5,2,0:0:0:0:
511,172,96604,1,2,0:0:0:0:
414,127,96695,1,2,0:0:0:0:
475,50,96786,1,2,0:0:0:0:
399,115,96877,6,0,P|350:122|294:104,1,97.50000371933,2|0,0:0|0:0,0:0:0:0:
179,13,97059,2,0,P|228:6|284:24,1,97.50000371933,2|2,0:0|0:0,0:0:0:0:
138,172,97240,2,0,B|115:140|115:140|116:56,1,97.50000371933,2|2,0:0|0:0,0:0:0:0:
304,109,97422,2,0,B|327:141|327:141|326:225,1,97.50000371933,2|2,0:0|0:0,0:0:0:0:
250,317,97604,6,0,B|213:299|202:268|202:268|138:299|61:303,1,195.00000743866,10|0,0:0|0:0,0:0:0:0:
3,384,97877,2,0,L|117:373,1,97.50000371933
250,317,98059,2,0,P|318:290|403:380,1,195.00000743866,2|2,0:0|0:0,0:0:0:0:
349,271,98331,2,0,B|494:284|494:284|441:236,1,195.00000743866,2|0,0:0|0:0,0:0:0:0:
348,166,98604,1,0,0:0:0:0:
424,36,98695,6,0,P|445:96|431:140,1,97.50000371933,2|0,0:0|0:0,0:0:0:0:
262,121,98877,2,0,P|241:61|255:17,1,97.50000371933
348,166,99059,6,0,B|253:247|211:163|157:214,1,195.00000743866,10|0,0:0|0:0,0:0:0:0:
57,285,99331,1,0,0:0:0:0:
57,285,99422,6,0,B|82:312|82:312|182:316,1,97.50000371933,2|0,0:0|0:0,0:0:0:0:
251,236,99604,2,0,B|226:209|226:209|126:205,1,97.50000371933,2|0,0:0|0:0,0:0:0:0:
309,335,99786,2,0,P|335:301|338:244,1,97.50000371933,2|0,0:0|0:0,0:0:0:0:
195,119,99968,2,0,P|169:153|166:210,1,97.50000371933,2|0,0:0|0:0,0:0:0:0:
210,366,100150,5,2,0:0:0:0:
251,237,100240,1,2,0:0:0:0:
309,335,100331,1,2,0:0:0:0:
168,283,100422,1,2,0:0:0:0:
347,325,100513,6,0,B|398:282|398:282|397:141,1,195.00000743866,10|0,0:0|0:0,0:0:0:0:
340,70,100786,1,0,0:0:0:0:
488,158,100877,1,0,0:0:0:0:
488,158,100968,2,0,B|425:129|425:129|368:181|285:150,1,195.00000743866,2|2,0:0|0:0,0:0:0:0:
168,283,101240,2,0,B|231:254|231:254|288:306|371:275,1,195.00000743866,2|0,0:0|0:0,0:0:0:0:
460,238,101513,1,0,0:0:0:0:
460,238,101604,6,0,B|476:269|476:269|476:336,1,97.50000371933,2|0,0:0|0:0,0:0:0:0:
363,375,101786,2,0,B|347:344|347:344|347:277,1,97.50000371933
377,109,101968,6,0,P|348:160|223:127,1,195.00000743866,10|0,0:0|0:0,0:0:0:0:
158,38,102240,1,0,0:0:0:0:
44,115,102331,6,0,L|43:220,1,97.50000371933,2|0,0:0|0:0,0:0:0:0:
142,281,102513,2,0,L|143:176,1,97.50000371933,2|0,0:0|0:0,0:0:0:0:
30,334,102695,2,0,B|51:367|51:367|123:377,1,97.50000371933,2|0,0:0|0:0,0:0:0:0:
220,322,102877,2,0,B|199:289|199:289|127:279,1,97.50000371933,2|0,0:0|0:0,0:0:0:0:
318,363,103059,2,0,P|336:326|318:246,1,97.50000371933,2|0,0:0|0:0,0:0:0:0:
254,128,103240,2,0,P|236:165|254:245,1,97.50000371933,2|0,0:0|0:0,0:0:0:0:
448,337,103422,6,0,L|416:223,1,97.50000371933,2|0,0:0|0:0,0:0:0:0:
458,69,103604,2,0,L|490:183,1,97.50000371933,2|0,0:0|0:0,0:0:0:0:
332,270,103786,2,0,L|300:156,1,97.50000371933,2|0,0:0|0:0,0:0:0:0:
342,2,103968,2,0,L|374:116,1,97.50000371933,2|0,0:0|0:0,0:0:0:0:
164,103,104150,6,0,B|134:85|134:85|203:51,1,97.50000371933,2|0,0:0|0:0,0:0:0:0:
305,176,104331,2,0,B|335:194|335:194|266:228,1,97.50000371933,2|0,0:0|0:0,0:0:0:0:
273,72,104513,2,0,B|291:42|291:42|325:111,1,97.50000371933,2|0,0:0|0:0,0:0:0:0:
192,210,104694,2,0,B|174:240|174:240|140:171,1,97.50000371933,2|0,0:0|0:0,0:0:0:0:
41,264,104877,6,0,P|55:312|219:314,1,195.00000743866,10|0,0:0|0:0,0:0:0:0:
286,310,105150,1,0,0:0:0:0:
286,310,105240,2,0,L|386:334,1,97.50000371933,2|0,0:0|0:0,0:0:0:0:
512,246,105422,2,0,L|412:222,1,97.50000371933,2|0,0:0|0:0,0:0:0:0:
318,98,105604,6,0,P|295:143|303:195,1,97.50000371933,2|0,0:0|0:0,0:0:0:0:
204,136,105786,2,0,P|181:91|189:39,1,97.50000371933,2|0,0:0|0:0,0:0:0:0:
220,226,105968,2,0,B|152:232|152:232|99:200,1,97.50000371933,2|0,0:0|0:0,0:0:0:0:
318,98,106150,2,0,B|386:92|386:92|439:124,1,97.50000371933,2|0,0:0|0:0,0:0:0:0:
465,185,106331,5,2,0:0:0:0:
437,227,106422,1,0,0:0:0:0:
465,268,106513,1,2,0:0:0:0:
437,311,106604,1,0,0:0:0:0:
361,357,106695,5,2,0:0:0:0:
333,315,106786,1,0,0:0:0:0:
360,274,106877,1,2,0:0:0:0:
333,231,106968,1,0,0:0:0:0:
374,165,107059,6,0,P|337:128|268:131,1,97.50000371933,2|0,0:0|0:0,0:0:0:0:
171,75,107240,2,0,P|208:38|277:41,1,97.50000371933,2|0,0:0|0:0,0:0:0:0:
208,165,107422,2,0,B|180:184|180:184|102:184,1,97.50000371933,2|0,0:0|0:0,0:0:0:0:
293,202,107604,1,2,0:0:0:0:
316,250,107695,1,0,0:0:0:0:
297,323,107786,6,0,P|344:352|433:240,1,195.00000743866,10|0,0:0|0:0,0:0:0:0:
477,170,108059,1,0,0:0:0:0:
477,170,108150,2,0,L|455:51,1,97.50000371933,2|0,0:0|0:0,0:0:0:0:
276,107,108331,2,0,L|298:226,1,97.50000371933,2|0,0:0|0:0,0:0:0:0:
75,170,108513,2,0,L|97:51,1,97.50000371933,2|0,0:0|0:0,0:0:0:0:
276,107,108695,2,0,L|254:226,1,97.50000371933,2|0,0:0|0:0,0:0:0:0:
193,303,108877,2,0,P|243:333|305:296,1,97.50000371933,2|0,0:0|0:0,0:0:0:0:
512,235,109059,2,0,P|462:265|400:228,1,97.50000371933,2|0,0:0|0:0,0:0:0:0:
352,188,109240,5,2,0:0:0:0:
258,202,109331,1,0,0:0:0:0:
351,176,109422,1,2,0:0:0:0:
258,186,109513,1,0,0:0:0:0:
350,169,109604,1,2,0:0:0:0:
443,159,109695,1,0,0:0:0:0:
350,157,109786,1,2,0:0:0:0:
443,143,109877,1,0,0:0:0:0:
354,147,109968,6,0,L|281:51,1,97.50000371933,2|0,0:0|0:0,0:0:0:0:
129,67,110150,2,0,L|202:163,1,97.50000371933,2|0,0:0|0:0,0:0:0:0:
199,253,110331,5,2,0:0:0:0:
94,306,110422,1,0,0:0:0:0:
103,198,110513,1,2,0:0:0:0:
188,258,110604,1,2,0:0:0:0:
186,363,110695,6,0,P|243:393|383:312,1,195.00000743866,10|0,0:0|0:0,0:0:0:0:
431,240,110968,1,0,0:0:0:0:
431,240,111059,2,0,B|407:203|407:203|406:132,1,97.50000371933,2|0,0:0|0:0,0:0:0:0:
488,36,111240,2,0,B|512:73|512:73|513:144,1,97.50000371933,2|0,0:0|0:0,0:0:0:0:
322,201,111422,2,0,L|321:67,1,97.50000371933,2|0,0:0|0:0,0:0:0:0:
512,126,111604,2,0,L|513:260,1,97.50000371933,2|0,0:0|0:0,0:0:0:0:
448,329,111786,2,0,P|424:282|441:223,1,97.50000371933,2|0,0:0|0:0,0:0:0:0:
512,379,111968,2,0,L|413:378,1,97.50000371933,2|0,0:0|0:0,0:0:0:0:
232,296,112150,5,2,0:0:0:0:
344,347,112240,1,0,0:0:0:0:
261,351,112331,1,2,0:0:0:0:
374,293,112422,1,0,0:0:0:0:
208,289,112513,5,2,0:0:0:0:
393,284,112603,1,0,0:0:0:0:
245,360,112694,1,2,0:0:0:0:
354,354,112785,1,0,0:0:0:0:
296,245,112877,2,0,P|284:198|303:127,1,97.50000371933,2|0,0:0|0:0,0:0:0:0:
446,104,113059,2,0,P|458:151|439:222,1,97.50000371933,2|0,0:0|0:0,0:0:0:0:
335,67,113241,5,2,0:1:0:0:
314,36,113330,1,0,0:0:0:0:
301,67,113422,1,2,0:1:0:0:
290,44,113513,1,2,0:1:0:0:
275,54,113604,6,0,P|212:58|153:60,1,97.50000371933,10|0,0:0|0:0,0:0:0:0:
19,166,113786,2,0,P|82:170|141:172,1,97.50000371933,2|0,0:0|0:0,0:0:0:0:
301,251,113968,2,0,P|238:255|179:257,1,97.50000371933,2|0,0:0|0:0,0:0:0:0:
21,355,114150,2,0,P|84:359|143:361,1,97.50000371933,2|0,0:0|0:0,0:0:0:0:
401,290,114331,6,0,P|397:227|395:168,1,97.50000371933,2|0,0:0|0:0,0:0:0:0:
306,42,114513,2,0,P|302:105|300:164,1,97.50000371933,2|0,0:0|0:0,0:0:0:0:
226,338,114695,2,0,P|222:275|220:216,1,97.50000371933,2|0,0:0|0:0,0:0:0:0:
129,93,114877,2,0,P|125:156|123:215,1,97.50000371933,2|0,0:0|0:0,0:0:0:0:
98,330,115059,5,2,0:0:0:0:
74,252,115150,1,0,0:0:0:0:
24,325,115240,1,2,0:0:0:0:
0,247,115331,1,0,0:0:0:0:
74,252,115422,5,2,0:0:0:0:
59,171,115513,1,0,0:0:0:0:
136,213,115603,1,2,0:0:0:0:
123,133,115694,1,0,0:0:0:0:
176,283,115786,6,0,P|232:290|276:276,1,97.50000371933,2|0,0:0|0:0,0:0:0:0:
348,154,115968,2,0,P|292:147|248:161,1,97.50000371933,2|0,0:0|0:0,0:0:0:0:
409,241,116150,5,2,0:0:0:0:
348,154,116240,1,0,0:0:0:0:
464,114,116331,1,2,0:0:0:0:
337,44,116422,1,2,0:0:0:0:
458,12,116513,5,14,0:0:0:0:
256,192,116604,12,0,119422,0:0:0:0:
