osu file format v14

[General]
AudioFilename: audio.mp3
AudioLeadIn: 0
PreviewTime: 71510
Countdown: 0
SampleSet: Soft
StackLeniency: 0.2
Mode: 0
LetterboxInBreaks: 0
WidescreenStoryboard: 1

[Editor]
Bookmarks: 39155
DistanceSpacing: 1
BeatDivisor: 4
GridSize: 32
TimelineZoom: 4.700004

[Metadata]
Title:Ryoushi no Umi no Lindwurm
TitleUnicode:量子の海のリントヴルム
Artist:Kuroneko Dungeon
ArtistUnicode:黒猫ダンジョン
Creator:squirrelpascals
Version:Extreme
Source:jubeat copious
Tags:fdsfd Gordon123 beatmania IIDX 23 copula bemani sdvx REFLEC BEAT limelight plus pop'n music SunnyPark ポップンリズミン rhythmin GITADORA SOUND VOLTEX III GRAVITY WARS ミライダガッキ FutureTomTom Ver.2 miraidagakki EPIC PROGRESSIVE エピックプログレ TOMOSUKE ORIGINAL SOUNDTRACK モード maud Dragon of Mordiford quantum sea Zektbach binary digits いそにん isonin
BeatmapID:1570058
BeatmapSetID:742648

[Difficulty]
HPDrainRate:5
CircleSize:6
OverallDifficulty:9
ApproachRate:9.4
SliderMultiplier:1.31999996900558
SliderTickRate:1

[Events]
//Background and Video events
0,0,"nosquirrelhere.png",0,0
//Break Periods
//Storyboard Layer 0 (Background)
//Storyboard Layer 1 (Fail)
//Storyboard Layer 2 (Pass)
//Storyboard Layer 3 (Foreground)
//Storyboard Sound Samples

[TimingPoints]
425,214.285714285714,7,2,1,40,1,0
425,-285.714285714286,7,2,1,40,0,0
4924,-133.333333333333,7,2,1,40,0,0
16924,214.285714285714,4,2,1,40,1,0
16924,-133.333333333333,4,2,1,40,0,0
17781,-200,4,2,1,40,0,0
20031,-133.333333333333,4,2,1,40,0,0
20352,-100,4,2,1,40,0,0
23781,214.285714285714,3,2,1,40,1,0
23995,-133.333333333333,3,2,1,40,0,0
28923,214.285714285714,4,2,1,40,1,0
28923,-133.333333333333,3,2,1,40,0,0
49494,-200,3,2,1,40,0,0
52065,-133.333333333333,3,2,1,40,0,0
55708,-200,3,2,1,40,0,0
58065,214.285714285714,3,2,1,40,1,0
58065,-133.333333333333,3,2,1,40,0,0
58707,-83.3333333333333,3,2,1,40,0,0
60957,-133.333333333333,3,2,1,40,0,0
61279,214.285714285714,4,2,1,40,1,0
62993,214.285714285714,5,2,1,40,1,0
62993,-133.333333333333,5,2,1,40,0,0
71028,-100,5,2,1,25,0,0
71242,-100,5,2,1,40,0,0
71564,214.285714285714,4,2,1,60,1,1
73278,-133.333333333333,4,2,1,60,0,1
73706,-100,4,2,1,60,0,1
74135,-100,4,2,1,50,0,1
74992,-200,4,2,1,60,0,1
77778,-133.333333333333,4,2,1,60,0,1
78421,-100,4,2,1,60,0,1
80135,-83.3333333333333,4,2,1,60,0,1
81849,-200,4,2,1,60,0,1
84742,-133.333333333333,4,2,1,60,0,1
85278,-200,4,2,1,50,0,1
86992,-133.333333333333,4,2,1,50,0,1
87313,-117.647058823529,4,2,1,50,0,1
87635,-105.263157894737,4,2,1,50,0,1
87956,-100,4,2,1,50,0,1
88706,-133.333333333333,4,2,1,50,0,1
89992,-200,4,2,1,50,0,1
90421,-133.333333333333,4,2,1,50,0,1
90742,-117.647058823529,4,2,1,50,0,1
91063,-105.263157894737,4,2,1,50,0,1
91385,-100,4,2,1,50,0,1
91921,-133.333333333333,4,2,1,50,0,1
92135,214.285714285714,3,2,1,40,1,0
92135,-133.333333333333,3,2,1,40,0,0
92992,-200,3,2,1,40,0,0
93206,-100,3,2,1,40,0,0
93635,-200,3,2,1,40,0,0
93849,-100,3,2,1,40,0,0
94277,-200,3,2,1,40,0,0
94492,-100,3,2,1,40,0,0
95563,-200,3,2,1,40,0,0
95777,-100,3,2,1,40,0,0
96206,-200,3,2,1,40,0,0
96420,-100,3,2,1,40,0,0
96849,-200,3,2,1,40,0,0
97063,-100,3,2,1,40,0,0
98134,-200,3,2,1,40,0,0
98349,-100,3,2,1,40,0,0
98777,-200,3,2,1,40,0,0
98992,-100,3,2,1,40,0,0
99420,-200,3,2,1,40,0,0
99849,-100,3,2,1,40,0,0
100706,-200,3,2,1,40,0,0
100920,-100,3,2,1,40,0,0
101349,-200,3,2,1,40,0,0
101563,-100,3,2,1,40,0,0
101992,-200,3,2,1,40,0,0
102206,-100,3,2,1,40,0,0
106920,-100,3,2,1,5,0,0

[Colours]
Combo1 : 174,120,60
Combo2 : 238,199,108

[HitObjects]
53,268,425,5,0,0:0:0:0:
78,272,532,1,0,0:0:0:0:
103,276,639,1,0,0:0:0:0:
127,280,746,2,0,L|136:206,1,69.2999962579249,0|8,0:0|0:0,0:0:0:0:
168,335,1282,5,0,0:0:0:0:
193,339,1389,1,0,0:0:0:0:
217,343,1496,2,0,L|226:269,1,69.2999962579249,0|8,0:0|0:0,0:0:0:0:
299,280,1924,5,0,0:0:0:0:
323,276,2032,1,0,0:0:0:0:
348,272,2139,1,0,0:0:0:0:
373,268,2245,2,0,L|364:194,1,69.2999962579249,0|8,0:0|0:0,0:0:0:0:
420,343,2782,5,0,0:0:0:0:
444,339,2889,1,0,0:0:0:0:
469,335,2996,2,0,L|460:266,1,69.2999962579249,0|8,0:0|0:0,0:0:0:0:
472,179,3424,6,0,P|481:191|485:208,1,23.0999987526416,0|0,0:0|0:0,0:0:0:0:
486,164,3639,2,0,P|487:178|482:195,1,23.0999987526416,0|0,0:0|0:0,0:0:0:0:
405,170,3853,5,0,0:0:0:0:
347,163,3960,1,0,0:0:0:0:
290,157,4067,1,8,0:0:0:0:
224,115,4174,6,0,L|250:109,1,23.0999987526416,0|0,0:0|0:0,0:0:0:0:
210,121,4389,2,0,L|239:129,1,23.0999987526416,0|0,0:0|0:0,0:0:0:0:
141,181,4603,5,0,0:0:0:0:
150,124,4710,1,0,0:0:0:0:
138,69,4817,1,8,0:0:0:0:
72,50,4924,6,0,P|41:86|28:153,1,99.0000014519688,2|0,0:0|0:0,0:0:0:0:
54,246,5246,2,0,P|78:246|102:238,1,49.5000007259844,2|0,0:0|0:0,0:0:0:0:
141,181,5460,1,2,0:0:0:0:
108,331,5674,2,0,P|140:360|213:371,1,99.0000014519688,4|4,0:0|0:0,0:0:0:0:
256,342,5996,6,0,L|245:221,2,99.0000014519688,2|2|0,0:0|0:0|0:0,0:0:0:0:
315,379,6532,1,4,0:0:0:0:
461,320,6746,1,2,0:0:0:0:
366,189,6960,1,4,0:0:0:0:
512,130,7174,6,0,L|506:78,2,49.5000007259844,4|0|2,0:0|0:0|0:0,0:0:0:0:
435,102,7496,1,4,0:0:0:0:
441,55,7603,1,0,0:0:0:0:
425,77,7710,1,2,0:0:0:0:
349,83,7817,5,4,0:0:0:0:
349,83,7871,1,0,0:0:0:0:
349,83,7924,2,0,P|315:97|237:89,1,99.0000014519688,4|4,3:0|0:0,0:0:0:0:
216,29,8246,2,0,L|162:19,1,49.5000007259844,0|0,0:0|0:0,0:0:0:0:
91,43,8460,2,0,L|27:50,1,49.5000007259844,2|4,0:0|0:0,0:0:0:0:
18,246,8782,5,10,0:0:0:0:
2,167,8889,1,4,0:0:0:0:
155,367,9210,2,0,L|188:363,1,24.7500003629922,4|0,0:0|0:0,0:0:0:0:
171,377,9317,2,0,L|204:373,1,24.7500003629922,4|0,0:0|0:0,0:0:0:0:
251,335,9424,6,0,P|277:290|334:265,1,99.0000014519688,2|2,0:0|0:0,0:0:0:0:
383,382,9746,2,0,P|407:384|431:377,1,49.5000007259844,2|0,0:0|0:0,0:0:0:0:
330,348,9960,1,2,0:0:0:0:
502,292,10174,2,0,L|495:179,1,99.0000014519688,4|4,0:0|0:0,0:0:0:0:
490,117,10496,6,0,B|471:127|471:127|378:118,2,99.0000014519688,2|2|2,0:0|0:0|0:0,0:0:0:0:
448,43,11032,1,4,0:0:0:0:
303,0,11246,1,2,0:0:0:0:
237,123,11460,1,4,0:0:0:0:
92,79,11674,6,0,L|160:69,2,49.5000007259844,4|0|2,0:0|0:0|0:0,0:0:0:0:
7,122,11996,1,4,0:0:0:0:
1,162,12103,1,0,0:0:0:0:
17,144,12210,1,2,0:0:0:0:
79,198,12317,5,4,0:0:0:0:
79,198,12371,1,0,0:0:0:0:
79,198,12424,2,0,P|99:242|92:304,1,99.0000014519688,4|4,3:0|0:0,0:0:0:0:
9,362,12746,2,0,P|37:371|66:369,1,49.5000007259844,0|2,0:0|0:0,0:0:0:0:
174,294,12960,2,0,P|165:317|165:341,1,49.5000007259844,2|4,0:0|0:0,0:0:0:0:
400,233,13282,5,10,0:0:0:0:
417,308,13389,1,4,0:0:0:0:
254,101,13710,6,0,L|247:137,1,24.7500003629922,4|0,0:0|0:0,0:0:0:0:
277,113,13817,2,0,L|282:142,1,24.7500003629922,4|0,0:0|0:0,0:0:0:0:
300,124,13924,2,0,L|408:107,1,99.0000014519688,4|0,0:3|0:0,0:0:0:0:
485,52,14246,2,0,P|466:105|479:161,1,99.0000014519688,4|2,0:0|0:0,0:0:0:0:
512,281,14674,5,4,0:0:0:0:
445,253,14782,1,4,0:0:0:0:
352,366,14996,2,0,L|252:375,1,99.0000014519688,4|8,3:0|3:0,0:0:0:0:
208,280,15317,6,0,L|203:309,1,24.7500003629922,8|0,3:0|0:0,0:0:0:0:
185,291,15424,2,0,L|77:274,1,99.0000014519688,4|0,3:0|0:0,0:0:0:0:
0,219,15746,2,0,P|19:272|6:328,1,99.0000014519688,4|2,0:0|0:0,0:0:0:0:
87,275,16067,1,0,0:0:0:0:
153,225,16174,5,4,0:0:0:0:
93,167,16282,1,4,0:0:0:0:
204,18,16496,6,0,P|198:40|204:73,1,49.5000007259844,4|0,0:0|0:0,0:0:0:0:
269,117,16710,2,0,P|275:139|269:172,1,49.5000007259844,4|4,0:0|0:0,0:0:0:0:
337,233,16924,5,4,3:0:0:0:
344,226,17031,1,0,0:0:0:0:
356,223,17138,1,8,0:0:0:0:
365,223,17245,1,0,0:0:0:0:
383,162,17352,5,0,0:0:0:0:
400,166,17459,1,0,0:0:0:0:
413,172,17566,1,8,0:0:0:0:
425,182,17674,1,0,0:0:0:0:
485,227,17781,6,0,L|491:183,1,32.9999992251395
436,113,17995,2,0,L|442:73,1,32.9999992251395,8|0,0:0|0:0,0:0:0:0:
425,182,18209,2,0,L|418:218,1,32.9999992251395
473,295,18423,2,0,L|465:338,1,32.9999992251395,8|0,0:0|0:0,0:0:0:0:
383,333,18638,5,0,0:0:0:0:
373,334,18745,1,0,0:0:0:0:
363,335,18852,1,8,0:0:0:0:
353,336,18959,1,0,0:0:0:0:
299,292,19066,5,0,0:0:0:0:
281,294,19173,1,0,0:0:0:0:
268,299,19280,1,8,0:0:0:0:
255,308,19388,1,0,0:0:0:0:
197,366,19495,5,0,0:0:0:0:
200,335,19602,1,0,0:0:0:0:
172,332,19709,1,8,0:0:0:0:
169,362,19816,1,2,3:0:0:0:
184,347,19923,5,8,3:0:0:0:
88,357,20031,2,0,P|62:358|21:371,2,49.5000007259844,8|8|8,3:0|3:0|3:0,0:0:0:0:
126,270,20352,6,0,P|137:233|119:191,1,65.999998450279,4|0,3:0|0:0,0:0:0:0:
32,170,20566,2,0,P|21:133|43:91,1,65.999998450279,8|0,0:0|0:0,0:0:0:0:
116,26,20781,1,4,3:0:0:0:
164,58,20888,1,0,0:0:0:0:
220,73,20995,1,8,0:0:0:0:
278,69,21102,1,0,0:0:0:0:
341,60,21209,6,0,P|382:68|403:100,1,65.999998450279,4|0,3:0|0:0,0:0:0:0:
378,232,21423,1,8,0:0:0:0:
442,222,21531,1,0,0:0:0:0:
507,212,21638,2,0,L|488:139,1,65.999998450279,4|0,3:0|0:0,0:0:0:0:
378,232,21852,1,8,0:0:0:0:
327,285,21960,1,0,0:0:0:0:
273,331,22066,6,0,L|180:323,1,65.999998450279,4|0,3:0|0:0,0:0:0:0:
164,379,22281,2,0,L|85:385,1,65.999998450279,8|0,0:0|0:0,0:0:0:0:
68,243,22495,6,0,L|128:192,1,65.999998450279,4|0,3:0|0:0,0:0:0:0:
85,301,22710,2,0,L|34:361,1,65.999998450279,8|0,0:0|0:0,0:0:0:0:
9,171,22923,6,0,L|160:183,1,131.999996900558,4|2,3:0|3:0,0:0:0:0:
218,224,23191,1,0,0:0:0:0:
223,223,23245,1,2,3:0:0:0:
230,223,23298,1,0,0:0:0:0:
237,222,23352,6,0,P|274:206|291:175,1,65.999998450279,8|8,3:0|3:0,0:0:0:0:
264,88,23566,1,8,3:0:0:0:
473,0,23781,5,4,3:0:0:0:
452,172,23995,1,2,0:0:0:0:
504,144,24102,2,0,L|442:154,1,49.5000007259844,12|0,0:0|0:0,0:0:0:0:
421,244,24316,5,8,0:0:0:0:
479,258,24423,2,0,L|426:255,1,49.5000007259844,8|8,0:0|0:0,0:0:0:0:
460,364,24638,1,2,0:0:0:0:
512,336,24745,2,0,L|450:346,1,49.5000007259844,4|0,0:0|0:0,0:0:0:0:
342,360,24959,5,8,0:0:0:0:
400,322,25066,2,0,P|408:303|406:257,1,49.5000007259844,8|8,0:0|0:0,0:0:0:0:
288,222,25280,1,2,0:0:0:0:
333,266,25388,2,0,L|226:258,1,99.0000014519688,4|8,0:0|0:0,0:0:0:0:
104,264,25709,6,0,P|95:245|97:199,1,49.5000007259844,8|8,0:0|0:0,0:0:0:0:
235,122,25923,1,2,0:0:0:0:
161,168,26031,2,0,L|268:160,1,99.0000014519688,4|8,0:0|0:0,0:0:0:0:
373,131,26352,5,8,0:0:0:0:
356,66,26459,2,0,L|350:133,1,49.5000007259844,0|2,0:0|0:0,0:0:0:0:
239,103,26673,1,4,0:0:0:0:
257,33,26780,2,0,L|263:100,1,49.5000007259844,0|12,0:0|0:0,0:0:0:0:
154,49,26995,6,0,L|161:-3,2,49.5000007259844,12|0|2,0:0|0:0|0:0,0:0:0:0:
50,160,27316,1,4,0:0:0:0:
84,88,27423,2,0,L|128:131,1,49.5000007259844,0|12,0:0|0:0,0:0:0:0:
152,260,27638,5,12,0:0:0:0:
97,241,27745,1,2,0:0:0:0:
145,202,27852,1,0,0:0:0:0:
200,221,27959,2,0,L|260:202,2,49.5000007259844,12|4|10,0:0|0:0|0:0,0:0:0:0:
94,346,28280,5,4,0:0:0:0:
145,296,28388,1,0,0:0:0:0:
199,350,28495,1,4,0:0:0:0:
252,304,28602,2,0,L|322:321,1,49.5000007259844,8|0,3:0|3:0,0:0:0:0:
433,360,28816,5,2,0:0:0:0:
433,360,28870,1,0,0:0:0:0:
433,360,28923,2,0,L|423:297,1,49.5000007259844,4|4,0:0|0:0,0:0:0:0:
506,147,29244,5,4,0:0:0:0:
304,12,29458,2,0,L|290:128,1,99.0000014519688,4|0,3:0|0:0,0:0:0:0:
282,184,29780,5,2,0:0:0:0:
292,110,29887,1,4,0:0:0:0:
200,97,29994,1,4,0:0:0:0:
279,109,30101,1,4,0:0:0:0:
186,95,30208,1,4,0:0:0:0:
260,175,30315,6,0,P|266:222|247:283,1,99.0000014519688,4|0,3:0|0:0,0:0:0:0:
147,277,30637,1,2,0:0:0:0:
147,277,30744,6,0,P|167:299|174:329,1,49.5000007259844,4|2,0:0|3:0,0:0:0:0:
252,367,30958,1,4,0:0:0:0:
453,325,31172,6,0,L|439:209,1,99.0000014519688,4|0,3:0|0:0,0:0:0:0:
453,151,31494,5,2,0:0:0:0:
441,226,31601,1,4,0:0:0:0:
358,208,31708,1,4,0:0:0:0:
428,222,31815,1,4,0:0:0:0:
346,206,31922,1,4,0:0:0:0:
434,142,32030,6,0,P|445:114|437:76,1,49.5000007259844,4|8,3:0|3:0,0:0:0:0:
378,21,32190,1,0,0:0:0:0:
383,22,32244,1,8,3:0:0:0:
388,23,32297,1,0,0:0:0:0:
393,25,32351,6,0,P|340:32|294:56,1,99.0000014519688,4|4,3:0|0:0,0:0:0:0:
214,17,32672,2,0,P|206:69|182:115,1,99.0000014519688,2|0,0:0|0:0,0:0:0:0:
79,125,32994,2,0,P|108:72|122:83,1,99.0000014519688,4|0,0:0|0:0,0:0:0:0:
185,110,33315,1,2,0:0:0:0:
192,182,33422,1,4,0:0:0:0:
86,384,33637,5,8,0:0:0:0:
50,322,33744,1,8,0:0:0:0:
150,353,33851,1,4,0:0:0:0:
150,353,33958,2,0,P|183:338|301:335,1,148.500002177953,2|4,0:0|0:0,0:0:0:0:
369,367,34387,6,0,L|360:307,2,49.5000007259844,2|0|4,0:0|0:0|0:0,0:0:0:0:
489,77,34922,2,0,P|445:62|369:65,1,99.0000014519688,2|0,0:0|0:0,0:0:0:0:
293,23,35244,2,0,P|316:66|327:114,1,99.0000014519688,4|8,0:0|0:0,0:0:0:0:
234,104,35565,1,4,0:0:0:0:
107,213,35780,5,2,0:0:0:0:
288,338,35994,1,8,0:0:0:0:
288,338,36101,2,0,P|246:335|179:354,1,99.0000014519688,8|0,0:0|0:0,0:0:0:0:
78,384,36422,2,0,P|73:339|117:337,1,99.0000014519688,4|2,0:0|0:0,0:0:0:0:
191,348,36744,1,2,0:0:0:0:
156,268,36851,1,4,0:0:0:0:
408,182,37065,5,4,0:0:0:0:
428,247,37172,1,8,0:0:0:0:
468,149,37280,1,4,0:0:0:0:
468,149,37387,6,0,P|468:110|446:45,1,99.0000014519688,4|0,0:0|0:0,0:0:0:0:
394,6,37708,2,0,P|356:29|282:24,1,99.0000014519688,2|8,0:0|0:0,0:0:0:0:
227,15,38030,1,4,0:0:0:0:
54,186,38351,5,2,0:0:0:0:
58,190,38458,1,0,0:0:0:0:
126,228,38565,1,4,0:0:0:0:
130,224,38672,1,4,0:0:0:0:
194,171,38780,5,4,0:0:0:0:
257,164,38887,1,2,3:0:0:0:
265,228,38994,1,4,0:0:0:0:
201,234,39101,1,8,3:0:0:0:
243,294,39208,6,0,L|251:350,1,49.5000007259844,4|0,3:0|0:0,0:0:0:0:
383,355,39422,1,2,0:0:0:0:
370,369,39530,2,0,L|321:377,1,49.5000007259844,4|0,0:0|0:0,0:0:0:0:
429,254,39744,1,0,0:0:0:0:
445,266,39852,2,0,L|494:270,1,49.5000007259844,4|0,0:0|0:0,0:0:0:0:
383,172,40065,1,2,0:0:0:0:
367,184,40173,2,0,L|318:188,1,49.5000007259844,4|0,0:0|0:0,0:0:0:0:
455,125,40387,5,2,0:0:0:0:
448,59,40494,2,0,L|442:116,3,49.5000007259844,8|8|4|0,0:0|0:0|0:0|0:0,0:0:0:0:
346,41,40922,5,2,0:0:0:0:
339,40,41030,1,0,0:0:0:0:
334,41,41137,1,4,0:0:0:0:
272,85,41244,5,2,0:0:0:0:
266,85,41351,1,8,0:0:0:0:
260,83,41459,1,0,0:0:0:0:
205,34,41565,5,4,0:0:0:0:
198,31,41673,1,0,0:0:0:0:
136,103,41780,5,4,0:0:0:0:
111,22,41887,1,4,0:0:0:0:
156,92,41994,1,4,0:0:0:0:
47,71,42101,2,0,L|32:171,1,99.0000014519688,4|0,3:0|0:0,0:0:0:0:
102,208,42422,1,4,0:0:0:0:
258,305,42637,5,2,0:0:0:0:
275,319,42744,2,0,P|247:324|220:349,1,49.5000007259844,0|4,0:0|0:0,0:0:0:0:
410,257,42958,1,0,0:0:0:0:
393,271,43065,2,0,P|420:276|447:301,1,49.5000007259844,8|0,0:0|0:0,0:0:0:0:
292,173,43280,1,4,0:0:0:0:
312,182,43387,2,0,P|286:194|267:225,1,49.5000007259844,0|2,0:0|0:0,0:0:0:0:
161,121,43601,1,0,0:0:0:0:
138,124,43708,2,0,P|158:142|169:177,1,49.5000007259844,4|0,0:0|0:0,0:0:0:0:
86,229,43922,6,0,P|79:252|83:277,3,49.5000007259844,8|8|4|0,0:0|0:0|0:0|0:0,0:0:0:0:
145,324,44351,5,2,0:0:0:0:
152,323,44458,1,0,0:0:0:0:
159,322,44565,1,4,0:0:0:0:
230,353,44672,5,2,0:0:0:0:
232,347,44779,1,8,0:0:0:0:
233,340,44886,1,0,0:0:0:0:
310,368,44994,5,2,0:0:0:0:
319,365,45101,1,0,0:0:0:0:
404,319,45208,5,4,0:0:0:0:
411,384,45315,1,4,0:0:0:0:
341,288,45422,1,4,0:0:0:0:
431,326,45530,2,0,P|447:290|444:211,1,99.0000014519688,4|8,3:0|3:0,0:0:0:0:
384,173,45851,5,4,0:0:0:0:
385,167,45905,1,0,0:0:0:0:
387,162,45958,1,4,0:0:0:0:
388,157,46012,1,0,0:0:0:0:
390,152,46065,6,0,P|412:141|439:143,1,49.5000007259844,4|0,3:0|0:0,0:0:0:0:
501,50,46280,2,0,P|475:65|442:66,1,49.5000007259844,4|0,0:0|0:0,0:0:0:0:
380,28,46494,1,8,0:0:0:0:
318,16,46601,1,2,0:0:0:0:
252,24,46708,1,4,0:0:0:0:
202,63,46815,1,0,0:0:0:0:
262,38,46922,6,0,P|277:66|281:95,1,49.5000007259844,2|4,0:0|0:0,0:0:0:0:
245,185,47137,1,4,0:0:0:0:
320,160,47244,2,0,L|208:168,1,99.0000014519688,2|0,0:0|0:0,0:0:0:0:
135,115,47565,1,4,0:0:0:0:
28,362,47780,5,2,0:0:0:0:
38,293,47887,1,0,0:0:0:0:
40,358,47994,1,4,0:0:0:0:
50,289,48101,1,0,0:0:0:0:
111,353,48208,6,0,P|143:364|165:364,1,49.5000007259844,8|2,0:0|0:0,0:0:0:0:
220,265,48422,2,0,P|203:289|205:323,1,49.5000007259844,4|0,0:0|0:0,0:0:0:0:
288,361,48637,1,4,0:0:0:0:
294,294,48744,1,4,0:0:0:0:
301,228,48851,1,4,0:0:0:0:
374,309,48958,6,0,L|432:294,2,49.5000007259844,4|2|2,3:0|0:0|0:0,0:0:0:0:
482,230,49280,1,4,0:0:0:0:
411,215,49387,1,0,0:0:0:0:
491,214,49494,5,4,3:0:0:0:
489,191,49601,1,4,0:0:0:0:
485,170,49708,2,0,L|492:94,1,65.999998450279,4|2,0:0|0:0,0:0:0:0:
409,31,50030,2,0,L|402:96,1,65.999998450279,4|2,0:0|0:0,0:0:0:0:
319,136,50351,6,0,L|258:163,1,65.999998450279,4|2,0:0|0:0,0:0:0:0:
323,231,50672,2,0,L|388:237,2,65.999998450279,4|2|4,0:0|0:0|0:0,0:0:0:0:
258,162,51422,5,2,0:0:0:0:
249,161,51637,5,2,0:0:0:0:
240,160,51851,5,2,0:0:0:0:
44,32,52065,6,0,P|29:58|29:77,1,49.5000007259844,2|0,0:0|0:0,0:0:0:0:
140,152,52280,2,0,P|144:127|136:105,1,49.5000007259844,4|0,0:0|0:0,0:0:0:0:
38,181,52494,1,2,0:0:0:0:
27,241,52601,1,2,0:0:0:0:
50,297,52708,1,8,0:0:0:0:
101,332,52815,1,10,0:0:0:0:
184,358,52922,6,0,L|132:393,2,49.5000007259844,4|4|4,0:0|0:0|0:0,0:0:0:0:
126,239,53244,2,0,P|102:286|103:342,1,99.0000014519688,4|2,3:0|0:0,0:0:0:0:
184,358,53565,1,4,0:0:0:0:
184,358,53672,1,0,0:0:0:0:
246,310,53780,6,0,P|287:330|357:333,1,99.0000014519688,2|4,0:0|0:0,0:0:0:0:
492,330,54101,1,4,0:0:0:0:
428,368,54208,2,0,L|417:251,1,99.0000014519688,10|4,0:0|0:0,0:0:0:0:
479,227,54530,1,0,0:0:0:0:
391,253,54637,5,4,0:0:0:0:
365,202,54744,1,4,0:0:0:0:
362,145,54851,1,4,0:0:0:0:
399,90,54958,6,0,B|426:96|426:96|452:69|441:17,1,99.0000014519688,4|2,3:0|0:0,0:0:0:0:
347,14,55280,1,4,0:0:0:0:
394,84,55387,1,2,0:0:0:0:
286,71,55494,5,4,3:0:0:0:
264,78,55601,1,4,0:0:0:0:
242,85,55708,2,0,L|236:156,1,65.999998450279,4|2,0:0|0:0,0:0:0:0:
168,228,56030,2,0,L|102:190,1,65.999998450279,4|2,0:0|0:0,0:0:0:0:
34,106,56351,2,0,L|109:116,1,65.999998450279,4|2,0:0|0:0,0:0:0:0:
89,212,56672,2,0,L|95:283,2,65.999998450279,4|2|4,0:0|0:0|0:0,0:0:0:0:
175,335,57422,5,2,0:0:0:0:
176,343,57637,5,2,0:0:0:0:
176,350,57851,5,2,0:0:0:0:
435,365,58065,6,0,L|441:302,2,49.5000007259844,2|0|0,0:0|0:0|0:0,0:0:0:0:
415,210,58386,5,2,3:0:0:0:
452,313,58493,1,8,3:0:0:0:
378,344,58600,1,8,3:0:0:0:
286,282,58707,6,0,L|297:376,2,79.1999957233427,4|0|8,3:0|0:0|0:0,0:0:0:0:
209,172,59029,2,0,B|213:254|213:254|268:182,1,158.399991446685,4|8,3:0|0:0,0:0:0:0:
378,144,59350,6,0,L|463:185,2,79.1999957233427,2|0|2,0:0|0:0|0:0,0:0:0:0:
299,33,59672,2,0,B|374:63|374:63|287:90,1,158.399991446685,4|8,0:0|3:0,0:0:0:0:
143,114,59993,5,4,3:0:0:0:
155,25,60100,1,0,0:0:0:0:
208,99,60207,1,2,0:0:0:0:
148,107,60315,5,4,3:0:0:0:
158,36,60422,1,0,0:0:0:0:
200,95,60529,1,2,0:0:0:0:
82,84,60636,5,4,3:0:0:0:
80,90,60743,1,0,0:0:0:0:
80,95,60850,1,2,0:0:0:0:
114,179,60957,6,0,L|133:249,2,49.5000007259844,4|8|8,0:0|3:0|3:0,0:0:0:0:
61,302,61279,1,8,3:0:0:0:
381,357,62457,5,4,0:0:0:0:
402,359,62564,1,4,0:0:0:0:
388,367,62671,1,4,0:0:0:0:
409,369,62779,1,4,0:0:0:0:
442,174,62993,6,0,L|452:239,1,49.5000007259844,2|0,0:0|0:0,0:0:0:0:
387,85,63207,1,8,0:0:0:0:
351,132,63314,2,0,B|347:194|347:194|314:222,1,99.0000014519688,4|2,0:0|0:0,0:0:0:0:
29,289,63743,5,2,0:0:0:0:
100,240,63850,2,0,P|112:265|111:296,1,49.5000007259844,2|0,0:0|0:0,0:0:0:0:
177,317,64064,2,0,P|193:293|219:279,1,49.5000007259844,2|0,0:0|0:0,0:0:0:0:
125,362,64278,2,0,L|70:354,2,49.5000007259844,12|0|0,0:0|0:0|0:0,0:0:0:0:
100,291,64600,1,4,0:0:0:0:
204,29,64814,5,4,0:0:0:0:
226,94,64921,1,4,0:0:0:0:
201,158,65028,1,4,0:0:0:0:
142,195,65135,6,0,P|114:180|85:176,1,49.5000007259844,4|0,3:0|0:0,0:0:0:0:
18,98,65350,2,0,L|9:34,1,49.5000007259844,10|2,0:0|0:0,0:0:0:0:
125,108,65564,1,0,0:0:0:0:
101,127,65671,6,0,L|95:194,1,49.5000007259844,4|0,0:0|0:0,0:0:0:0:
218,179,65885,2,0,L|212:239,1,49.5000007259844,4|0,0:0|0:0,0:0:0:0:
300,306,66100,1,2,0:0:0:0:
237,344,66207,6,0,L|173:336,2,49.5000007259844,4|0|0,3:0|0:0|0:0,0:0:0:0:
491,145,66635,1,2,0:0:0:0:
435,81,66743,2,0,L|491:88,1,49.5000007259844,4|0,0:0|0:0,0:0:0:0:
332,26,66957,5,4,0:0:0:0:
339,99,67064,1,4,0:0:0:0:
346,173,67171,1,4,0:0:0:0:
407,221,67278,6,0,L|395:287,1,49.5000007259844,2|0,0:0|0:0,0:0:0:0:
337,170,67493,1,8,0:0:0:0:
276,211,67600,2,0,B|292:230|292:230|203:236,1,99.0000014519688,4|2,0:0|0:0,0:0:0:0:
8,36,68028,5,4,0:0:0:0:
84,58,68135,2,0,P|106:45|138:45,1,49.5000007259844,2|0,0:0|0:0,0:0:0:0:
33,119,68350,2,0,P|57:123|77:137,1,49.5000007259844,2|0,0:0|0:0,0:0:0:0:
195,77,68564,2,0,L|182:144,2,49.5000007259844,12|0|0,0:0|0:0|0:0,0:0:0:0:
119,38,68885,1,4,0:0:0:0:
189,343,69100,5,4,0:0:0:0:
251,303,69207,1,4,0:0:0:0:
325,305,69314,1,2,0:0:0:0:
383,350,69421,6,0,P|417:347|436:336,1,49.5000007259844,4|0,3:0|0:0,0:0:0:0:
405,243,69635,1,8,0:0:0:0:
443,332,69742,2,0,P|432:363|431:391,1,49.5000007259844,10|0,0:0|0:0,0:0:0:0:
507,273,69957,6,0,P|509:240|503:212,1,49.5000007259844,4|0,0:0|0:0,0:0:0:0:
417,142,70171,2,0,L|481:151,2,49.5000007259844,4|2|2,0:0|0:0|0:0,0:0:0:0:
370,24,70492,6,0,B|338:40|310:26|310:26|285:13|255:16|253:55|282:59|297:48,1,148.500002177953,4|10,3:0|0:0,0:0:0:0:
196,99,70921,5,0,0:0:0:0:
204,102,70975,1,0,0:0:0:0:
213,106,71028,1,4,0:0:0:0:
221,109,71082,1,4,0:0:0:0:
236,125,71135,5,4,0:0:0:0:
255,132,71189,1,4,0:0:0:0:
274,139,71242,1,4,0:0:0:0:
293,146,71296,1,0,0:0:0:0:
308,162,71350,6,0,L|271:166,3,32.9999992251395,2|0|2|0,3:0|3:0|3:0|3:0,0:0:0:0:
403,155,71564,6,0,P|445:180|451:271,1,131.999996900558,4|4,3:0|0:0,0:0:0:0:
337,305,71885,1,0,0:0:0:0:
377,368,71992,2,0,P|401:353|446:357,1,65.999998450279,8|2,0:0|0:0,0:0:0:0:
194,335,72206,2,0,P|219:331|257:353,1,65.999998450279,4|0,0:0|0:0,0:0:0:0:
133,180,72421,5,2,0:0:0:0:
113,239,72528,1,0,0:0:0:0:
172,259,72635,1,4,0:0:0:0:
192,200,72742,1,0,0:0:0:0:
138,166,72849,5,0,0:0:0:0:
170,268,72956,1,2,0:0:0:0:
103,233,73064,1,4,0:0:0:0:
168,277,73171,1,0,0:0:0:0:
254,211,73278,6,0,L|311:205,1,49.5000007259844,2|0,0:0|0:0,0:0:0:0:
445,141,73492,2,0,L|395:146,1,49.5000007259844,4|0,0:0|0:0,0:0:0:0:
180,79,73706,6,0,L|258:81,1,65.999998450279,10|0,0:0|0:0,0:0:0:0:
478,16,73920,2,0,L|413:32,1,65.999998450279,4|0,0:0|0:0,0:0:0:0:
263,7,74135,5,4,0:0:0:0:
245,80,74242,1,4,0:0:0:0:
276,2,74349,1,4,0:0:0:0:
253,76,74456,1,4,0:0:0:0:
358,141,74564,5,4,0:0:0:0:
274,177,74671,1,4,3:0:0:0:
353,155,74778,1,8,3:0:0:0:
395,224,74885,1,8,3:0:0:0:
367,301,74992,6,0,L|375:338,2,32.9999992251395,4|0|4,3:0|0:0|0:0,0:0:0:0:
350,323,75314,2,0,L|279:320,1,65.999998450279,2|4,0:0|0:0,0:0:0:0:
73,61,75742,5,8,0:0:0:0:
20,119,75849,2,0,L|15:156,2,32.9999992251395,2|0|4,0:0|0:0|0:0,0:0:0:0:
37,137,76171,2,0,L|107:133,1,65.999998450279,2|4,0:0|0:0,0:0:0:0:
305,31,76599,1,8,0:0:0:0:
351,78,76706,5,2,0:0:0:0:
349,99,76813,1,0,0:0:0:0:
357,84,76921,1,4,0:0:0:0:
355,105,77028,1,0,0:0:0:0:
421,89,77135,5,0,0:0:0:0:
461,130,77242,1,2,0:0:0:0:
476,188,77349,1,4,0:0:0:0:
460,246,77456,1,0,0:0:0:0:
382,275,77563,6,0,P|404:284|420:298,1,32.9999992251395,2|2,0:0|0:0,0:0:0:0:
356,346,77778,2,0,L|360:291,1,49.5000007259844,4|4,0:0|0:0,0:0:0:0:
284,152,77992,5,2,3:0:0:0:
301,246,78099,1,2,3:0:0:0:
223,126,78206,1,8,3:0:0:0:
240,220,78313,1,8,3:0:0:0:
140,260,78421,6,0,P|181:268|235:345,1,131.999996900558,4|4,3:0|0:0,0:0:0:0:
16,270,78742,1,0,0:0:0:0:
51,213,78849,2,0,L|59:131,1,65.999998450279,8|2,0:0|0:0,0:0:0:0:
167,69,79063,2,0,L|92:80,1,65.999998450279,4|0,0:0|0:0,0:0:0:0:
278,26,79278,5,2,0:0:0:0:
254,92,79385,1,0,0:0:0:0:
360,30,79492,1,4,0:0:0:0:
382,93,79599,1,0,0:0:0:0:
285,30,79706,5,0,0:0:0:0:
390,94,79813,1,2,0:0:0:0:
254,92,79921,1,4,0:0:0:0:
399,96,80028,1,0,0:0:0:0:
318,185,80135,6,0,P|303:228|323:349,1,158.399991446685,4|4,3:0|0:0,0:0:0:0:
446,264,80456,1,4,3:0:0:0:
506,343,80563,2,0,B|486:321|486:321|417:351,1,79.1999957233427,0|4,0:0|0:0,0:0:0:0:
306,343,80778,2,0,B|260:363|260:363|240:341,1,79.1999957233427,4|0,3:0|0:0,0:0:0:0:
159,178,80992,5,2,0:0:0:0:
179,273,81099,1,4,3:0:0:0:
85,291,81206,1,0,0:0:0:0:
65,196,81313,1,0,0:0:0:0:
76,302,81421,5,4,0:0:0:0:
150,189,81528,2,0,P|216:171|271:253,1,158.399991446685,4|0,3:0|0:0,0:0:0:0:
372,225,81849,6,0,L|412:216,2,32.9999992251395,4|0|0,3:0|0:0|0:0,0:0:0:0:
392,139,82171,2,0,L|384:213,1,65.999998450279,2|4,0:0|0:0,0:0:0:0:
40,17,82599,5,8,0:0:0:0:
100,52,82706,2,0,L|133:40,2,32.9999992251395,2|0|4,0:0|0:0|0:0,0:0:0:0:
105,128,83028,2,0,L|125:58,1,65.999998450279,2|4,0:0|0:0,0:0:0:0:
137,290,83456,1,8,0:0:0:0:
51,283,83563,5,2,0:0:0:0:
67,285,83670,1,0,0:0:0:0:
39,295,83778,1,4,0:0:0:0:
55,297,83885,1,0,0:0:0:0:
90,352,83992,5,2,0:0:0:0:
143,374,84099,1,2,0:0:0:0:
201,376,84206,1,4,0:0:0:0:
255,355,84313,1,0,0:0:0:0:
294,307,84421,5,2,0:0:0:0:
281,229,84528,1,2,0:0:0:0:
355,256,84635,1,4,0:0:0:0:
296,319,84742,6,0,L|244:313,2,49.5000007259844,4|2|2,3:0|3:0|3:0,0:0:0:0:
274,203,85063,1,8,3:0:0:0:
372,238,85170,1,8,3:0:0:0:
468,184,85278,6,0,B|463:160|463:160|459:152|459:152|462:145|462:145|458:120,1,65.999998450279,4|10,3:0|0:0,0:0:0:0:
387,45,85599,2,0,B|391:68|391:68|395:76|395:76|392:83|392:83|396:108,1,65.999998450279,4|0,0:0|0:0,0:0:0:0:
327,168,85921,2,0,B|344:150|344:150|305:115|240:125,1,131.999996900558,4|4,3:0|0:0,0:0:0:0:
156,165,86456,5,0,0:0:0:0:
166,174,86563,2,0,P|172:194|173:215,1,32.9999992251395,2|2,0:0|0:0,0:0:0:0:
105,246,86778,2,0,P|100:266|101:281,1,32.9999992251395,4|4,0:0|0:0,0:0:0:0:
199,366,86992,6,0,B|164:362|164:362|153:356|153:356|140:361|140:361|102:358,1,99.0000014519688,2|10,0:0|0:0,0:0:0:0:
49,191,87313,6,0,B|56:231|56:231|65:244|65:244|60:259|60:259|68:304,1,112.199999505519,4|10,0:0|0:0,0:0:0:0:
266,162,87635,6,0,B|226:184|226:184|209:186|209:186|199:200|199:200|155:226,1,125.399993706989,2|0,0:0|0:0,0:0:0:0:
119,40,87956,6,0,P|216:91|274:185,1,197.999995350837,4|4,3:0|0:0,0:0:0:0:
413,375,88492,2,0,B|394:383|394:383|407:335,1,65.999998450279,4|8,0:0|3:0,0:0:0:0:
475,237,88706,6,0,B|458:230|458:230|453:225|453:225|447:227|447:227|430:220,2,49.5000007259844,4|0|10,3:0|0:0|0:0,0:0:0:0:
346,241,89028,2,0,B|360:250|360:250|367:252|367:252|368:258|368:258|384:272,2,49.5000007259844,4|0|10,0:0|0:0|0:0,0:0:0:0:
252,165,89349,2,0,B|284:237|239:297|239:297|212:285|181:293,1,198.000002903938,4|4,3:0|0:0,0:0:0:0:
51,347,89885,5,2,0:0:0:0:
64,357,89992,2,0,L|106:348,1,32.9999992251395,10|2,0:0|0:0,0:0:0:0:
139,273,90206,2,0,L|179:286,1,32.9999992251395,4|4,0:0|0:0,0:0:0:0:
260,375,90421,6,0,B|257:337|257:337|262:324|262:324|256:313|256:313|252:278,1,99.0000014519688,2|10,0:0|0:0,0:0:0:0:
407,219,90742,6,0,B|367:226|367:226|354:235|354:235|339:230|339:230|299:236,1,112.199999505519,4|10,0:0|0:0,0:0:0:0:
220,142,91063,6,0,B|250:176|250:176|265:184|265:184|269:200|269:200|298:235,1,125.399993706989,2|0,0:0|0:0,0:0:0:0:
461,353,91385,6,0,P|399:333|425:209,1,197.999995350837,4|2,3:0|0:0,0:0:0:0:
476,338,91813,1,4,0:0:0:0:
480,185,91921,6,0,P|484:165|510:149,1,49.5000007259844,4|0,0:0|0:0,0:0:0:0:
486,60,92135,6,0,L|431:70,2,49.5000007259844,4|0|0,3:0|0:0|0:0,0:0:0:0:
459,53,92456,2,0,L|403:48,2,49.5000007259844,0|0|0,0:0|0:0|0:0,0:0:0:0:
366,104,92777,5,4,3:0:0:0:
358,149,92885,1,8,0:0:0:0:
355,165,92992,2,0,L|388:186,1,32.9999992251395,0|4,0:0|0:0,0:0:0:0:
286,189,93206,6,0,L|270:122,1,65.999998450279,2|0,0:0|0:0,0:0:0:0:
200,189,93420,5,10,0:0:0:0:
211,233,93528,1,8,0:0:0:0:
215,248,93635,2,0,L|253:253,1,32.9999992251395,0|4,0:0|0:0,0:0:0:0:
163,299,93849,6,0,L|120:245,1,65.999998450279,2|0,0:0|0:0,0:0:0:0:
63,344,94063,5,4,0:0:0:0:
63,344,94171,1,4,0:0:0:0:
123,379,94278,2,0,L|160:367,1,32.9999992251395,2|2,0:0|0:0,0:0:0:0:
246,341,94492,5,4,0:0:0:0:
246,341,94600,1,4,0:0:0:0:
312,375,94706,2,0,L|304:297,2,65.999998450279,10|8|2,0:0|0:0|0:0,0:0:0:0:
394,353,95027,2,0,P|435:360|475:374,2,65.999998450279,4|2|2,0:0|0:0|0:0,0:0:0:0:
426,264,95349,5,4,3:0:0:0:
471,256,95457,1,8,0:0:0:0:
487,253,95564,2,0,L|507:223,1,32.9999992251395,0|0,0:0|0:0,0:0:0:0:
360,217,95778,6,0,L|348:287,1,65.999998450279,2|0,0:0|0:0,0:0:0:0:
310,147,95992,5,10,0:0:0:0:
344,117,96100,1,8,0:0:0:0:
357,106,96207,2,0,L|359:70,1,32.9999992251395,0|4,0:0|0:0,0:0:0:0:
229,139,96421,6,0,L|253:205,1,65.999998450279,2|0,0:0|0:0,0:0:0:0:
150,104,96635,5,4,0:0:0:0:
150,104,96743,1,4,0:0:0:0:
173,41,96850,2,0,L|157:8,1,32.9999992251395,2|2,0:0|0:0,0:0:0:0:
47,107,97063,5,4,0:0:0:0:
47,107,97169,1,4,0:0:0:0:
54,173,97277,2,0,L|145:158,2,65.999998450279,12|12|2,0:0|0:0|0:0,0:0:0:0:
107,244,97599,2,0,P|148:249|183:258,2,65.999998450279,4|8|8,0:0|3:0|3:0,0:0:0:0:
216,323,97920,5,4,3:0:0:0:
212,367,98027,1,8,0:0:0:0:
227,347,98134,2,0,L|281:338,1,32.9999992251395,0|4,0:0|0:0,0:0:0:0:
375,347,98349,6,0,L|324:299,1,65.999998450279,2|0,0:0|0:0,0:0:0:0:
247,199,98563,5,10,0:0:0:0:
255,243,98670,1,8,0:0:0:0:
264,220,98777,2,0,L|309:223,1,32.9999992251395,0|4,0:0|0:0,0:0:0:0:
403,142,98992,6,0,L|322:161,1,65.999998450279,2|0,0:0|0:0,0:0:0:0:
223,56,99206,5,10,0:0:0:0:
211,98,99313,1,8,0:0:0:0:
229,81,99420,2,0,L|275:91,1,32.9999992251395,0|4,0:0|0:0,0:0:0:0:
345,61,99634,5,2,0:0:0:0:
366,73,99742,1,4,0:0:0:0:
355,33,99849,2,0,P|382:21|425:13,2,65.999998450279,4|4|8,0:0|0:0|3:0,0:0:0:0:
458,82,100170,5,2,3:0:0:0:
462,87,100277,1,2,3:0:0:0:
463,91,100384,1,8,3:0:0:0:
434,156,100492,5,4,3:0:0:0:
389,173,100599,1,8,0:0:0:0:
399,179,100706,2,0,L|435:182,1,32.9999992251395,0|4,0:0|0:0,0:0:0:0:
472,254,100920,6,0,L|410:281,1,65.999998450279,2|0,0:0|0:0,0:0:0:0:
289,322,101134,5,4,3:0:0:0:
308,278,101241,1,8,0:0:0:0:
297,280,101349,2,0,L|302:321,1,32.9999992251395,0|4,0:0|0:0,0:0:0:0:
210,256,101563,6,0,L|171:188,1,65.999998450279,2|0,0:0|0:0,0:0:0:0:
92,96,101777,5,4,3:0:0:0:
137,109,101884,1,8,0:0:0:0:
128,116,101992,2,0,L|89:123,1,32.9999992251395,0|4,0:0|0:0,0:0:0:0:
22,172,102206,6,0,L|10:252,1,65.999998450279,2|4,0:0|0:0,0:0:0:0:
138,363,102420,5,2,3:0:0:0:
34,350,102527,1,2,3:0:0:0:
132,322,102634,5,8,3:0:0:0:
53,312,102741,1,2,3:0:0:0:
128,280,102849,5,8,3:0:0:0:
68,272,102956,1,8,3:0:0:0:
148,369,103063,5,4,3:0:0:0:
433,300,103599,1,4,3:0:0:0:
364,15,104134,1,4,3:0:0:0:
79,84,104670,1,4,3:0:0:0:
256,192,104724,12,0,106920,0:0:0:0:
