osu file format v14

[General]
AudioFilename: Lindwurm.mp3
AudioLeadIn: 0
PreviewTime: 71564
Countdown: 0
SampleSet: Normal
StackLeniency: 0.7
Mode: 0
LetterboxInBreaks: 0
WidescreenStoryboard: 0

[Editor]
DistanceSpacing: 1.2
BeatDivisor: 4
GridSize: 32
TimelineZoom: 3.899999

[Metadata]
Title:Ryoushi no Umi no Lindwurm
TitleUnicode:量子の海のリントヴルム
Artist:Kuroneko Dungeon
ArtistUnicode:黒猫ダンジョン
Creator:P o M u T a
Version:MASTER
Source:jubeat copious
Tags:jyc-Binggan kiddly ignorethis beatmania IIDX 23 copula bemani sdvx REFLEC BEAT limelight plus pop'n music SunnyPark ポップンリズミン rhythmin GITADORA SOUND VOLTEX III GRAVITY WARS ミライダガッキ FutureTomTom Ver.2 miraidagakki EPIC PROGRESSIVE エピックプログレ TOMOSUKE ORIGINAL pomuta SOUNDTRACK モード maud Dragon of Mordiford quantum sea Zektbach binary digits いそにん isonin
BeatmapID:830607
BeatmapSetID:372850

[Difficulty]
HPDrainRate:6.4
CircleSize:4.8
OverallDifficulty:8.6
ApproachRate:9.5
SliderMultiplier:1.25000000596046
SliderTickRate:1

[Events]
//Background and Video events
0,0,"tumblr_lvpkz6pX051qzvza9o1_1280_R.jpg",0,0
Video,-425,"umi.avi"
//Break Periods
//Storyboard Layer 0 (Background)
//Storyboard Layer 1 (Fail)
//Storyboard Layer 2 (Pass)
//Storyboard Layer 3 (Foreground)
//Storyboard Sound Samples

[TimingPoints]
425,214.285714285714,7,1,1,20,1,0
746,-133.333333333333,7,1,1,20,0,0
3960,-133.333333333333,7,1,1,40,0,0
4174,-133.333333333333,7,1,1,20,0,0
4710,-133.333333333333,7,1,1,40,0,0
4924,-100,7,1,1,50,0,0
13924,-133.333333333333,7,1,1,50,0,0
16924,214.285714285714,4,1,1,35,1,0
16924,-200,4,1,1,35,0,0
20352,-133.333333333333,4,1,1,43,0,0
23781,214.285714285714,3,1,1,50,1,0
27638,-100,3,1,1,60,0,0
28923,214.285714285714,4,1,1,60,1,0
29458,-66.6666666666667,4,1,1,60,0,0
29726,-66.6666666666667,4,1,1,5,0,0
29780,-66.6666666666667,4,1,1,60,0,0
30315,-200,4,1,1,60,0,0
30583,-200,4,1,1,5,0,0
30637,-100,4,1,1,60,0,0
31172,-66.6666666666667,4,1,1,60,0,0
31440,-66.6666666666667,4,1,1,5,0,0
31494,-66.6666666666667,4,1,1,60,0,0
32030,-200,4,1,1,50,0,0
32351,-133.333333333333,4,1,1,50,0,0
38351,-100,4,1,1,50,0,0
58065,214.285714285714,3,1,1,60,1,0
61279,214.285714285714,4,1,1,20,1,0
61279,-200,4,1,1,20,0,0
62404,-200,4,1,1,5,0,0
62457,-100,4,1,1,50,0,0
62993,214.285714285714,5,1,1,50,1,0
71564,214.285714285714,4,1,1,60,1,1
71564,-80,4,1,1,60,0,1
73439,-80,4,1,1,5,0,1
73492,-80,4,1,1,60,0,1
75474,-80,4,1,1,5,0,1
75528,-80,4,1,1,60,0,1
76331,-80,4,1,1,5,0,1
76385,-80,4,1,1,60,0,1
80296,-80,4,1,1,5,0,1
80349,-80,4,1,1,60,0,1
82331,-80,4,1,1,5,0,1
82385,-80,4,1,1,60,0,1
83188,-80,4,1,1,5,0,1
83242,-80,4,1,1,60,0,1
85278,-100,4,1,1,50,0,0
92135,214.285714285714,3,1,1,50,1,0
92135,-133.333333333333,3,1,1,50,0,0
103063,-200,3,1,1,30,0,0

[Colours]
Combo1 : 191,191,255
Combo2 : 128,128,128
Combo3 : 0,255,255
Combo4 : 0,128,192

[HitObjects]
416,88,746,5,0,0:0:0:0:
337,64,1067,1,0,0:0:0:0:
243,121,1496,5,0,0:0:0:0:
164,97,1817,1,0,0:0:0:0:
79,167,2246,5,0,0:0:0:0:
103,246,2567,1,0,0:0:0:0:
210,221,2996,5,0,0:0:0:0:
186,300,3317,1,0,0:0:0:0:
366,250,3746,5,0,0:0:0:0:
431,276,3853,1,0,0:0:0:0:
482,227,3960,2,0,L|479:172,1,46.8750020116567
376,317,4174,2,0,L|373:363,1,46.8750020116567
315,291,4389,5,0,0:0:0:0:
360,183,4496,1,0,0:0:0:0:
431,276,4603,1,0,0:0:0:0:
297,224,4710,2,0,P|274:220|245:224,1,46.8750020116567
63,297,4924,6,0,P|122:309|193:297,1,125.000000596046
191,128,5246,2,0,P|132:116|61:128,1,125.000000596046,8|0,0:0|0:0,0:0:0:0:
68,125,5674,1,0,0:0:0:0:
185,299,5782,2,0,L|188:375,1,62.500000298023,0|8,0:0|0:0,0:0:0:0:
320,361,5996,2,0,L|322:298,1,62.500000298023
253,250,6210,2,0,L|256:326,1,62.500000298023
388,312,6424,2,0,L|390:249,1,62.500000298023,0|8,0:0|0:0,0:0:0:0:
63,297,6746,5,0,0:0:0:0:
486,192,6960,1,0,0:0:0:0:
68,125,7174,2,0,L|138:116,1,62.500000298023,8|0,0:0|0:0,0:0:0:0:
12,72,7389,1,0,0:0:0:0:
200,194,7496,2,0,L|209:124,1,62.500000298023,8|0,0:0|0:0,0:0:0:0:
253,250,7710,1,0,0:0:0:0:
143,291,7817,1,8,0:0:0:0:
143,291,7871,1,8,0:0:0:0:
143,291,7924,6,0,L|152:361,1,62.500000298023,4|0,0:0|0:0,0:0:0:0:
307,361,8139,1,8,0:0:0:0:
232,368,8246,1,0,0:0:0:0:
342,292,8353,2,0,B|372:301|372:301|407:296,1,62.500000298023
408,221,8567,2,0,B|378:212|378:212|343:217,1,62.500000298023,8|0,0:0|0:0,0:0:0:0:
464,263,8782,1,0,0:0:0:0:
443,354,8889,1,8,0:0:0:0:
485,172,8996,2,0,L|481:109,1,62.500000298023
338,66,9210,1,8,0:0:0:0:
353,65,9264,1,8,0:0:0:0:
368,64,9317,1,8,0:0:0:0:
383,63,9371,1,8,0:0:0:0:
398,62,9424,6,0,L|271:53,1,125.000000596046
65,126,9746,2,0,L|192:117,1,125.000000596046,8|0,0:0|0:0,0:0:0:0:
189,117,10174,1,0,0:0:0:0:
258,196,10282,2,0,P|257:229|246:263,1,62.500000298023,0|8,0:0|0:0,0:0:0:0:
208,320,10496,2,0,P|178:335|143:343,1,62.500000298023
43,224,10710,2,0,P|76:223|110:212,1,62.500000298023
166,174,10924,2,0,P|180:146|189:116,1,62.500000298023,0|8,0:0|0:0,0:0:0:0:
266,366,11246,1,0,0:0:0:0:
65,126,11460,1,0,0:0:0:0:
373,70,11674,6,0,L|300:65,1,62.500000298023,8|0,0:0|0:0,0:0:0:0:
439,16,11889,1,0,0:0:0:0:
345,167,11996,6,0,L|275:162,1,62.500000298023,8|0,0:0|0:0,0:0:0:0:
438,92,12210,1,0,0:0:0:0:
486,178,12317,1,8,0:0:0:0:
489,200,12371,1,8,0:0:0:0:
492,222,12424,6,0,B|499:293,1,62.500000298023,4|0,0:0|0:0,0:0:0:0:
401,363,12639,2,0,B|394:300,1,62.500000298023,8|0,0:0|0:0,0:0:0:0:
252,232,12853,1,0,0:0:0:0:
266,366,12960,1,0,0:0:0:0:
135,304,13067,2,0,L|197:304,1,62.500000298023,8|0,0:0|0:0,0:0:0:0:
37,320,13282,6,0,P|21:346|0:372,1,62.500000298023,0|8,0:0|0:0,0:0:0:0:
59,64,13496,2,0,P|65:94|64:125,1,62.500000298023
66,226,13710,1,8,0:0:0:0:
75,225,13764,1,8,0:0:0:0:
84,224,13817,1,8,0:0:0:0:
93,223,13871,1,8,0:0:0:0:
102,221,13924,6,0,B|54:209|54:232|3:217,1,93.7500040233133,4|0,0:0|0:0,0:0:0:0:
252,232,14246,2,0,B|300:220|300:243|351:228,1,93.7500040233133,8|0,0:0|0:0,0:0:0:0:
65,126,14567,1,0,0:0:0:0:
208,85,14674,2,0,L|203:131,1,46.8750020116567,8|8,0:0|0:0,0:0:0:0:
5,103,14889,1,0,0:0:0:0:
290,38,14996,2,0,L|277:152,1,93.7500040233133,12|8,0:0|0:0,0:0:0:0:
144,46,15317,1,8,0:3:0:0:
142,34,15371,1,0,0:0:0:0:
88,0,15424,6,0,P|46:23|-3:19,1,93.7500040233133,4|0,0:0|0:0,0:0:0:0:
74,219,15746,2,0,L|64:118,1,93.7500040233133,8|0,0:0|0:0,0:0:0:0:
18,297,16174,1,8,0:0:0:0:
9,366,16282,1,8,0:0:0:0:
9,366,16496,5,8,0:0:0:0:
74,339,16603,1,0,0:0:0:0:
139,366,16710,1,8,0:0:0:0:
194,322,16817,1,8,0:0:0:0:
151,235,16924,6,0,L|186:239,1,31.2500001490115,4|0,0:0|0:0,0:0:0:0:
361,235,17138,2,0,L|326:239,1,31.2500001490115,2|0,0:2|0:0,0:0:0:0:
189,123,17352,2,0,L|209:151,1,31.2500001490115,2|0,0:2|0:0,0:0:0:0:
323,123,17566,2,0,L|302:151,1,31.2500001490115,2|0,0:2|0:0,0:0:0:0:
215,41,17781,1,0,0:0:0:0:
148,16,17888,2,0,L|108:19,1,31.2500001490115,2|0,0:2|0:0,0:0:0:0:
297,41,18102,1,2,0:2:0:0:
364,16,18209,2,0,L|404:19,1,31.2500001490115,2|0,0:2|0:0,0:0:0:0:
189,123,18423,2,0,L|149:126,1,31.2500001490115,0|2,0:0|0:2,0:0:0:0:
323,123,18638,6,0,L|363:126,1,31.2500001490115,0|2,0:0|0:2,0:0:0:0:
423,127,18852,1,0,0:0:0:0:
461,231,18959,2,0,L|421:234,1,31.2500001490115,0|2,0:0|0:2,0:0:0:0:
361,235,19173,1,0,0:0:0:0:
291,239,19281,2,0,L|259:241,1,31.2500001490115,2|0,0:2|0:0,0:0:0:0:
189,245,19495,5,0,0:0:0:0:
151,313,19602,1,2,0:2:0:0:
194,378,19709,1,2,0:2:0:0:
111,247,19816,5,0,0:0:0:0:
73,315,19923,1,8,0:3:0:0:
116,380,20031,1,8,0:3:0:0:
229,311,20138,5,2,0:2:0:0:
38,382,20245,1,0,0:0:0:0:
272,376,20352,6,0,P|300:375|323:382,1,46.8750020116567,4|0,0:0|0:0,0:0:0:0:
318,379,20566,1,0,0:0:0:0:
361,235,20673,6,0,P|385:248|402:265,1,46.8750020116567,0|4,0:0|0:0,0:0:0:0:
398,261,20888,1,0,0:0:0:0:
491,113,20995,6,0,P|505:136|511:160,1,46.8750020116567
327,26,21209,2,0,L|377:24,1,46.8750020116567,4|0,0:0|0:0,0:0:0:0:
43,19,21423,2,0,L|93:17,1,46.8750020116567
315,14,21638,2,0,L|365:12,1,46.8750020116567,4|0,0:0|0:0,0:0:0:0:
31,7,21852,2,0,L|81:5,1,46.8750020116567
234,113,22066,6,0,P|234:137|230:161,1,46.8750020116567,4|0,0:0|0:0,0:0:0:0:
145,153,22281,1,0,0:0:0:0:
313,168,22388,1,0,0:0:0:0:
145,153,22495,2,0,P|121:153|97:149,1,46.8750020116567,4|0,0:0|0:0,0:0:0:0:
105,64,22709,1,0,0:0:0:0:
90,232,22816,1,0,0:0:0:0:
26,142,22923,6,0,L|22:94,1,46.8750020116567,4|0,0:0|0:0,0:0:0:0:
13,237,23138,1,0,0:0:0:0:
12,229,23191,1,0,0:0:0:0:
11,221,23245,1,0,0:0:0:0:
0,332,23352,1,0,0:0:0:0:
0,332,23459,1,0,0:0:0:0:
0,332,23566,1,0,0:0:0:0:
0,332,23781,6,0,B|37:323|37:323|122:344,1,125.000000596046,4|0,0:0|0:0,0:0:0:0:
285,282,24102,2,0,P|226:262|169:287,1,125.000000596046,8|0,0:0|0:0,0:0:0:0:
220,121,24423,2,0,L|223:191,1,62.500000298023
229,355,24638,1,0,0:0:0:0:
432,351,24745,2,0,B|387:350|387:350|349:361|349:361|295:358,1,125.000000596046,8|0,0:0|0:0,0:0:0:0:
498,305,25066,2,0,P|509:333|511:364,1,62.500000298023
443,236,25280,1,0,0:0:0:0:
378,175,25388,2,0,P|367:104|389:56,1,125.000000596046,8|0,0:0|0:0,0:0:0:0:
464,122,25709,5,0,0:0:0:0:
292,123,25816,1,0,0:0:0:0:
454,8,25923,1,0,0:0:0:0:
292,123,26030,2,0,B|250:118|250:118|208:127|208:127|167:120,1,125.000000596046,8|0,0:0|0:0,0:0:0:0:
246,207,26352,6,0,L|253:273,1,62.500000298023
235,41,26566,1,0,0:0:0:0:
113,159,26673,1,8,0:0:0:0:
119,71,26780,1,4,0:3:0:0:
33,193,26888,1,8,0:0:0:0:
45,24,26995,5,0,0:0:0:0:
39,111,27102,1,8,0:0:0:0:
39,111,27209,1,4,0:3:0:0:
113,159,27316,1,8,0:0:0:0:
119,246,27423,1,4,0:3:0:0:
119,246,27530,1,8,0:0:0:0:
235,41,27638,6,0,P|267:48|304:36,2,62.500000298023
420,21,27959,2,0,P|450:14|480:21,2,62.500000298023,8|8|8,0:0|0:0|0:0,0:0:0:0:
246,207,28280,1,8,0:0:0:0:
334,202,28388,1,8,0:0:0:0:
421,198,28495,1,4,0:3:0:0:
481,22,28602,2,0,L|487:151,1,125.000000596046,8|0,0:0|0:0,0:0:0:0:
417,320,28923,5,8,0:0:0:0:
246,207,29030,1,8,0:0:0:0:
246,207,29244,1,8,0:0:0:0:
246,207,29458,6,0,B|156:236|156:236|224:192|193:114,1,234.375010058283,4|0,0:0|0:0,0:0:0:0:
146,60,29780,5,0,0:0:0:0:
123,161,29887,1,8,0:0:0:0:
123,161,29994,1,8,0:0:0:0:
123,161,30101,1,8,0:0:0:0:
123,161,30208,1,8,0:0:0:0:
123,161,30315,2,0,P|84:169|48:157,1,78.1250003725287,4|0,0:0|0:0,0:0:0:0:
34,149,30637,5,8,0:0:0:0:
36,336,30744,1,8,0:0:0:0:
36,336,30958,1,8,0:0:0:0:
36,336,31172,6,0,P|121:312|41:294,1,234.375010058283,4|0,0:0|0:0,0:0:0:0:
77,320,31494,5,0,0:0:0:0:
239,273,31601,1,12,0:0:0:0:
229,274,31708,1,0,0:0:0:0:
219,276,31815,1,8,0:0:0:0:
209,278,31922,1,8,0:0:0:0:
199,280,32030,2,0,L|284:295,1,78.1250003725287,4|0,0:0|0:0,0:0:0:0:
326,247,32351,6,0,P|318:293|331:347,1,93.7500040233133,4|8,0:0|0:0,0:0:0:0:
386,211,32672,2,0,P|394:165|381:111,1,93.7500040233133
332,40,32994,1,8,0:0:0:0:
332,40,33208,1,0,0:0:0:0:
269,80,33315,1,0,0:0:0:0:
197,60,33422,2,0,P|189:41|189:10,1,46.8750020116567,8|0,0:0|0:0,0:0:0:0:
269,80,33637,2,0,P|268:103|259:125,1,46.8750020116567,0|4,0:0|0:2,0:0:0:0:
208,179,33851,1,8,0:0:0:0:
141,145,33958,2,0,P|98:135|49:155,1,93.7500040233133
19,278,34280,6,0,L|15:229,1,46.8750020116567,8|0,0:0|0:0,0:0:0:0:
30,295,34601,2,0,L|26:246,1,46.8750020116567,0|8,0:0|0:0,0:0:0:0:
41,312,34922,2,0,L|37:263,1,46.8750020116567
159,98,35244,2,0,L|163:147,1,46.8750020116567
226,225,35458,1,4,0:2:0:0:
226,225,35565,2,0,L|230:176,1,46.8750020116567,8|0,0:0|0:0,0:0:0:0:
256,97,35780,5,0,0:0:0:0:
256,97,35994,1,8,0:0:0:0:
256,97,36101,2,0,L|349:91,1,93.7500040233133
411,134,36422,2,0,P|424:93|407:44,1,93.7500040233133,8|0,0:0|0:0,0:0:0:0:
356,192,36744,5,0,0:0:0:0:
356,192,36851,2,0,L|363:257,1,46.8750020116567,8|0,0:0|0:0,0:0:0:0:
292,363,37065,2,0,L|280:264,1,93.7500040233133,0|8,0:0|0:0,0:0:0:0:
204,225,37387,2,0,L|192:126,1,93.7500040233133
111,18,37708,2,0,L|99:117,1,93.7500040233133,8|0,0:0|0:0,0:0:0:0:
23,156,38030,2,0,L|11:255,1,93.7500040233133
140,334,38351,6,0,L|69:340,1,62.500000298023
204,225,38565,1,8,0:0:0:0:
297,229,38672,1,8,0:0:0:0:
456,190,38780,2,0,L|462:261,1,62.500000298023,8|8,0:0|0:0,0:0:0:0:
347,126,38994,1,8,0:0:0:0:
351,33,39101,1,4,0:3:0:0:
211,74,39208,6,0,P|245:80|273:74,1,62.500000298023,4|0,0:0|0:0,0:0:0:0:
244,0,39422,1,8,0:0:0:0:
201,162,39530,2,0,L|204:227,1,62.500000298023
456,190,39744,1,0,0:0:0:0:
273,152,39851,1,8,0:0:0:0:
367,224,39958,1,0,0:0:0:0:
351,33,40065,6,0,P|383:39|418:32,1,62.500000298023
504,13,40280,1,8,0:0:0:0:
454,251,40387,2,0,P|460:219|453:184,1,62.500000298023
434,98,40602,1,0,0:0:0:0:
374,299,40708,2,0,P|368:331|375:366,1,62.500000298023,8|0,0:0|0:0,0:0:0:0:
468,357,40922,5,0,0:0:0:0:
279,366,41030,1,0,0:0:0:0:
373,361,41137,1,8,0:0:0:0:
185,371,41244,1,0,0:0:0:0:
192,156,41351,6,0,P|202:186|199:229,1,62.500000298023
205,54,41565,2,0,P|174:47|138:23,1,62.500000298023,8|0,0:0|0:0,0:0:0:0:
286,116,41780,2,0,P|307:93|346:74,1,62.500000298023,0|8,0:0|0:0,2:0:0:0:
426,98,41994,1,8,0:0:0:0:
192,156,42101,2,0,P|131:167|75:144,1,125.000000596046,4|0,0:0|0:0,0:0:0:0:
15,40,42422,1,8,0:0:0:0:
11,52,42637,6,0,L|17:127,1,62.500000298023
24,207,42851,1,8,0:0:0:0:
188,317,42958,6,0,L|194:242,1,62.500000298023
201,162,43172,1,0,0:0:0:0:
130,203,43280,5,8,0:0:0:0:
261,212,43387,1,0,0:0:0:0:
93,140,43494,1,0,0:0:0:0:
192,254,43601,1,0,0:0:0:0:
298,149,43708,2,0,P|328:143|361:152,1,62.500000298023,8|0,0:0|0:0,0:0:0:0:
159,95,43922,2,0,P|159:64|150:31,1,62.500000298023
35,195,44137,2,0,P|35:226|44:259,1,62.500000298023,8|0,0:0|0:0,0:0:0:0:
188,317,44351,5,0,0:0:0:0:
188,317,44458,1,0,0:0:0:0:
188,317,44565,2,0,L|128:340,1,62.500000298023,8|0,0:0|0:0,0:0:0:0:
324,317,44780,1,0,0:0:0:0:
324,317,44887,1,0,0:0:0:0:
324,317,44994,2,0,L|384:340,1,62.500000298023,8|0,0:0|0:0,0:0:0:0:
492,160,45208,5,0,0:0:0:0:
436,256,45315,1,8,0:0:0:0:
416,180,45422,1,8,0:0:0:0:
512,235,45530,2,0,B|512:279|512:279|503:323|503:323|503:367,1,125.000000596046,4|4,0:0|0:3,0:0:0:0:
492,160,45851,1,8,0:0:0:0:
491,150,45905,1,8,0:0:0:0:
490,140,45958,1,8,0:0:0:0:
489,130,46012,1,8,0:0:0:0:
488,120,46065,6,0,P|454:109|428:113,1,62.500000298023,4|0,0:0|0:0,0:0:0:0:
281,142,46280,1,8,0:0:0:0:
356,138,46387,1,0,0:0:0:0:
210,115,46494,2,0,P|201:82|204:52,1,62.500000298023
281,142,46708,2,0,P|290:175|287:205,1,62.500000298023,8|0,0:0|0:0,0:0:0:0:
20,307,46922,2,0,P|53:316|83:313,1,62.500000298023,0|8,0:0|0:0,0:0:0:0:
59,234,47137,1,8,0:0:0:0:
152,167,47244,2,0,B|86:191|86:143|31:167,1,125.000000596046
156,90,47565,2,0,P|186:94|210:116,1,62.500000298023,8|0,0:0|0:0,0:0:0:0:
11,18,47780,6,0,P|33:38|64:42,1,62.500000298023
142,19,47994,1,8,0:0:0:0:
33,115,48101,1,0,0:0:0:0:
142,19,48208,2,0,L|223:17,1,62.500000298023
152,167,48422,2,0,L|89:168,1,62.500000298023,8|0,0:0|0:0,0:0:0:0:
20,307,48637,5,0,0:0:0:0:
59,234,48744,1,8,0:0:0:0:
67,372,48851,1,8,0:0:0:0:
140,257,48958,5,4,0:0:0:0:
143,340,49065,1,0,0:0:0:0:
221,234,49172,5,4,0:3:0:0:
213,372,49280,1,8,0:0:0:0:
260,307,49387,1,0,0:0:0:0:
337,309,49494,6,0,L|407:306,1,62.500000298023,4|8,0:0|0:0,0:0:0:0:
480,303,49708,1,8,0:0:0:0:
487,33,49922,1,8,0:0:0:0:
412,42,50030,1,8,0:0:0:0:
270,92,50244,5,0,0:0:0:0:
195,84,50351,1,0,0:0:0:0:
120,76,50458,1,8,0:0:0:0:
45,69,50565,1,0,0:0:0:0:
87,7,50672,1,0,0:0:0:0:
87,7,50887,1,0,0:0:0:0:
87,7,51101,1,8,0:0:0:0:
29,348,51422,5,4,0:3:0:0:
30,335,51637,1,0,0:0:0:0:
31,322,51851,1,8,0:0:0:0:
32,309,52065,6,0,P|63:299|92:304,1,62.500000298023
173,134,52280,2,0,L|220:93,1,62.500000298023,8|0,0:0|0:0,0:0:0:0:
173,250,52494,2,0,L|220:291,1,62.500000298023
32,75,52708,2,0,P|63:85|92:80,1,62.500000298023,8|0,0:0|0:0,0:0:0:0:
256,192,52922,6,0,L|320:192,1,62.500000298023,0|8,0:0|0:0,0:0:0:0:
443,147,53137,1,8,0:0:0:0:
300,91,53244,2,0,P|357:92|409:46,1,125.000000596046,4|4,0:0|0:3,0:0:0:0:
168,72,53565,2,0,P|175:104|168:148,1,62.500000298023,8|0,0:0|0:0,0:0:0:0:
28,217,53780,5,0,0:0:0:0:
32,75,53887,1,0,0:0:0:0:
92,147,53994,2,0,L|30:146,1,62.500000298023,8|0,0:0|0:0,0:0:0:0:
173,250,54208,1,0,0:0:0:0:
28,217,54315,1,0,0:0:0:0:
84,369,54422,2,0,P|82:338|88:307,1,62.500000298023,8|0,0:0|0:0,0:0:0:0:
173,250,54637,5,0,0:0:0:0:
253,259,54744,1,0,0:0:0:0:
333,268,54851,1,8,0:0:0:0:
413,277,54958,2,0,B|422:212|422:212|409:152,1,125.000000596046,4|0,0:0|0:0,0:0:0:0:
323,101,55280,2,0,B|320:135|320:135|326:163,1,62.500000298023,8|0,0:0|0:0,0:0:0:0:
472,95,55494,6,0,B|475:61|475:61|469:33,1,62.500000298023,4|8,0:0|0:0,0:0:0:0:
472,95,55708,1,8,0:0:0:0:
472,95,55922,5,8,0:0:0:0:
398,132,56030,1,8,0:0:0:0:
398,132,56244,5,0,0:0:0:0:
323,101,56351,1,0,0:0:0:0:
323,101,56565,5,0,0:0:0:0:
267,159,56672,1,0,0:0:0:0:
265,171,56887,1,0,0:0:0:0:
263,183,57101,1,8,0:0:0:0:
483,350,57422,5,4,0:3:0:0:
481,338,57637,1,0,0:0:0:0:
479,326,57851,1,8,0:0:0:0:
477,314,58065,5,0,0:0:0:0:
407,341,58172,1,0,2:0:0:0:
338,310,58279,1,0,0:0:0:0:
274,360,58386,5,8,0:0:0:0:
205,329,58493,1,8,0:3:0:0:
135,356,58600,1,4,0:3:0:0:
63,255,58707,6,0,P|72:286|67:322,1,62.500000298023,4|0,0:0|0:0,0:0:0:0:
0,294,58922,1,0,0:0:0:0:
121,192,59029,6,0,P|152:201|188:196,1,62.500000298023,12|0,0:0|0:0,0:0:0:0:
160,129,59243,1,0,0:0:0:0:
22,73,59350,6,0,L|27:147,1,62.500000298023,4|0,0:0|0:0,0:0:0:0:
65,18,59565,1,0,0:0:0:0:
230,41,59672,6,0,L|156:46,1,62.500000298023,12|8,0:0|0:3,0:0:0:0:
285,84,59886,1,4,0:3:0:0:
370,30,59993,5,4,0:0:0:0:
385,32,60100,1,0,0:0:0:0:
400,34,60207,1,8,0:0:0:0:
491,130,60315,5,4,0:0:0:0:
476,132,60422,1,0,0:0:0:0:
461,134,60529,1,8,0:0:0:0:
305,218,60636,6,0,L|374:232,1,62.500000298023,4|0,0:0|0:0,0:0:0:0:
382,234,60850,1,8,0:0:0:0:
200,282,60957,6,0,L|261:294,1,62.500000298023,12|8,0:0|0:0,0:0:0:0:
277,298,61172,1,4,0:3:0:0:
95,346,61279,6,0,P|65:282|243:187,1,328.125001564621,4|0,0:0|0:0,0:0:0:0:
305,218,62457,5,8,0:0:0:0:
305,218,62564,1,8,0:0:0:0:
305,218,62671,1,8,0:0:0:0:
302,136,62779,1,8,0:0:0:0:
302,136,62993,6,0,L|372:129,1,62.500000298023
493,186,63207,1,0,0:0:0:0:
426,179,63314,1,0,0:0:0:0:
305,218,63421,2,0,L|375:211,1,62.500000298023,8|0,0:0|0:0,0:0:0:0:
496,268,63635,1,0,0:0:0:0:
429,261,63743,1,8,0:0:0:0:
318,365,63850,2,0,P|314:332|320:296,1,62.500000298023
194,303,64064,6,0,P|198:334|194:365,1,62.500000298023
55,372,64278,1,0,0:0:0:0:
102,242,64385,1,0,0:0:0:0:
119,322,64493,1,8,0:0:0:0:
26,213,64600,1,0,0:0:0:0:
119,77,64707,2,0,P|122:44|111:13,1,62.500000298023,0|4,0:0|0:3,0:0:0:0:
31,152,64921,2,0,P|21:181|25:212,1,62.500000298023,8|8,0:0|0:0,0:0:0:0:
102,242,65135,5,4,0:0:0:0:
176,207,65243,1,0,0:0:0:0:
252,234,65350,1,0,0:0:0:0:
274,312,65457,1,0,0:0:0:0:
176,207,65564,2,0,P|168:171|173:143,1,62.500000298023,0|8,0:0|0:0,0:0:0:0:
336,51,65778,2,0,P|344:87|339:115,1,62.500000298023,0|8,0:0|0:0,0:0:0:0:
256,125,65993,1,0,0:0:0:0:
256,31,66100,1,0,0:0:0:0:
256,31,66314,5,0,0:0:0:0:
256,125,66421,1,0,0:0:0:0:
332,179,66528,1,0,0:0:0:0:
420,147,66635,2,0,L|488:150,1,62.500000298023,0|8,0:0|0:0,0:0:0:0:
256,125,66850,2,0,L|188:128,1,62.500000298023,0|8,0:0|0:0,0:0:0:0:
336,51,67064,1,8,0:0:0:0:
176,51,67171,1,8,0:0:0:0:
336,51,67278,6,0,L|404:48,1,62.500000298023
176,51,67493,2,0,L|108:48,1,62.500000298023
332,179,67707,2,0,P|336:208|334:243,1,62.500000298023,8|0,0:0|0:0,0:0:0:0:
180,332,67921,2,0,P|176:303|178:268,1,62.500000298023,0|8,0:0|0:0,0:0:0:0:
264,303,68135,1,0,0:0:0:0:
91,304,68243,1,0,0:0:0:0:
261,380,68350,5,0,0:0:0:0:
88,381,68457,1,0,0:0:0:0:
332,338,68564,2,0,P|338:309|337:272,1,62.500000298023
18,278,68778,2,0,P|17:309|23:339,1,62.500000298023,8|0,0:0|0:0,0:0:0:0:
70,226,68992,1,0,0:0:0:0:
70,226,69100,1,4,0:3:0:0:
23,152,69207,1,0,0:0:0:0:
23,152,69314,1,8,0:0:0:0:
69,29,69421,6,0,P|68:61|77:95,1,62.500000298023,4|0,0:0|0:0,0:0:0:0:
270,241,69635,2,0,P|271:272|263:302,1,62.500000298023
85,159,69850,2,0,L|23:152,1,62.500000298023,4|8,0:3|0:0,0:0:0:0:
335,150,70064,2,0,L|272:157,1,62.500000298023,0|8,0:0|0:0,0:0:0:0:
509,95,70278,1,0,0:0:0:0:
430,196,70385,1,0,0:0:0:0:
430,196,70492,6,0,L|433:131,1,62.500000298023,4|0,0:0|0:0,0:0:0:0:
501,345,70707,2,0,L|503:282,1,62.500000298023
351,336,70921,2,0,L|386:317,7,31.2500001490115,0|0|8|0|8|0|8|0,0:0|0:0|0:0|0:0|0:0|0:0|0:0|0:0,0:0:0:0:
379,255,71350,1,8,0:3:0:0:
357,259,71403,1,8,0:3:0:0:
335,260,71457,1,0,0:0:0:0:
314,256,71510,1,0,0:0:0:0:
294,248,71564,6,0,P|256:244|220:260,1,78.1250003725287,4|0,0:0|0:0,0:0:0:0:
113,373,71778,1,0,0:0:0:0:
49,201,71885,1,0,0:0:0:0:
15,300,71992,2,0,P|82:260|154:278,1,156.250000745057,0|8,0:0|0:0,0:0:0:0:
207,336,72314,1,0,0:0:0:0:
155,158,72421,5,0,0:0:0:0:
57,130,72528,1,0,0:0:0:0:
130,60,72635,1,8,0:0:0:0:
163,166,72742,5,0,0:0:0:0:
45,132,72849,1,0,0:0:0:0:
133,48,72956,1,0,0:0:0:0:
166,170,73064,5,8,0:0:0:0:
40,134,73171,1,0,0:0:0:0:
134,43,73278,6,0,B|178:57|178:57|206:40|249:41,1,117.187500558793
286,38,73492,2,0,B|302:63|302:63|303:116,1,78.1250003725287,8|0,0:0|0:0,0:0:0:0:
207,336,73706,2,0,P|225:299|257:277,1,78.1250003725287,4|0,0:2|0:0,0:0:0:0:
393,252,73921,2,0,P|432:248|468:263,1,78.1250003725287,8|0,0:0|0:0,0:0:0:0:
326,351,74135,5,0,0:0:0:0:
320,259,74242,1,0,0:0:0:0:
373,184,74349,1,8,0:0:0:0:
464,161,74456,1,8,0:0:0:0:
316,373,74564,5,0,0:0:0:0:
310,263,74671,1,4,0:0:0:0:
374,173,74778,1,8,0:3:0:0:
482,145,74885,1,8,0:3:0:0:
285,37,74992,6,0,B|272:74|272:74|277:113,1,78.1250003725287,4|0,0:0|0:0,0:0:0:0:
393,252,75206,1,8,0:0:0:0:
504,254,75314,2,0,P|450:237|390:253,1,117.187500558793
396,290,75528,2,0,P|401:331|390:372,1,78.1250003725287,0|8,0:0|0:0,0:0:0:0:
345,210,75742,1,0,0:0:0:0:
116,289,75849,6,0,P|110:328|119:366,1,78.1250003725287
167,210,76064,1,8,0:0:0:0:
15,148,76171,2,0,B|47:160|47:160|80:135|126:138,1,117.187500558793
163,148,76385,2,0,B|151:108|151:108|162:70,1,78.1250003725287,0|8,0:0|0:0,0:0:0:0:
224,4,76599,1,0,0:0:0:0:
437,50,76706,5,0,0:0:0:0:
366,56,76814,1,0,0:0:0:0:
295,62,76921,1,8,0:0:0:0:
224,68,77028,1,0,0:0:0:0:
138,149,77135,5,0,0:0:0:0:
240,157,77242,1,0,0:0:0:0:
342,166,77349,1,8,0:0:0:0:
444,175,77456,1,0,0:0:0:0:
497,362,77563,6,0,L|489:285,1,78.1250003725287
324,252,77778,1,8,0:0:0:0:
415,268,77885,1,8,0:0:0:0:
286,341,77992,1,0,0:0:0:0:
195,357,78099,1,8,0:3:0:0:
138,220,78206,1,8,0:3:0:0:
229,236,78313,1,8,0:3:0:0:
63,262,78421,6,0,P|54:224|62:181,1,78.1250003725287,4|0,0:0|0:0,0:0:0:0:
240,157,78635,1,8,0:0:0:0:
138,220,78742,1,0,0:0:0:0:
13,86,78849,2,0,P|79:100|151:43,1,156.250000745057,0|8,0:0|0:0,0:0:0:0:
65,8,79171,1,0,0:0:0:0:
69,176,79278,5,0,0:0:0:0:
63,262,79385,1,0,0:0:0:0:
57,348,79492,1,8,0:0:0:0:
62,365,79599,5,0,0:0:0:0:
68,279,79706,1,0,0:0:0:0:
74,193,79813,1,0,0:0:0:0:
214,219,79921,2,0,P|176:226|138:220,1,78.1250003725287,8|0,0:0|0:0,0:0:0:0:
294,336,80135,6,0,P|289:296|327:233,1,117.187500558793,4|0,0:0|0:0,0:0:0:0:
313,218,80349,2,0,B|335:231|335:231|402:213,1,78.1250003725287,8|0,0:0|0:0,0:0:0:0:
404,210,80510,1,4,0:2:0:0:
421,201,80563,2,0,P|434:164|427:119,1,78.1250003725287,8|4,0:0|0:3,0:0:0:0:
437,287,80778,1,8,0:0:0:0:
457,288,80831,1,4,0:2:0:0:
477,289,80885,1,0,0:0:0:0:
466,57,80992,6,0,B|439:62|439:62|388:50,1,78.1250003725287,4|0,0:3|0:0,0:0:0:0:
370,46,81153,1,4,0:2:0:0:
350,42,81206,1,8,0:0:0:0:
278,89,81313,1,8,0:0:0:0:
355,128,81421,1,8,0:0:0:0:
273,3,81528,2,0,B|216:30|161:5|161:5|179:23|179:43,1,156.250000745057,4|0,0:0|0:0,0:0:0:0:
172,133,81849,5,4,0:0:0:0:
85,169,81956,1,0,0:0:0:0:
14,107,82063,1,8,0:0:0:0:
172,133,82171,2,0,L|179:256,1,117.187500558793
204,184,82385,2,0,L|198:87,1,78.1250003725287,0|8,0:0|0:0,0:0:0:0:
126,303,82599,1,0,0:0:0:0:
223,330,82706,5,0,0:0:0:0:
339,316,82813,1,0,0:0:0:0:
273,273,82921,1,8,0:0:0:0:
389,259,83028,2,0,B|435:281|466:252|466:252|503:252,1,117.187500558793
442,305,83242,2,0,L|449:383,1,78.1250003725287,0|8,0:0|0:0,0:0:0:0:
434,186,83456,1,0,0:0:0:0:
387,113,83563,6,0,P|428:115|466:101,1,78.1250003725287
290,91,83778,2,0,P|326:72|352:41,1,78.1250003725287,8|0,0:0|0:0,0:0:0:0:
125,15,83992,6,0,P|84:13|46:27,1,78.1250003725287,4|0,0:2|0:0,0:0:0:0:
222,37,84206,2,0,P|185:55|159:86,1,78.1250003725287,8|0,0:0|0:0,0:0:0:0:
145,191,84421,5,0,0:0:0:0:
119,281,84528,1,0,0:0:0:0:
211,305,84635,1,8,0:0:0:0:
235,215,84742,1,4,0:0:0:0:
81,222,84849,5,0,0:0:0:0:
273,273,84956,1,8,0:3:0:0:
203,151,85063,1,8,0:0:0:0:
151,344,85171,1,8,0:0:0:0:
326,347,85278,6,0,P|385:342|455:371,1,125.000000596046,4|8,0:0|0:0,0:0:0:0:
459,184,85599,2,0,P|492:232|502:307,1,125.000000596046
406,134,85921,2,0,P|432:115|469:114,1,62.500000298023,12|0,0:0|0:0,0:0:0:0:
393,202,86135,5,0,0:0:0:0:
338,151,86242,1,0,0:0:0:0:
356,78,86349,2,0,P|383:56|418:46,1,62.500000298023,8|0,0:0|0:0,0:0:0:0:
483,38,86563,1,0,0:0:0:0:
483,38,86671,1,0,0:0:0:0:
281,101,86778,1,8,0:0:0:0:
159,109,86885,1,0,0:0:0:0:
281,101,86992,6,0,B|239:111|239:111|205:101|205:101|159:110,1,125.000000596046,0|8,0:0|0:0,0:0:0:0:
102,177,87313,2,0,P|76:116|89:61,1,125.000000596046,0|8,0:0|0:0,0:0:0:0:
183,193,87635,2,0,B|190:260|190:260|164:313,1,125.000000596046,0|8,0:0|0:0,0:0:0:0:
101,351,87956,2,0,B|140:337|140:337|224:356,1,125.000000596046,4|0,0:0|0:0,0:0:0:0:
279,307,88278,2,0,B|273:276|273:276|276:244,2,62.500000298023,8|0|8,0:0|0:0|0:0,0:0:0:0:
341,348,88599,1,4,0:3:0:0:
404,307,88706,6,0,P|435:303|475:314,1,62.500000298023,4|0,0:0|0:0,0:0:0:0:
511,369,88921,1,8,0:0:0:0:
512,103,89028,2,0,P|516:134|505:174,1,62.500000298023,0|8,0:0|0:0,0:0:0:0:
440,208,89242,1,4,0:3:0:0:
238,168,89349,6,0,P|269:169|298:160,1,62.500000298023,4|0,0:0|0:0,0:0:0:0:
375,14,89563,2,0,P|357:41|349:71,1,62.500000298023
440,208,89778,2,0,P|426:181|404:159,1,62.500000298023,8|0,0:0|0:0,0:0:0:0:
272,244,89992,1,2,3:0:0:0:
404,307,90099,1,4,0:3:0:0:
262,362,90206,2,0,L|191:366,1,62.500000298023,8|0,0:0|0:0,0:0:0:0:
17,316,90421,6,0,B|58:337|92:312|92:312|144:312,1,125.000000596046,0|8,0:0|0:0,0:0:0:0:
17,195,90742,2,0,P|3:243|20:322,1,125.000000596046,0|8,0:0|0:0,0:0:0:0:
131,198,91063,2,0,B|113:211|113:211|36:186|36:186|16:195,1,125.000000596046,0|8,0:0|0:0,0:0:0:0:
144,11,91385,2,0,L|129:213,1,187.500000894069,4|0,0:0|0:0,0:0:0:0:
236,368,91813,1,8,0:0:0:0:
160,372,91921,1,8,0:0:0:0:
85,376,92028,1,4,0:3:0:0:
236,368,92135,6,0,L|283:374,1,46.8750020116567,4|2,0:0|0:2,0:0:0:0:
381,332,92349,2,0,L|334:326,1,46.8750020116567,0|2,0:0|0:2,0:0:0:0:
432,284,92563,2,0,L|479:290,1,46.8750020116567,0|2,0:0|0:2,0:0:0:0:
433,136,92777,5,4,0:0:0:0:
414,150,92885,1,0,0:0:0:0:
393,160,92992,1,0,0:0:0:0:
370,165,93099,1,8,0:0:0:0:
347,164,93206,1,0,0:0:0:0:
324,158,93313,1,0,0:0:0:0:
254,198,93420,5,0,0:0:0:0:
234,187,93527,1,0,0:0:0:0:
211,181,93635,1,0,0:0:0:0:
188,180,93742,1,8,0:0:0:0:
165,185,93849,1,0,0:0:0:0:
144,195,93956,1,0,0:0:0:0:
141,270,94063,5,8,0:0:0:0:
161,281,94170,1,8,0:0:0:0:
184,287,94277,1,8,0:0:0:0:
207,288,94385,1,0,0:0:0:0:
230,283,94492,1,8,0:0:0:0:
251,273,94599,1,8,0:0:0:0:
314,237,94706,6,0,L|368:243,1,46.8750020116567,0|2,0:0|0:2,0:0:0:0:
443,248,94920,1,8,0:0:0:0:
446,271,95027,1,10,0:2:0:0:
448,294,95135,1,8,0:3:0:0:
450,317,95242,1,4,0:3:0:0:
488,379,95349,6,0,L|441:384,1,46.8750020116567,4|0,0:0|0:0,0:0:0:0:
367,374,95563,1,0,0:0:0:0:
337,359,95670,1,8,0:0:0:0:
305,352,95777,1,0,0:0:0:0:
272,353,95885,1,0,0:0:0:0:
191,364,95992,5,0,0:0:0:0:
205,335,96099,1,0,0:0:0:0:
212,303,96206,1,0,0:0:0:0:
211,270,96313,1,8,0:0:0:0:
203,238,96420,1,0,0:0:0:0:
190,208,96527,1,0,0:0:0:0:
177,126,96635,5,8,0:0:0:0:
206,140,96742,1,8,0:0:0:0:
238,147,96849,1,8,0:0:0:0:
271,146,96956,1,0,0:0:0:0:
303,138,97063,1,8,0:0:0:0:
333,125,97170,1,8,0:0:0:0:
388,74,97277,6,0,P|391:50|385:16,1,46.8750020116567,0|10,0:0|0:2,0:0:0:0:
467,151,97492,2,0,P|464:127|470:93,1,46.8750020116567,8|10,0:0|0:2,0:0:0:0:
384,238,97706,2,0,P|387:214|381:180,1,46.8750020116567,8|4,0:3|0:3,0:0:0:0:
305,290,97920,5,4,0:0:0:0:
336,317,98027,1,0,0:0:0:0:
376,329,98134,1,0,0:0:0:0:
418,324,98242,1,8,0:0:0:0:
453,302,98349,2,0,P|465:282|469:253,1,46.8750020116567,0|8,0:0|0:3,0:0:0:0:
384,238,98563,5,0,0:0:0:0:
352,210,98670,1,0,0:0:0:0:
312,198,98777,1,0,0:0:0:0:
270,203,98884,1,8,0:0:0:0:
235,225,98992,2,0,P|223:245|219:274,1,46.8750020116567,0|8,0:0|0:0,0:0:0:0:
252,351,99206,5,0,0:0:0:0:
209,351,99313,1,0,0:0:0:0:
166,351,99420,1,0,0:0:0:0:
123,351,99527,1,8,0:0:0:0:
80,351,99634,2,0,L|22:351,1,46.8750020116567,0|8,0:0|0:0,0:0:0:0:
2,203,99849,5,8,0:0:0:0:
2,203,99956,2,8,L|6:264,1,46.8750020116567,10|12,0:2|0:3,0:0:0:0:
89,191,100170,1,8,0:3:0:0:
89,191,100277,2,0,L|93:130,1,46.8750020116567,8|4,0:3|0:3,0:0:0:0:
24,37,100492,5,4,0:0:0:0:
74,48,100599,1,0,0:0:0:0:
126,44,100706,1,0,0:0:0:0:
173,25,100813,1,8,0:0:0:0:
220,6,100920,1,0,0:0:0:0:
271,1,101027,1,8,0:0:0:0:
322,13,101134,6,0,P|347:18|382:12,1,46.8750020116567,4|0,0:0|0:0,0:0:0:0:
486,103,101349,1,0,0:0:0:0:
439,83,101456,1,8,0:0:0:0:
389,92,101563,1,0,0:0:0:0:
352,127,101670,1,8,0:0:0:0:
345,178,101777,6,0,P|341:206|345:225,1,46.8750020116567,4|0,0:0|0:0,0:0:0:0:
278,270,101992,1,0,0:0:0:0:
241,234,102099,1,8,0:0:0:0:
193,217,102206,1,0,0:0:0:0:
142,224,102313,1,8,0:0:0:0:
99,251,102420,5,8,0:0:0:0:
73,295,102527,1,8,0:0:0:0:
68,346,102634,1,4,0:3:0:0:
32,239,102742,5,8,0:3:0:0:
27,188,102849,1,8,0:3:0:0:
1,145,102956,1,4,0:3:0:0:
53,85,103063,5,4,0:0:0:0:
459,85,103599,1,4,0:0:0:0:
256,349,104134,2,0,L|256:192,1,156.250000745057,4|4,0:0|0:0,0:0:0:0:
256,192,104724,12,0,106920,2:0:0:0:
